osu file format v14

[General]
AudioFilename: 01 - Acceleration.mp3
AudioLeadIn: 0
PreviewTime: 21702
Countdown: 0
SampleSet: Soft
StackLeniency: 0.7
Mode: 0
LetterboxInBreaks: 0
WidescreenStoryboard: 0

[Editor]
DistanceSpacing: 1.1
BeatDivisor: 2
GridSize: 4
TimelineZoom: 1

[Metadata]
Title:Acceleration
TitleUnicode:Acceleration
Artist:REDALiCE
ArtistUnicode:REDALiCE
Creator:Leader
Version:EASY
Source:HALFPIPE TOKYO
Tags:Asphyxia maimai SEGA
BeatmapID:482158
BeatmapSetID:203920

[Difficulty]
HPDrainRate:3
CircleSize:3
OverallDifficulty:3
ApproachRate:2
SliderMultiplier:0.799999999999999
SliderTickRate:1

[Events]
//Background and Video events
0,0,"wind.jpg",0,0
//Break Periods
//Storyboard Layer 0 (Background)
//Storyboard Layer 1 (Fail)
//Storyboard Layer 2 (Pass)
//Storyboard Layer 3 (Foreground)
//Storyboard Sound Samples

[TimingPoints]
36,333.333333333333,4,2,1,75,1,0
36,-100,4,2,1,75,0,0
10702,-100,4,2,1,75,0,0
22702,-100,4,2,1,75,0,1
44035,-100,4,2,1,75,0,0
57369,-100,4,2,1,75,0,1
78535,-100,4,1,1,75,0,1
78702,-100,4,2,1,75,0,1
80035,-100,4,2,1,75,0,0

[Colours]
Combo1 : 17,254,176
Combo2 : 173,255,95
Combo3 : 255,88,100
Combo4 : 255,94,55

[HitObjects]
60,296,36,6,0,B|184:264|184:340|304:292,1,240,4|0,1:0|0:0,0:0:0:0:
376,260,1369,2,0,P|396:188|364:104,1,160,2|2,0:0|0:0,0:0:0:0:
196,68,2702,6,0,L|76:56,2,120,4|2|2,0:0|0:0|0:0,0:0:0:0:
276,108,4035,2,0,L|396:96,2,120,2|2|2,0:0|0:0|0:0,0:0:0:0:
228,180,5369,6,0,P|256:228|424:216,1,240,4|2,0:0|0:0,0:0:0:0:
472,292,6702,2,0,P|412:336|328:348,1,160,4|2,0:0|0:0,0:0:0:0:
160,304,8035,6,0,P|100:308|40:344,2,120,4|2|2,0:0|0:0|0:0,0:0:0:0:
236,256,9369,2,0,L|244:176,2,79.9999999999999,2|2|0,0:0|0:0|0:0,0:0:0:0:
372,368,10702,6,0,P|412:308|408:220,1,160,4|8,1:0|0:0,0:0:0:0:
296,88,12035,2,0,L|128:72,1,160,8|8,0:0|0:0,0:0:0:0:
20,204,13369,2,0,L|184:220,1,160,8|8,0:0|1:2,0:0:0:0:
300,348,14702,2,0,L|132:332,1,160,8|8,1:2|0:0,0:0:0:0:
20,204,16035,6,0,L|12:124,1,79.9999999999999,8|0,1:2|1:0,0:0:0:0:
96,96,16702,2,0,L|104:176,1,79.9999999999999,8|8,1:2|1:2,0:0:0:0:
192,184,17369,2,0,L|184:104,1,79.9999999999999,8|8,1:2|1:2,0:0:0:0:
268,76,18035,2,0,L|276:156,1,79.9999999999999,8|8,1:2|1:2,0:0:0:0:
288,244,18702,5,4,1:2:0:0:
256,192,19035,12,4,21369,1:0:0:0:
36,112,22702,6,0,B|116:88|116:144|208:104,1,160,4|0,1:0|1:0,0:0:0:0:
260,56,23702,1,0,1:0:0:0:
328,108,24035,2,0,P|386:109|448:84,2,120,0|2|0,1:0|0:1|0:0,0:0:0:0:
256,160,25369,6,0,L|244:240,1,79.9999999999999,4|0,1:0|1:0,0:0:0:0:
160,208,26035,2,0,L|148:288,1,79.9999999999999,0|0,1:0|1:0,0:0:0:0:
132,376,26702,1,2,1:0:0:0:
216,352,27035,2,0,L|328:344,2,79.9999999999999,0|0|2,1:0|0:0|1:0,0:0:0:0:
132,376,28035,6,0,P|96:344|104:228,1,160,4|0,1:0|1:0,0:0:0:0:
116,152,29035,1,0,1:0:0:0:
200,180,29369,2,0,L|328:168,2,120,0|2|0,1:0|0:1|0:0,0:0:0:0:
116,152,30702,2,0,P|104:116|80:80,2,79.9999999999999,0|0|0,1:0|1:0|1:0,0:0:0:0:
128,240,31702,6,0,P|220:248|304:328,1,200,4|2,1:2|0:1,0:0:0:0:
376,360,32869,1,4,1:2:0:0:
456,276,33369,6,0,P|484:204|456:128,1,160,4|0,1:0|1:0,0:0:0:0:
400,60,34369,1,8,1:0:0:0:
332,116,34702,2,0,L|184:108,2,120,0|2|8,1:0|0:1|1:2,0:0:0:0:
376,192,36035,6,0,L|360:272,1,79.9999999999999,0|8,1:0|1:0,0:0:0:0:
272,276,36702,2,0,L|256:356,1,79.9999999999999,0|8,1:0|1:0,0:0:0:0:
168,372,37369,2,0,P|120:376|56:312,2,120,2|2|10,1:0|0:1|1:0,0:0:0:0:
256,376,38702,6,0,L|344:368,1,79.9999999999999,4|8,1:0|1:0,0:0:0:0:
308,284,39369,2,0,L|396:276,1,79.9999999999999,0|8,1:0|1:0,0:0:0:0:
456,220,40035,2,0,P|464:168|440:92,2,120,0|2|8,1:0|0:1|1:2,0:0:0:0:
404,292,41369,2,0,L|420:376,2,79.9999999999999,4|8|4,1:2|1:0|1:2,0:0:0:0:
332,240,42369,6,0,P|236:236|160:300,1,200,8|4,1:0|1:2,0:0:0:0:
116,376,43535,1,4,1:2:0:0:
28,296,44035,6,0,P|72:188|32:72,1,240,4|8,1:0|0:0,0:0:0:0:
120,48,45369,2,0,L|284:36,1,160,4|0,0:0|0:0,0:0:0:0:
456,84,46702,6,0,L|444:168,1,79.9999999999999,4|8,0:0|0:0,0:0:0:0:
360,184,47369,2,0,L|372:100,1,79.9999999999999,4|8,0:0|0:0,0:0:0:0:
308,44,48035,2,0,P|256:36|188:76,2,120,4|0|4,0:0|1:0|0:0,0:0:0:0:
372,104,49369,6,0,L|348:268,1,160,12|2,0:0|0:1,0:0:0:0:
372,348,50369,1,8,0:1:0:0:
288,328,50702,2,0,P|232:320|172:348,2,120,12|0|8,0:0|1:0|0:1,0:0:0:0:
372,348,52035,5,12,1:2:0:0:
256,192,52369,12,4,54702,1:0:0:0:
256,192,56035,5,4,1:0:0:0:
256,192,57369,6,0,L|240:272,1,79.9999999999999,4|0,1:0|1:0,0:0:0:0:
152,276,58035,2,0,L|168:196,1,79.9999999999999,2|2,1:0|1:0,0:0:0:0:
116,128,58702,2,0,P|52:124|8:84,2,120,2|2|0,1:0|1:0|0:0,0:0:0:0:
200,148,60035,6,0,L|364:132,1,160,4|2,1:2|1:0,0:0:0:0:
436,88,61035,1,2,1:0:0:0:
444,176,61369,2,0,L|432:256,1,79.9999999999999,4|2,1:2|1:0,0:0:0:0:
348,232,62035,2,0,L|336:312,1,79.9999999999999,0|4,0:0|1:2,0:0:0:0:
260,356,62702,6,0,P|184:368|116:324,1,160,4|2,1:2|1:0,0:0:0:0:
68,252,63702,1,2,1:0:0:0:
52,164,64035,2,0,L|40:44,2,120,2|2|0,1:0|1:0|0:0,0:0:0:0:
136,188,65369,6,0,L|228:176,1,79.9999999999999,4|4,1:2|1:2,0:0:0:0:
304,164,66035,1,2,1:0:0:0:
348,240,66369,2,0,P|392:156|336:80,1,200,4|2,1:2|1:0,0:0:0:0:
248,68,67535,1,4,1:2:0:0:
144,152,68035,6,0,L|136:232,1,79.9999999999999,6|8,1:0|1:0,0:0:0:0:
224,216,68702,2,0,L|216:296,1,79.9999999999999,2|10,1:0|1:0,0:0:0:0:
288,344,69369,2,0,P|352:344|404:304,2,120,2|2|8,1:0|0:1|1:0,0:0:0:0:
216,296,70702,6,0,L|196:136,1,160,6|2,1:0|1:0,0:0:0:0:
180,52,71702,1,10,1:0:0:0:
264,76,72035,2,0,P|328:72|376:36,2,120,6|2|10,1:0|0:1|1:0,0:0:0:0:
180,52,73369,6,0,P|180:92|200:136,1,79.9999999999999,6|8,1:0|1:0,0:0:0:0:
220,212,74035,2,0,P|220:252|200:296,1,79.9999999999999,2|10,1:0|1:0,0:0:0:0:
132,336,74702,2,0,L|12:328,2,120,2|2|8,1:0|0:1|1:2,0:0:0:0:
216,368,76035,6,0,L|300:372,2,79.9999999999999,4|8|4,1:2|1:0|1:2,0:0:0:0:
200,280,77035,2,0,B|236:188|160:188|208:84,1,200,8|4,1:0|1:2,0:0:0:0:
268,20,78202,1,4,1:2:0:0:
384,64,78702,6,0,P|400:120|380:184,1,120,6|4,1:0|1:2,0:0:0:0:
344,256,79535,1,4,1:2:0:0:
292,368,80035,5,4,1:0:0:0:
