osu file format v14

[General]
AudioFilename: myL.mp3
AudioLeadIn: 0
PreviewTime: 48774
Countdown: 0
SampleSet: Soft
StackLeniency: 0.7
Mode: 0
LetterboxInBreaks: 0
EpilepsyWarning: 1
WidescreenStoryboard: 1

[Editor]
Bookmarks: 2716,14010,25304,36598,49304,60598,71892,83186,94480,105774,117068,129774,141068
DistanceSpacing: 1.2
BeatDivisor: 4
GridSize: 4
TimelineZoom: 1.399999

[Metadata]
Title:ALiVE
TitleUnicode:ALiVE
Artist:REDALiCE
ArtistUnicode:REDALiCE
Creator:Natsu
Version:Normal
Source:
Tags:Euny Kanari Alice Emotion HARDCORE SYNDROME 9 Tano*C C88
BeatmapID:799106
BeatmapSetID:359749

[Difficulty]
HPDrainRate:4
CircleSize:3.5
OverallDifficulty:4
ApproachRate:5
SliderMultiplier:1.3
SliderTickRate:1

[Events]
//Background and Video events
0,0,"bg.jpg",0,0
//Break Periods
//Storyboard Layer 0 (Background)
//Storyboard Layer 1 (Fail)
//Storyboard Layer 2 (Pass)
//Storyboard Layer 3 (Foreground)
//Storyboard Sound Samples

[TimingPoints]
2716,352.941176470588,4,2,2,70,1,0
7304,-100,4,2,1,60,0,0
7657,-100,4,2,2,70,0,0
14010,-100,4,2,3,70,0,0
36597,-100,4,2,1,70,0,0
41892,-100,4,1,1,50,0,0
47892,-100,4,2,1,15,0,0
48951,-100,4,2,1,50,0,0
49304,-100,4,2,3,70,0,1
59186,-100,4,2,3,50,0,0
60598,-100,4,2,3,70,0,1
70480,-100,4,2,3,50,0,0
71892,-100,4,2,2,50,0,0
83186,-100,4,2,2,70,0,0
87775,-100,4,2,1,60,0,0
88127,-100,4,2,2,70,0,0
94480,-100,4,2,3,70,0,0
117068,-100,4,2,1,70,0,0
122363,-100,4,1,1,50,0,0
128363,-100,4,2,1,15,0,0
129421,-100,4,2,1,50,0,0
129774,-100,4,2,3,70,0,1
139657,-100,4,2,3,60,0,0
140010,-100,4,2,3,50,0,0
140363,-100,4,2,3,40,0,0
140715,-100,4,2,3,30,0,0

[Colours]
Combo1 : 235,14,47
Combo2 : 0,64,128
Combo3 : 230,115,0

[HitObjects]
332,64,2716,6,0,P|348:120|320:192,1,130,2|8,0:0|0:0,0:0:0:0:
256,220,3245,1,0,0:0:0:0:
186,185,3421,2,0,P|164:126|180:64,1,130,2|8,0:0|0:0,0:0:0:0:
332,64,4127,2,0,B|432:56|432:56|416:88,1,130,2|8,0:0|0:0,0:0:0:0:
368,204,4833,2,0,L|368:284,2,65,2|0|8,0:0|0:0|0:0,0:0:0:0:
256,124,5539,6,0,P|200:108|132:128,1,130,2|8,0:0|0:0,0:0:0:0:
92,192,6068,1,0,0:0:0:0:
132,256,6245,2,0,P|193:275|256:260,1,130,2|8,0:0|0:0,0:0:0:0:
368,192,6951,1,2,0:0:0:0:
256,124,7304,1,12,0:0:0:0:
256,124,7480,2,0,P|194:109|133:128,2,130,2|0|0,0:0|0:0|0:0,0:0:0:0:
292,192,8363,5,2,0:0:0:0:
203,287,8715,2,0,P|141:302|80:283,1,130,8|2,0:0|0:0,0:0:0:0:
76,204,9245,2,0,L|68:120,1,65,0|8,0:0|0:0,0:0:0:0:
184,76,9774,2,0,P|244:96|312:68,1,130,2|8,0:0|0:0,0:0:0:0:
360,20,10304,1,0,0:0:0:0:
384,96,10480,1,2,0:0:0:0:
332,216,10833,6,0,P|312:264|344:352,1,130,8|2,0:0|0:0,0:0:0:0:
256,364,11363,1,0,0:0:0:0:
181,337,11539,2,0,P|200:276|180:216,2,130,8|2|8,0:0|0:0|0:0,0:0:0:0:
104,232,12598,2,0,P|84:171|105:110,2,130,4|8|0,0:0|0:0|0:0,0:0:0:0:
180,216,13480,2,0,L|260:192,2,65,0|8|0,0:0|0:0|0:0,0:0:0:0:
104,232,14010,6,0,L|20:252,1,65,6|0,0:0|0:0,0:0:0:0:
2,179,14363,2,0,P|-2:146|1:114,1,65,8|2,0:0|0:0,0:0:0:0:
107,39,14892,2,0,P|140:43|172:39,1,65,8|8,0:0|0:0,0:0:0:0:
248,25,15245,2,0,B|256:50|241:90|241:90|226:129|239:151,1,130,2|0,0:0|0:0,0:0:0:0:
295,206,15774,1,8,0:0:0:0:
385,299,16127,2,0,P|332:333|268:333,1,130,2|8,0:0|0:0,0:0:0:0:
193,309,16657,1,2,0:0:0:0:
139,251,16833,6,0,P|147:186|127:125,1,130,8|8,0:0|0:0,0:0:0:0:
163,55,17363,2,0,P|225:69|288:57,1,130,2|8,0:0|0:0,0:0:0:0:
362,30,17892,1,8,0:0:0:0:
480,84,18245,2,0,L|477:225,1,130,8|8,0:0|0:0,0:0:0:0:
473,292,18774,1,2,0:0:0:0:
348,327,19127,2,0,P|316:331|285:321,2,65,8|8|0,0:0|0:0|0:0,0:0:0:0:
325,251,19657,6,0,B|322:152|322:152|282:184,1,130,6|8,0:0|0:0,0:0:0:0:
236,219,20186,1,2,0:0:0:0:
145,312,20539,2,0,P|123:289|94:275,1,65,8|8,0:0|0:0,0:0:0:0:
16,281,20892,2,0,P|4:217|18:154,1,130,2|0,0:0|0:0,0:0:0:0:
57,86,21421,1,8,0:0:0:0:
180,46,21774,2,0,P|233:80|297:80,1,130,2|8,0:0|0:0,0:0:0:0:
374,62,22304,1,2,0:0:0:0:
433,112,22480,6,0,P|452:173|445:237,1,130,8|8,0:0|0:0,0:0:0:0:
396,299,23010,2,0,B|361:298|333:284|333:284|304:301|271:301,1,130,2|8,0:0|0:0,0:0:0:0:
193,301,23539,1,8,0:0:0:0:
126,189,23892,2,0,L|120:113,1,65,2|0,0:0|0:0,0:0:0:0:
144,49,24245,2,0,P|176:50|207:40,1,65,2|0,0:0|0:0,0:0:0:0:
280,14,24598,2,0,P|319:64|324:128,1,130,2|2,0:0|0:0,0:0:0:0:
256,240,25304,6,0,B|164:239|164:239|128:204,1,130,6|8,0:0|0:0,0:0:0:0:
88,152,25833,1,2,0:0:0:0:
68,24,26186,2,0,P|37:20|-4:24,2,65,8|8|2,0:0|0:0|0:0,0:0:0:0:
128,72,26715,2,0,P|192:96|260:64,1,130,6|8,0:0|0:0,0:0:0:0:
312,32,27245,1,2,0:0:0:0:
312,164,27598,2,0,L|312:240,1,65,8|8,0:0|0:0,0:0:0:0:
440,256,28127,6,0,L|440:332,2,65,6|2|8,0:0|0:0|0:0,0:0:0:0:
440,176,28657,1,2,0:0:0:0:
312,164,29010,2,0,L|312:232,2,65,8|8|2,0:0|0:0|0:0,0:0:0:0:
312,84,29539,2,0,P|248:64|184:88,1,130,6|8,0:0|0:0,0:0:0:0:
132,136,30068,1,2,0:0:0:0:
80,256,30421,2,0,P|74:291|84:332,2,65,8|8|0,0:0|0:0|0:0,0:0:0:0:
152,288,30951,6,0,P|212:306|271:280,1,130,4|8,0:0|0:0,0:0:0:0:
316,216,31480,1,2,0:0:0:0:
404,88,31833,2,0,P|436:80|472:88,2,65,8|8|2,0:0|0:0|0:0,0:0:0:0:
332,120,32363,2,0,P|268:136|208:112,1,130,4|8,0:0|0:0,0:0:0:0:
168,48,32892,1,2,0:0:0:0:
116,168,33245,2,0,L|44:168,2,65,8|8|2,0:0|0:0|0:0,0:0:0:0:
176,216,33774,6,0,P|204:268|164:344,1,130,4|8,0:0|0:0,0:0:0:0:
124,276,34304,1,2,0:0:0:0:
24,192,34657,2,0,L|24:124,2,65,8|8|2,0:0|0:0|0:0,0:0:0:0:
100,176,35186,2,0,L|100:100,1,65,2|2,0:0|0:0,0:0:0:0:
213,48,35715,2,0,P|269:24|333:52,2,130,2|0|0,0:0|0:0|0:0,0:0:0:0:
219,126,36598,6,0,P|243:182|214:245,1,130,6|8,0:0|0:0,0:0:0:0:
159,294,37127,1,2,0:0:0:0:
34,256,37480,2,0,P|28:287|30:320,2,65,0|8|0,0:0|0:0|0:0,0:0:0:0:
94,206,38010,2,0,P|108:143|90:81,1,130,2|8,0:0|0:0,0:0:0:0:
43,18,38539,1,2,0:0:0:0:
172,27,38892,2,0,L|309:49,1,130,0|0,0:0|0:0,0:0:0:0:
375,68,39421,6,0,P|378:35|367:5,2,65,2|2|8,0:0|0:0|0:0,0:0:0:0:
321,125,39951,1,2,0:0:0:0:
196,164,40304,2,0,P|186:227|198:291,1,130,0|0,0:0|0:0,0:0:0:0:
256,343,40833,2,0,L|326:324,1,65,2|0,0:0|0:0,0:0:0:0:
427,253,41363,2,0,P|438:189|428:125,1,130,2|0,0:0|0:0,0:0:0:0:
375,68,41892,2,0,L|306:86,1,65,8|0,0:0|0:0,0:0:0:0:
256,192,42245,12,2,47892,0:0:0:0:
92,264,49304,6,0,P|148:280|228:248,1,130,6|8,0:0|0:0,0:0:0:0:
256,192,49833,1,0,0:0:0:0:
297,124,50010,2,0,P|357:104|420:120,1,130,2|8,0:0|0:0,0:0:0:0:
440,248,50715,2,0,P|377:263|317:243,1,130,2|8,0:0|0:0,0:0:0:0:
256,192,51245,1,0,0:0:0:0:
256,192,51421,2,0,L|256:336,1,130,2|8,0:0|0:0,0:0:0:0:
132,364,52127,6,0,P|100:372|64:364,2,65,2|0|8,0:0|0:0|0:0,0:0:0:0:
176,296,52657,1,0,0:0:0:0:
132,232,52833,2,0,P|100:224|64:232,2,65,2|0|8,0:0|0:0|0:0,0:0:0:0:
256,272,53539,2,0,P|288:280|324:272,2,65,2|0|8,0:0|0:0|0:0,0:0:0:0:
212,204,54069,1,0,0:0:0:0:
256,140,54245,2,0,P|288:132|324:140,2,65,2|0|8,0:0|0:0|0:0,0:0:0:0:
136,192,54951,5,6,0:0:0:0:
20,136,55304,1,8,0:0:0:0:
128,60,55657,2,0,P|140:28|136:-4,2,65,2|2|8,0:0|0:0|0:0,0:0:0:0:
136,192,56363,2,0,P|112:256|144:324,1,130,2|8,0:0|0:0,0:0:0:0:
264,312,57068,2,0,P|283:251|259:192,1,130,2|8,0:0|0:0,0:0:0:0:
136,192,57774,6,0,P|128:160|136:124,2,65,2|0|8,0:0|0:0|0:0,0:0:0:0:
200,240,58304,1,0,0:0:0:0:
260,192,58480,2,0,P|268:160|260:124,2,65,2|0|8,0:0|0:0|0:0,0:0:0:0:
232,320,59186,2,0,P|160:324|112:268,1,130,6|0,0:0|0:0,0:0:0:0:
100,212,59715,1,2,0:0:0:0:
116,136,59892,2,0,P|165:96|228:103,1,130,2|2,0:0|0:0,0:0:0:0:
332,180,60598,6,0,B|334:282|334:282|369:252,1,130,6|8,0:0|0:0,0:0:0:0:
414,212,61127,1,0,0:0:0:0:
471,159,61304,2,0,B|492:140|492:140|494:242,1,130,2|8,0:0|0:0,0:0:0:0:
402,333,62010,2,0,P|346:364|285:347,1,130,2|8,0:0|0:0,0:0:0:0:
228,292,62539,1,0,0:0:0:0:
228,292,62715,2,0,P|240:229|223:167,1,130,2|8,0:0|0:0,0:0:0:0:
177,44,63421,6,0,P|147:56|125:80,2,65,2|0|8,0:0|0:0|0:0,0:0:0:0:
254,47,63951,1,0,0:0:0:0:
330,62,64127,2,0,P|359:49|381:25,2,65,2|0|8,0:0|0:0|0:0,0:0:0:0:
277,181,64833,2,0,P|247:193|225:217,2,65,2|0|8,0:0|0:0|0:0,0:0:0:0:
354,184,65363,1,0,0:0:0:0:
430,199,65539,2,0,P|459:186|481:162,2,65,2|0|8,0:0|0:0|0:0,0:0:0:0:
345,298,66245,5,6,0:0:0:0:
215,295,66598,1,8,0:0:0:0:
277,181,66951,2,0,P|289:149|285:117,2,65,2|2|8,0:0|0:0|0:0,0:0:0:0:
146,178,67657,2,0,P|80:184|23:155,1,130,2|8,0:0|0:0,0:0:0:0:
106,54,68363,2,0,P|172:48|229:77,1,130,2|8,0:0|0:0,0:0:0:0:
276,196,69068,6,0,P|303:212|335:216,2,65,2|0|8,0:0|0:0|0:0,0:0:0:0:
330,139,69598,1,0,0:0:0:0:
382,81,69774,2,0,P|354:64|322:60,2,65,2|0|8,0:0|0:0|0:0,0:0:0:0:
499,137,70480,2,0,P|472:195|483:258,1,130,6|0,0:0|0:0,0:0:0:0:
507,332,71009,1,2,0:0:0:0:
430,348,71186,2,0,B|400:361|365:348|365:348|328:334|304:347,1,130,2|2,0:0|0:0,0:0:0:0:
172,356,71892,6,0,L|172:280,1,65,2|2,0:0|0:0,0:0:0:0:
172,160,72421,2,0,P|232:140|300:168,1,130,2|0,0:0|0:0,0:0:0:0:
336,228,72951,1,8,0:0:0:0:
448,164,73304,6,0,B|448:24,1,130,2|8,0:0|0:0,0:0:0:0:
372,56,73833,2,0,P|312:76|244:56,1,130,2|2,0:0|0:0,0:0:0:0:
184,12,74363,1,8,0:0:0:0:
184,140,74715,2,0,L|184:212,1,65,2|2,0:0|0:0,0:0:0:0:
204,332,75245,2,0,P|265:348|326:328,1,130,2|0,0:0|0:0,0:0:0:0:
376,268,75774,1,8,0:0:0:0:
356,136,76127,6,0,B|319:124|319:124|224:136,1,130,2|8,0:0|0:0,0:0:0:0:
204,208,76657,2,0,B|240:219|240:219|336:208,1,130,2|2,0:0|0:0,0:0:0:0:
356,136,77186,1,8,0:0:0:0:
432,28,77539,2,0,L|524:28,1,65,2|2,0:0|0:0,0:0:0:0:
460,152,78068,2,0,P|444:208|472:276,1,130,2|0,0:0|0:0,0:0:0:0:
496,348,78598,1,8,0:0:0:0:
372,312,78951,6,0,P|304:296|248:320,1,130,2|8,0:0|0:0,0:0:0:0:
188,364,79480,2,0,L|188:216,1,130,2|2,0:0|0:0,0:0:0:0:
188,156,80010,1,8,0:0:0:0:
256,44,80363,2,0,L|336:44,1,65,2|2,0:0|0:0,0:0:0:0:
412,136,80892,2,0,P|400:192|420:268,1,130,2|0,0:0|0:0,0:0:0:0:
452,332,81421,1,8,0:0:0:0:
324,348,81774,6,0,P|292:356|256:344,2,65,2|0|8,0:0|0:0|0:0,0:0:0:0:
296,276,82304,1,2,0:0:0:0:
300,196,82480,2,0,L|300:116,2,65,0|0|8,0:0|0:0|0:0,0:0:0:0:
175,233,83186,6,0,P|113:251|52:231,1,130,4|8,0:0|0:0,0:0:0:0:
15,162,83715,1,0,0:0:0:0:
75,112,83892,2,0,P|136:94|197:114,1,130,2|8,0:0|0:0,0:0:0:0:
300,196,84598,2,0,P|360:216|422:198,1,130,2|8,0:0|0:0,0:0:0:0:
474,78,85304,2,0,L|488:13,2,65,2|0|8,0:0|0:0|0:0,0:0:0:0:
422,198,86010,6,0,P|441:259|426:321,1,130,2|8,0:0|0:0,0:0:0:0:
358,360,86538,1,0,0:0:0:0:
288,324,86715,2,0,P|264:264|275:201,1,130,2|8,0:0|0:0,0:0:0:0:
347,92,87421,1,0,0:0:0:0:
217,79,87774,1,12,0:0:0:0:
217,79,87951,2,0,P|153:88|94:64,2,130,2|0|0,0:0|0:0|0:0,0:0:0:0:
287,43,88833,5,2,0:0:0:0:
416,46,89186,2,0,P|428:107|393:161,1,130
328,204,89715,2,0,L|334:271,1,65,0|8,0:0|0:0,0:0:0:0:
232,350,90245,2,0,L|218:217,1,130,2|8,0:0|0:0,0:0:0:0:
202,143,90774,2,0,P|170:149|138:144,1,65,0|2,0:0|0:0,0:0:0:0:
6,60,91304,6,0,P|-15:120|0:182,1,130,8|0,0:0|0:0,0:0:0:0:
42,248,91833,1,2,0:0:0:0:
114,277,92010,2,0,B|145:285|178:266|178:266|212:247|238:256,2,130,8|2|8,0:0|0:0|0:0,0:0:0:0:
123,147,93068,2,0,P|146:85|209:64,2,130,2|8|2,0:0|0:0|0:0,0:0:0:0:
202,143,93951,2,0,L|281:162,2,65,0|8|0,0:0|0:0|0:0,0:0:0:0:
123,147,94480,6,0,L|40:144,1,65,6|0,0:0|0:0,0:0:0:0:
40,220,94833,2,0,L|104:222,1,65,0|8,0:0|0:0,0:0:0:0:
236,228,95362,2,0,L|236:300,1,65,2|0,0:0|0:0,0:0:0:0:
184,352,95715,2,0,P|268:364|308:324,1,130,2|0,0:0|0:0,0:0:0:0:
328,268,96244,1,2,0:0:0:0:
404,160,96598,2,0,P|349:128|288:146,1,130,2|0,0:0|0:0,0:0:0:0:
256,220,97127,1,2,0:0:0:0:
224,292,97304,6,0,P|163:310|108:278,1,130,8|2,0:0|0:0,0:0:0:0:
72,208,97833,2,0,L|72:64,1,130,8|0,0:0|0:0,0:0:0:0:
128,24,98362,1,2,0:0:0:0:
256,48,98715,2,0,L|256:192,1,130,8|2,0:0|0:0,0:0:0:0:
200,232,99244,1,8,0:0:0:0:
120,336,99598,2,0,P|90:342|56:336,2,65,8|2|0,0:0|0:0|0:0,0:0:0:0:
196,320,100127,6,0,P|256:304|328:324,1,130,4|2,0:0|0:0,0:0:0:0:
388,360,100656,1,8,0:0:0:0:
388,228,101009,2,0,L|388:140,1,65,2|0,0:0|0:0,0:0:0:0:
344,100,101362,2,0,P|288:120|220:92,1,130,2|0,0:0|0:0,0:0:0:0:
176,36,101891,1,2,0:0:0:0:
176,192,102245,2,0,L|176:340,1,130,2|0,0:0|0:0,0:0:0:0:
256,332,102774,1,2,0:0:0:0:
320,288,102951,6,0,P|384:268|444:292,1,130,8|2,0:0|0:0,0:0:0:0:
488,228,103480,2,0,B|488:92,1,130,8|0,0:0|0:0,0:0:0:0:
488,20,104009,1,2,0:0:0:0:
368,120,104362,2,0,P|336:128|296:120,1,65,8|0,0:0|0:0,0:0:0:0:
248,68,104715,2,0,P|216:60|176:68,1,65,2|0,0:0|0:0,0:0:0:0:
144,132,105068,2,0,P|160:192|132:256,1,130,2|2,0:0|0:0,0:0:0:0:
60,359,105774,6,0,B|191:359,1,130,6|0,0:0|0:0,0:0:0:0:
268,357,106303,1,2,0:0:0:0:
354,260,106657,2,0,P|327:242|289:228,2,65,0|2|0,0:0|0:0|0:0,0:0:0:0:
425,290,107186,2,0,P|453:232|437:170,1,130,8|2,0:0|0:0,0:0:0:0:
383,113,107715,1,8,0:0:0:0:
272,44,108068,2,0,L|187:55,1,65,0|2,0:0|0:0,0:0:0:0:
78,67,108598,6,0,P|74:34|61:5,2,65,8|0|2,0:0|0:0|0:0,0:0:0:0:
30,129,109127,1,8,0:0:0:0:
151,227,109480,2,0,P|154:259|167:288,2,65,0|2|0,0:0|0:0|0:0,0:0:0:0:
179,153,110010,2,0,L|311:127,1,130,8|2,0:0|0:0,0:0:0:0:
383,113,110538,1,0,0:0:0:0:
452,252,110892,2,0,P|480:236|500:210,2,65,8|2|0,0:0|0:0|0:0,0:0:0:0:
376,272,111421,6,0,L|242:300,1,130,8|2,0:0|0:0,0:0:0:0:
170,310,111951,1,8,0:0:0:0:
53,253,112304,2,0,P|28:230|14:196,2,65,0|2|0,0:0|0:0|0:0,0:0:0:0:
130,237,112833,2,0,L|265:207,1,130,8|2,0:0|0:0,0:0:0:0:
333,191,113362,1,8,0:0:0:0:
454,236,113715,2,0,P|447:267|450:299,2,65,0|2|0,0:0|0:0|0:0,0:0:0:0:
417,165,114245,6,0,P|380:113|313:103,1,130,8|2,0:0|0:0,0:0:0:0:
243,122,114774,1,8,0:0:0:0:
130,230,115127,2,0,P|110:203|98:173,2,65,0|2|0,0:0|0:0|0:0,0:0:0:0:
198,269,115657,2,0,L|265:270,1,65,2|0,0:0|0:0,0:0:0:0:
392,280,116186,2,0,P|428:228|417:165,2,130
352,212,117068,6,0,P|339:150|373:96,1,130,6|8,0:0|0:0,0:0:0:0:
420,36,117597,1,2,0:0:0:0:
292,20,117951,2,0,L|212:20,2,65,0|8|0,0:0|0:0|0:0,0:0:0:0:
276,96,118480,2,0,L|144:96,1,130,2|8,0:0|0:0,0:0:0:0:
68,92,119009,1,2,0:0:0:0:
28,216,119362,2,0,P|12:276|44:344,1,130,0|0,0:0|0:0,0:0:0:0:
112,352,119892,6,0,P|148:360|180:348,2,65,2|0|8,0:0|0:0|0:0,0:0:0:0:
144,280,120421,1,2,0:0:0:0:
256,212,120774,2,0,L|256:76,1,130,0|0,0:0|0:0,0:0:0:0:
332,64,121303,2,0,L|332:144,1,65,2|0,0:0|0:0,0:0:0:0:
320,260,121833,2,0,P|256:292|196:264,1,130,2|0,0:0|0:0,0:0:0:0:
144,224,122362,2,0,L|128:156,1,65,8|0,0:0|0:0,0:0:0:0:
256,192,122715,12,0,128363,0:0:0:0:
184,84,129774,6,0,L|204:224,1,130,6|8,0:0|0:0,0:0:0:0:
228,288,130303,1,0,0:0:0:0:
300,320,130480,2,0,P|360:340|420:319,1,130,2|8,0:0|0:0,0:0:0:0:
484,208,131186,2,0,B|468:104|468:104|436:136,1,130,2|8,0:0|0:0,0:0:0:0:
392,172,131715,1,0,0:0:0:0:
392,172,131892,2,0,B|363:190|326:175|326:175|286:158|267:170,1,130,2|8,0:0|0:0,0:0:0:0:
193,278,132598,6,0,P|160:284|125:274,2,65,2|0|8,0:0|0:0|0:0,0:0:0:0:
264,309,133127,1,0,0:0:0:0:
335,277,133304,2,0,P|367:283|402:273,2,65,2|0|8,0:0|0:0|0:0,0:0:0:0:
296,152,134010,2,0,P|263:158|228:148,2,65,2|0|8,0:0|0:0|0:0,0:0:0:0:
367,183,134539,1,0,0:0:0:0:
438,151,134716,2,0,P|470:157|505:147,2,65,2|0|8,0:0|0:0|0:0,0:0:0:0:
364,43,135421,5,6,0:0:0:0:
234,27,135774,1,8,0:0:0:0:
109,63,136127,2,0,P|92:90|89:122,2,65,2|2|8,0:0|0:0|0:0,0:0:0:0:
219,131,136833,2,0,L|359:141,1,130,2|8,0:0|0:0,0:0:0:0:
438,235,137539,2,0,L|298:225,1,130,2|8,0:0|0:0,0:0:0:0:
181,199,138245,6,0,P|155:177|141:143,2,65,2|0|8,0:0|0:0|0:0,0:0:0:0:
219,131,138774,1,0,0:0:0:0:
255,61,138951,2,0,P|280:82|294:116,2,65,2|0|8,0:0|0:0|0:0,0:0:0:0:
128,30,139657,2,0,B|33:33|33:33|48:72,1,130,6|0,0:0|0:0,0:0:0:0:
79,135,140185,1,0,0:0:0:0:
93,211,140362,2,0,L|102:354,1,130,2|2,0:0|0:0,0:0:0:0:
