osu file format v14

[General]
AudioFilename: myL.mp3
AudioLeadIn: 0
PreviewTime: 48774
Countdown: 0
SampleSet: Soft
StackLeniency: 0.7
Mode: 0
LetterboxInBreaks: 0
EpilepsyWarning: 1
WidescreenStoryboard: 1

[Editor]
Bookmarks: 2716,14010,25304,36598,49304,60598,71892,83186,94480,105774,117068,129774,141068
DistanceSpacing: 1.3
BeatDivisor: 8
GridSize: 4
TimelineZoom: 2.799998

[Metadata]
Title:ALiVE
TitleUnicode:ALiVE
Artist:REDALiCE
ArtistUnicode:REDALiCE
Creator:Natsu
Version:Just two of us <3
Source:
Tags:Euny Kanari Alice Emotion HARDCORE SYNDROME 9 Tano*C C88
BeatmapID:791029
BeatmapSetID:359749

[Difficulty]
HPDrainRate:7
CircleSize:4
OverallDifficulty:9
ApproachRate:9
SliderMultiplier:1.9
SliderTickRate:1

[Events]
//Background and Video events
0,0,"bg.jpg",0,0
//Break Periods
//Storyboard Layer 0 (Background)
//Storyboard Layer 1 (Fail)
//Storyboard Layer 2 (Pass)
//Storyboard Layer 3 (Foreground)
//Storyboard Sound Samples

[TimingPoints]
2716,352.941176470588,4,2,2,70,1,0
2716,-111.111111111111,4,2,2,70,0,0
7304,-111.111111111111,4,2,1,60,0,0
7657,-111.111111111111,4,2,2,70,0,0
14010,-100,4,2,3,70,0,0
15245,-90.9090909090909,4,2,3,70,0,0
16127,-100,4,2,3,70,0,0
16657,-105.263157894737,4,2,3,70,0,0
17363,-111.111111111111,4,2,3,70,0,0
17892,-117.647058823529,4,2,3,70,0,0
18245,-105.263157894737,4,2,3,70,0,0
18774,-100,4,2,3,70,0,0
20892,-90.9090909090909,4,2,3,70,0,0
21774,-100,4,2,3,70,0,0
22304,-105.263157894737,4,2,3,70,0,0
23010,-111.111111111111,4,2,3,70,0,0
23539,-117.647058823529,4,2,3,70,0,0
24951,-100,4,2,3,70,0,0
36597,-100,4,2,1,70,0,0
41892,-100,4,1,1,50,0,0
47980,-100,4,2,1,15,0,0
48951,-133.333333333333,4,2,1,50,0,0
49304,-100,4,2,3,70,0,1
59186,-133.333333333333,4,2,3,50,0,0
60598,-100,4,2,3,70,0,1
63068,-83.3333333333333,4,2,3,70,0,1
63421,-100,4,2,3,70,0,1
70480,-100,4,2,3,50,0,0
71892,-133.333333333333,4,2,2,50,0,0
83186,-111.111111111111,4,2,2,70,0,0
87775,-111.111111111111,4,2,1,60,0,0
88127,-111.111111111111,4,2,2,70,0,0
94480,-100,4,2,3,70,0,0
117068,-100,4,2,1,70,0,0
122363,-100,4,1,1,50,0,0
128363,-100,4,2,1,15,0,0
129421,-100,4,2,1,50,0,0
129774,-100,4,2,3,70,0,1
139657,-100,4,2,3,60,0,0
140010,-100,4,2,3,50,0,0
140363,-100,4,2,3,40,0,0
140715,-100,4,2,3,30,0,0

[Colours]
Combo1 : 235,14,47
Combo2 : 0,64,128
Combo3 : 230,115,0

[HitObjects]
142,194,2716,5,2,0:0:0:0:
216,253,2892,1,0,0:0:0:0:
216,253,2980,1,0,0:0:0:0:
216,253,3068,1,8,0:0:0:0:
128,288,3245,1,0,0:0:0:0:
232,156,3421,5,2,0:0:0:0:
320,121,3598,1,0,0:0:0:0:
246,62,3774,2,0,L|152:56,1,85.4999973907472,8|0,0:0|0:0,0:0:0:0:
320,121,4127,6,0,L|414:127,1,85.4999973907472,2|0,0:0|0:0,0:0:0:0:
488,136,4392,1,0,0:0:0:0:
488,136,4480,2,0,P|476:176|488:220,1,85.4999973907472,8|0,0:0|0:0,0:0:0:0:
504,296,4745,1,0,0:0:0:0:
504,296,4833,1,2,0:0:0:0:
396,360,5010,1,0,0:0:0:0:
396,360,5186,2,0,L|300:360,1,85.4999973907472,8|0,0:0|0:0,0:0:0:0:
164,336,5539,5,2,0:0:0:0:
80,275,5715,1,0,0:0:0:0:
215,177,5892,1,8,0:0:0:0:
247,274,6068,1,0,0:0:0:0:
112,177,6245,2,0,P|100:136|108:92,1,85.4999973907472,2|0,0:0|0:0,0:0:0:0:
132,24,6510,2,0,L|64:16,1,42.7499986953736,0|8,0:0|0:0,0:0:0:0:
180,132,6774,2,0,L|272:132,2,85.4999973907472,0|2|0,0:0|0:0|0:0,0:0:0:0:
20,276,7304,5,12,0:0:0:0:
20,276,7480,2,0,L|116:276,1,85.4999973907472,2|0,0:0|0:0,0:0:0:0:
196,228,7833,1,0,0:0:0:0:
256,312,8010,1,8,0:0:0:0:
312,228,8186,1,0,0:0:0:0:
372,312,8363,1,2,0:0:0:0:
369,143,8539,5,0,0:0:0:0:
312,228,8716,1,8,0:0:0:0:
268,136,8892,1,0,0:0:0:0:
324,52,9069,1,2,0:0:0:0:
369,143,9245,1,0,0:0:0:0:
268,136,9421,2,0,P|224:148|172:136,1,85.4999973907472,8|0,0:0|0:0,0:0:0:0:
369,143,9774,6,0,P|413:131|465:143,1,85.4999973907472,2|0,0:0|0:0,0:0:0:0:
492,204,10039,1,0,0:0:0:0:
492,204,10127,2,0,L|496:300,1,85.4999973907472,8|0,0:0|0:0,0:0:0:0:
496,372,10392,1,0,0:0:0:0:
496,372,10480,1,2,0:0:0:0:
400,280,10657,1,0,0:0:0:0:
296,360,10833,2,0,P|256:368|204:356,2,85.4999973907472,8|0|2,0:0|0:0|0:0,0:0:0:0:
400,280,11363,5,0,0:0:0:0:
400,132,11539,1,8,0:0:0:0:
288,200,11715,1,0,0:0:0:0:
416,204,11892,2,0,P|456:216|504:200,1,85.4999973907472,2|0,0:0|0:0,0:0:0:0:
288,200,12245,2,0,P|248:188|200:204,1,85.4999973907472,8|0,0:0|0:0,0:0:0:0:
108,334,12598,5,4,0:0:0:0:
266,282,12774,1,0,0:0:0:0:
108,231,12951,1,8,0:0:0:0:
208,364,13127,1,2,0:0:0:0:
247,379,13215,1,0,0:0:0:0:
289,377,13303,1,0,0:0:0:0:
327,358,13391,1,0,0:0:0:0:
355,326,13480,1,0,0:0:0:0:
368,184,13657,1,8,0:0:0:0:
266,282,13833,1,2,0:0:0:0:
266,282,13921,1,8,0:0:0:0:
266,282,14010,6,0,P|222:264|175:267,1,95,6|0,0:0|0:0,0:0:0:0:
125,324,14274,1,2,0:0:0:0:
125,324,14363,2,0,L|107:230,2,95,8|2|0,0:0|0:0|0:0,0:0:0:0:
72,84,14892,1,8,0:0:0:0:
72,84,15068,1,8,0:0:0:0:
236,128,15245,6,0,B|272:124|280:68|280:68|292:232,1,209.000006378174,2|0,0:0|0:0,0:0:0:0:
296,364,15774,1,8,0:0:0:0:
296,364,15951,1,0,0:0:0:0:
125,324,16127,6,0,L|252:280,1,95,2|8,0:0|0:0,0:0:0:0:
296,364,16480,1,8,0:0:0:0:
125,324,16657,6,0,L|238:259,1,90.2499975900651,2|8,0:0|0:0,0:0:0:0:
296,364,17010,1,0,0:0:0:0:
296,364,17186,1,8,0:0:0:0:
125,324,17363,6,0,L|195:264,1,85.4999973907472,2|0,0:0|0:0,0:0:0:0:
296,364,17715,1,8,0:0:0:0:
124,323,17892,6,0,P|135:268|196:272,1,121.125002310276,8|0,0:0|0:0,0:0:0:0:
216,336,18245,6,0,L|232:164,1,135.374996385098,8|0,0:0|0:0,0:0:0:0:
236,128,18598,1,8,0:0:0:0:
236,128,18774,6,0,P|296:148|356:104,1,142.5,2|0,0:0|0:0,0:0:0:0:
404,44,19127,1,8,0:0:0:0:
404,44,19215,1,2,0:0:0:0:
404,44,19304,6,0,L|424:152,1,95,8|0,0:0|0:0,0:0:0:0:
440,212,19568,1,2,0:0:0:0:
440,212,19657,2,0,P|488:228|520:264,2,95,6|2|8,0:0|0:0|0:0,0:0:0:0:
404,360,20186,1,2,0:0:0:0:
404,360,20363,1,2,0:0:0:0:
288,260,20539,1,8,0:0:0:0:
288,260,20715,1,8,0:0:0:0:
440,212,20892,6,0,B|457:181|480:156|480:156|384:184|336:128,1,209.000006378174,2|0,0:0|0:0,0:0:0:0:
220,28,21421,1,8,0:0:0:0:
220,28,21598,1,0,0:0:0:0:
104,128,21774,6,0,L|120:244,1,95,2|8,0:0|0:0,0:0:0:0:
220,28,22127,1,8,0:0:0:0:
104,128,22304,6,0,L|141:251,1,90.2499975900651,2|8,0:0|0:0,0:0:0:0:
220,28,22657,1,0,0:0:0:0:
220,28,22833,1,8,0:0:0:0:
104,128,23010,6,0,L|160:235,1,85.4999973907472,2|0,0:0|0:0,0:0:0:0:
220,28,23363,1,8,0:0:0:0:
104,128,23539,6,0,L|159:197,1,80.750001540184,8|0,0:0|0:0,0:0:0:0:
220,28,23892,1,2,0:0:0:0:
284,184,24068,1,0,0:0:0:0:
381,63,24245,1,2,0:0:0:0:
156,72,24421,1,0,0:0:0:0:
332,123,24598,1,2,0:0:0:0:
220,28,24774,1,0,0:0:0:0:
200,204,24951,6,0,P|224:256|324:260,1,142.5,2|0,0:0|0:0,0:0:0:0:
284,184,25304,5,6,0:0:0:0:
204,80,25480,2,0,P|160:68|104:84,1,95,2|8,0:0|0:0,0:0:0:0:
284,184,25833,2,0,P|328:196|384:180,1,95,2|0,0:0|0:0,0:0:0:0:
204,80,26186,1,8,0:0:0:0:
152,204,26363,1,8,0:0:0:0:
284,184,26539,1,2,0:0:0:0:
204,80,26715,5,6,0:0:0:0:
152,204,26892,2,0,B|132:248|156:284|156:284|168:268,1,95,0|8,0:0|0:0,0:0:0:0:
204,80,27245,2,0,B|224:36|200:0|200:0|188:16,1,95,2|0,0:0|0:0,0:0:0:0:
64,108,27598,1,8,0:0:0:0:
152,204,27774,1,8,0:0:0:0:
204,80,27951,1,2,0:0:0:0:
204,80,28039,1,0,0:0:0:0:
204,80,28127,5,6,0:0:0:0:
64,108,28304,2,0,B|16:92|16:92|56:60,1,95,2|8,0:0|0:0,0:0:0:0:
204,80,28657,2,0,B|252:96|252:96|212:128,1,95,2|0,0:0|0:0,0:0:0:0:
134,193,29010,1,8,0:0:0:0:
88,304,29186,1,8,0:0:0:0:
205,289,29363,1,2,0:0:0:0:
134,193,29539,5,6,0:0:0:0:
88,303,29715,2,0,P|45:323|-1:320,1,95,0|8,0:0|0:0,0:0:0:0:
134,193,30068,2,0,P|176:173|223:176,1,95,2|0,0:0|0:0,0:0:0:0:
312,272,30421,1,8,0:0:0:0:
223,176,30598,1,8,0:0:0:0:
187,145,30686,1,0,0:0:0:0:
174,100,30774,1,0,0:0:0:0:
189,56,30862,1,0,0:0:0:0:
226,27,30951,5,4,0:0:0:0:
352,108,31127,2,0,L|256:104,1,95,2|8,0:0|0:0,0:0:0:0:
160,276,31480,2,0,L|256:280,1,95,2|0,0:0|0:0,0:0:0:0:
372,200,31833,1,8,0:0:0:0:
308,344,32010,1,8,0:0:0:0:
308,164,32186,1,2,0:0:0:0:
308,344,32363,5,4,0:0:0:0:
372,200,32539,2,0,P|424:188|468:200,1,95,2|8,0:0|0:0,0:0:0:0:
308,344,32892,2,0,P|256:356|212:344,1,95,2|0,0:0|0:0,0:0:0:0:
120,264,33245,1,8,0:0:0:0:
240,224,33421,1,8,0:0:0:0:
216,346,33598,1,2,0:0:0:0:
216,346,33686,1,0,0:0:0:0:
216,346,33774,5,4,0:0:0:0:
168,184,33951,2,0,P|176:136|164:88,1,95,2|8,0:0|0:0,0:0:0:0:
346,91,34304,2,0,P|335:137|344:184,1,95,2|0,0:0|0:0,0:0:0:0:
408,288,34657,1,8,0:0:0:0:
468,180,34833,1,8,0:0:0:0:
344,184,35010,1,2,0:0:0:0:
408,288,35186,5,2,0:0:0:0:
468,180,35363,2,0,P|480:128|464:76,1,95,2|0,0:0|0:0,0:0:0:0:
344,184,35715,2,0,P|332:236|348:288,1,95,2|0,0:0|0:0,0:0:0:0:
464,312,36068,1,0,0:0:0:0:
344,184,36245,1,2,0:0:0:0:
304,157,36333,1,0,0:0:0:0:
258,150,36421,1,0,0:0:0:0:
213,163,36509,1,0,0:0:0:0:
177,195,36597,5,6,0:0:0:0:
251,304,36774,2,0,L|359:271,1,95,2|8,0:0|0:0,0:0:0:0:
434,156,37127,2,0,L|326:189,1,95,2|0,0:0|0:0,0:0:0:0:
213,219,37480,1,0,0:0:0:0:
121,130,37657,1,8,0:0:0:0:
244,92,37833,1,0,0:0:0:0:
213,219,38010,5,2,0:0:0:0:
121,130,38186,2,0,B|37:136|37:136|49:159,1,95,2|8,0:0|0:0,0:0:0:0:
213,219,38539,2,0,B|297:213|297:213|285:190,1,95,2|0,0:0|0:0,0:0:0:0:
121,130,38892,1,0,0:0:0:0:
91,261,39068,1,8,0:0:0:0:
121,130,39245,1,0,0:0:0:0:
121,130,39333,1,0,0:0:0:0:
121,130,39421,5,2,0:0:0:0:
244,92,39598,2,0,P|221:50|183:18,1,95,2|8,0:0|0:0,0:0:0:0:
213,219,39951,2,0,P|259:225|306:217,1,95,2|0,0:0|0:0,0:0:0:0:
421,118,40304,1,0,0:0:0:0:
450,265,40480,1,8,0:0:0:0:
306,217,40657,1,0,0:0:0:0:
421,118,40833,6,0,L|509:61,2,95,2|0|8,0:0|0:0|0:0,0:0:0:0:
210,124,41363,2,0,L|213:226,1,95,2|0,0:0|0:0,0:0:0:0:
218,367,41715,1,0,0:0:0:0:
103,271,41892,1,8,0:0:0:0:
148,280,41980,1,0,0:0:0:0:
190,260,42068,1,0,0:0:0:0:
212,218,42156,1,0,0:0:0:0:
234,176,42245,6,0,L|282:165,3,47.5,10|0|0|0,0:0|0:0|0:0|0:0,0:0:0:0:
325,150,42598,2,0,L|346:89,3,47.5,8|0|0|0,0:0|0:0|0:0|0:0,0:0:0:0:
382,82,42951,6,0,L|436:96,3,47.5,10|0|0|0,0:0|0:0|0:0|0:0,0:0:0:0:
470,115,43304,2,0,L|493:171,3,47.5,8|0|0|0,0:0|0:0|0:0|0:0,0:0:0:0:
496,206,43657,5,10,0:0:0:0:
496,228,43745,1,0,0:0:0:0:
487,253,43833,1,0,0:0:0:0:
468,275,43921,1,0,0:0:0:0:
435,284,44010,1,8,0:0:0:0:
399,271,44098,1,0,0:0:0:0:
366,243,44186,1,0,0:0:0:0:
329,210,44274,1,0,0:0:0:0:
290,183,44363,5,10,0:0:0:0:
244,172,44450,1,0,0:0:0:0:
197,177,44538,1,0,0:0:0:0:
155,199,44626,1,0,0:0:0:0:
118,238,44715,1,8,0:0:0:0:
109,295,44804,1,0,0:0:0:0:
129,351,44892,1,0,0:0:0:0:
184,380,44980,1,0,0:0:0:0:
258,363,45068,6,0,L|297:315,3,47.5,10|0|0|0,0:0|0:0|0:0|0:0,0:0:0:0:
299,229,45421,2,0,L|285:161,3,47.5,8|0|0|0,0:0|0:0|0:0|0:0,0:0:0:0:
240,92,45774,6,0,L|184:46,3,47.5,10|0|0|0,0:0|0:0|0:0|0:0,0:0:0:0:
99,45,46127,2,0,L|26:59,3,47.5,8|0|0|0,0:0|0:0|0:0|0:0,0:0:0:0:
15,202,46480,5,10,0:0:0:0:
45,238,46568,1,0,0:0:0:0:
87,260,46656,1,0,0:0:0:0:
133,265,46744,1,0,0:0:0:0:
179,253,46832,1,8,0:0:0:0:
217,224,46921,1,0,0:0:0:0:
241,184,47009,1,2,0:0:0:0:
249,137,47097,1,0,0:0:0:0:
239,91,47186,2,0,L|346:97,1,95,8|2,0:0|0:0,0:0:0:0:
463,211,47539,2,0,L|368:206,1,95,8|0,0:0|0:0,0:0:0:0:
256,192,47892,12,0,48774,0:0:0:0:
256,248,48951,6,0,L|256:128,1,106.875004076958,6|0,3:0|0:0,0:0:0:0:
252,40,49304,6,0,P|296:89|256:141,1,142.5,6|0,0:0|0:0,0:0:0:0:
252,40,49657,2,0,L|368:24,1,95,8|0,0:0|0:0,0:0:0:0:
255,141,50010,2,0,L|139:157,1,95,2|0,0:0|0:0,0:0:0:0:
40,104,50363,1,8,0:0:0:0:
160,153,50539,1,0,0:0:0:0:
167,199,50627,1,0,0:0:0:0:
153,244,50715,1,2,0:0:0:0:
40,104,50892,6,0,P|32:60|52:4,1,95,2|8,0:0|0:0,0:0:0:0:
160,153,51245,1,0,0:0:0:0:
60,228,51421,1,2,0:0:0:0:
40,104,51598,1,0,0:0:0:0:
160,153,51774,2,0,L|260:152,1,95,8|0,0:0|0:0,0:0:0:0:
416,104,52127,5,2,0:0:0:0:
388,142,52215,1,0,0:0:0:0:
379,188,52303,1,0,0:0:0:0:
392,233,52391,1,0,0:0:0:0:
423,269,52480,2,0,B|464:292|504:264|504:264|480:260,1,95,8|0,0:0|0:0,0:0:0:0:
416,104,52833,5,2,0:0:0:0:
378,76,52921,1,0,0:0:0:0:
332,67,53009,1,0,0:0:0:0:
287,80,53097,1,0,0:0:0:0:
251,111,53186,2,0,L|248:212,1,95,8|0,0:0|0:0,0:0:0:0:
237,355,53539,5,2,0:0:0:0:
275,328,53627,1,0,0:0:0:0:
291,284,53715,1,0,0:0:0:0:
281,238,53803,1,0,0:0:0:0:
248,205,53892,2,0,B|207:182|167:210|167:210|191:214,1,95,8|0,0:0|0:0,0:0:0:0:
275,328,54245,5,2,0:0:0:0:
313,354,54333,1,0,0:0:0:0:
360,363,54421,1,0,0:0:0:0:
406,353,54509,1,0,0:0:0:0:
444,325,54598,2,0,L|460:264,1,47.5,8|0,0:0|0:0,0:0:0:0:
388,200,54774,2,0,L|372:261,1,47.5
448,144,54951,6,0,P|408:120|352:128,1,95,6|0,0:0|0:0,0:0:0:0:
163,155,55304,2,0,P|203:179|259:171,1,95,8|0,0:0|0:0,0:0:0:0:
361,123,55657,1,2,0:0:0:0:
309,11,55833,1,2,0:0:0:0:
197,64,56010,1,8,0:0:0:0:
250,176,56186,1,2,0:0:0:0:
250,176,56274,1,0,0:0:0:0:
250,176,56363,6,0,L|248:284,1,95,2|0,0:0|0:0,0:0:0:0:
361,123,56715,2,0,L|363:15,1,95,8|0,0:0|0:0,0:0:0:0:
160,181,57068,2,0,P|205:191|250:176,1,95,2|0,0:0|0:0,0:0:0:0:
450,117,57421,2,0,P|404:106|360:122,1,95,8|0,0:0|0:0,0:0:0:0:
355,290,57774,5,2,0:0:0:0:
384,253,57862,1,0,0:0:0:0:
395,207,57950,1,0,0:0:0:0:
387,160,58038,1,0,0:0:0:0:
360,122,58127,2,0,L|248:116,1,95,8|0,0:0|0:0,0:0:0:0:
93,131,58480,5,2,0:0:0:0:
88,178,58568,1,0,0:0:0:0:
107,221,58656,1,0,0:0:0:0:
144,250,58744,1,0,0:0:0:0:
190,257,58832,1,8,0:0:0:0:
235,242,58921,1,0,0:0:0:0:
266,207,59009,1,0,0:0:0:0:
277,161,59098,1,0,0:0:0:0:
276,116,59186,6,0,L|276:25,2,71.2500027179719,6|0|0,0:0|0:0|0:0,0:0:0:0:
364,192,59715,1,2,0:0:0:0:
364,192,59804,1,0,0:0:0:0:
364,192,59892,2,0,L|364:283,1,71.2500027179719,2|0,0:0|0:0,0:0:0:0:
364,372,60245,1,2,0:0:0:0:
264,316,60421,1,0,0:0:0:0:
264,316,60510,1,0,0:0:0:0:
264,315,60598,6,0,P|192:303|123:316,1,142.5,6|0,0:0|0:0,0:0:0:0:
64,359,60951,2,0,B|78:372|78:372|95:274,1,95,8|0,0:0|0:0,0:0:0:0:
66,129,61304,2,0,B|51:115|51:115|34:213,1,95,2|0,0:0|0:0,0:0:0:0:
64,359,61657,1,8,0:0:0:0:
184,268,61833,1,0,0:0:0:0:
146,237,61921,1,0,0:0:0:0:
100,251,62010,1,2,0:0:0:0:
264,315,62186,6,0,L|375:319,1,95,2|8,0:0|0:0,0:0:0:0:
506,321,62539,1,0,0:0:0:0:
385,132,62715,1,2,0:0:0:0:
264,315,62892,1,0,0:0:0:0:
385,132,63068,6,0,B|392:77|369:41|369:41|333:83,1,113.999996520996,8|0,0:0|0:0,0:0:0:0:
283,196,63421,5,2,0:0:0:0:
312,230,63510,1,0,0:0:0:0:
356,250,63598,1,0,0:0:0:0:
403,252,63685,1,0,0:0:0:0:
447,235,63774,2,0,P|483:201|502:137,1,95,8|0,0:0|0:0,0:0:0:0:
416,19,64127,5,2,0:0:0:0:
372,13,64215,1,0,0:0:0:0:
327,27,64303,1,0,0:0:0:0:
292,59,64391,1,0,0:0:0:0:
274,103,64480,2,0,P|289:154|280:204,1,95,8|0,0:0|0:0,0:0:0:0:
188,340,64833,5,2,0:0:0:0:
141,346,64921,1,0,0:0:0:0:
96,332,65009,1,0,0:0:0:0:
60,301,65097,1,0,0:0:0:0:
39,259,65186,2,0,P|78:234|95:190,1,95,8|0,0:0|0:0,0:0:0:0:
56,38,65539,5,2,0:0:0:0:
94,65,65627,1,0,0:0:0:0:
140,72,65715,1,0,0:0:0:0:
185,57,65803,1,0,0:0:0:0:
219,25,65892,2,0,L|267:25,1,47.5,8|0,0:0|0:0,0:0:0:0:
322,103,66068,2,0,L|274:103,1,47.5
140,72,66245,6,0,L|145:201,1,95,6|0,0:0|0:0,0:0:0:0:
243,296,66598,2,0,L|239:201,1,95,8|0,0:0|0:0,0:0:0:0:
219,25,66951,1,2,0:0:0:0:
310,179,67127,1,2,0:0:0:0:
140,72,67304,1,8,0:0:0:0:
321,66,67480,1,2,0:0:0:0:
321,66,67568,1,0,0:0:0:0:
321,66,67657,6,0,B|309:193,1,95,2|0,0:0|0:0,0:0:0:0:
407,290,68010,2,0,B|415:195,1,95,8|0,0:0|0:0,0:0:0:0:
430,23,68363,1,2,0:0:0:0:
257,120,68539,1,0,0:0:0:0:
438,196,68715,1,8,0:0:0:0:
408,24,68892,1,0,0:0:0:0:
242,142,69068,5,2,0:0:0:0:
229,187,69156,1,0,0:0:0:0:
230,234,69244,1,0,0:0:0:0:
247,279,69332,1,0,0:0:0:0:
277,315,69421,2,0,B|320:315|339:268|339:268|311:231,1,95,8|0,0:0|0:0,0:0:0:0:
172,287,69774,5,2,0:0:0:0:
151,301,69863,1,0,0:0:0:0:
119,302,69951,1,0,0:0:0:0:
87,288,70039,1,0,0:0:0:0:
54,258,70127,1,8,0:0:0:0:
48,207,70215,1,0,0:0:0:0:
94,233,70304,1,0,0:0:0:0:
136,218,70392,1,0,0:0:0:0:
166,175,70480,5,6,0:0:0:0:
166,175,71010,1,2,0:0:0:0:
166,175,71098,1,0,0:0:0:0:
166,175,71186,2,0,P|144:124|152:76,1,95,2|0,0:0|0:0,0:0:0:0:
323,153,71539,2,0,P|345:204|337:252,1,95,2|0,0:0|0:0,0:0:0:0:
256,364,71892,5,2,0:0:0:0:
256,364,72068,2,0,L|180:364,1,71.2500027179719,2|8,0:0|0:0,0:0:0:0:
80,320,72421,2,0,L|28:320,2,35.625001358986,2|0|0,0:0|0:0|0:0,0:0:0:0:
184,364,72774,1,0,0:0:0:0:
160,252,72951,2,0,L|160:168,1,71.2500027179719,8|0,0:0|0:0,0:0:0:0:
256,72,73304,6,0,L|256:156,1,71.2500027179719,2|0,0:0|0:0,0:0:0:0:
256,256,73657,1,8,0:0:0:0:
356,200,73833,2,0,P|392:192|432:200,1,71.2500027179719,2|0,0:0|0:0,0:0:0:0:
496,288,74186,1,2,0:0:0:0:
504,172,74363,2,0,L|504:88,1,71.2500027179719,8|0,0:0|0:0,0:0:0:0:
384,24,74715,5,2,0:0:0:0:
312,112,74892,2,0,P|276:120|232:108,1,71.2500027179719,2|8,0:0|0:0,0:0:0:0:
172,24,75245,2,0,P|208:16|252:28,1,71.2500027179719,2|0,0:0|0:0,0:0:0:0:
312,112,75598,1,0,0:0:0:0:
312,112,75774,2,0,L|312:208,1,71.2500027179719,8|0,0:0|0:0,0:0:0:0:
200,272,76127,6,0,L|200:176,1,71.2500027179719,2|0,0:0|0:0,0:0:0:0:
312,112,76480,1,8,0:0:0:0:
312,112,76657,2,0,P|348:108|388:112,1,71.2500027179719,2|0,0:0|0:0,0:0:0:0:
280,212,77010,1,2,0:0:0:0:
204,132,77186,1,8,0:0:0:0:
312,112,77363,1,0,0:0:0:0:
184,232,77539,5,2,0:0:0:0:
184,232,77715,2,0,L|104:240,1,71.2500027179719,2|8,0:0|0:0,0:0:0:0:
120,112,78068,2,0,L|49:119,2,71.2500027179719,2|0|0,0:0|0:0|0:0,0:0:0:0:
256,80,78598,1,8,0:0:0:0:
256,204,78774,5,0,0:0:0:0:
256,204,78863,1,0,0:0:0:0:
256,204,78951,2,0,L|256:300,1,71.2500027179719,2|0,0:0|0:0,0:0:0:0:
204,352,79304,1,8,0:0:0:0:
308,352,79480,2,0,P|344:360|384:348,1,71.2500027179719,2|0,0:0|0:0,0:0:0:0:
468,216,79833,1,2,0:0:0:0:
468,216,80010,2,0,P|432:208|392:220,1,71.2500027179719,8|0,0:0|0:0,0:0:0:0:
376,351,80363,5,2,0:0:0:0:
376,351,80539,2,0,P|408:359|460:343,1,71.2500027179719,2|8,0:0|0:0,0:0:0:0:
468,216,80892,2,0,L|512:140,1,71.2500027179719,2|0,0:0|0:0,0:0:0:0:
408,140,81245,1,0,0:0:0:0:
408,140,81421,2,0,L|400:64,1,71.2500027179719,8|0,0:0|0:0,0:0:0:0:
260,144,81774,5,2,0:0:0:0:
336,212,81951,1,0,0:0:0:0:
360,112,82127,2,0,L|404:100,1,35.625001358986,8|0,0:0|0:0,0:0:0:0:
464,148,82304,2,0,L|512:132,2,35.625001358986,2|0|0,0:0|0:0|0:0,0:0:0:0:
336,212,82657,5,0,0:0:0:0:
233,261,82833,1,8,0:0:0:0:
184,157,83010,1,2,0:0:0:0:
288,109,83186,1,4,0:0:0:0:
336,212,83363,5,0,0:0:0:0:
336,212,83451,1,0,0:0:0:0:
336,212,83539,1,8,0:0:0:0:
407,115,83716,1,0,0:0:0:0:
288,109,83892,1,2,0:0:0:0:
288,109,84068,1,0,0:0:0:0:
336,212,84245,2,0,L|335:334,1,85.4999973907472,8|0,0:0|0:0,0:0:0:0:
288,108,84598,6,0,P|248:124|209:113,1,85.4999973907472,2|0,0:0|0:0,0:0:0:0:
108,55,84951,2,0,L|106:25,4,21.3749993476868,8|0|0|0|0,0:0|0:0|0:0|0:0|0:0,0:0:0:0:
168,198,85304,1,2,0:0:0:0:
40,180,85480,1,0,0:0:0:0:
168,198,85657,2,0,L|172:299,1,85.4999973907472,8|0,0:0|0:0,0:0:0:0:
145,73,86010,5,2,0:0:0:0:
273,131,86186,1,0,0:0:0:0:
108,55,86363,1,8,0:0:0:0:
313,147,86539,1,0,0:0:0:0:
68,35,86715,2,0,L|76:144,1,85.4999973907472,2|0,0:0|0:0,0:0:0:0:
81,196,86980,1,0,0:0:0:0:
81,196,87068,1,8,0:0:0:0:
234,109,87245,2,0,P|275:94|308:60,2,85.4999973907472,2|0|0,0:0|0:0|0:0,0:0:0:0:
81,196,87775,5,12,0:0:0:0:
81,196,87951,2,0,L|-4:198,1,85.4999973907472,2|0,0:0|0:0,0:0:0:0:
215,220,88304,1,0,0:0:0:0:
70,179,88481,1,8,0:0:0:0:
235,215,88657,1,0,0:0:0:0:
60,161,88834,1,2,0:0:0:0:
259,205,89010,5,0,0:0:0:0:
181,59,89187,1,8,0:0:0:0:
140,246,89363,1,0,0:0:0:0:
80,78,89540,1,2,0:0:0:0:
274,115,89716,1,0,0:0:0:0:
274,115,89892,2,0,P|292:153|293:195,1,85.4999973907472,8|0,0:0|0:0,0:0:0:0:
235,311,90245,6,0,P|279:299|331:311,1,85.4999973907472,2|0,0:0|0:0,0:0:0:0:
424,352,90598,2,0,L|461:335,4,21.3749993476868,8|0|0|0|0,0:0|0:0|0:0|0:0|0:0,0:0:0:0:
235,311,90951,1,2,0:0:0:0:
385,263,91128,1,0,0:0:0:0:
282,198,91304,2,0,P|269:159|276:106,2,85.4999973907472,8|0|0,0:0|0:0|0:0,0:0:0:0:
385,263,91834,5,2,0:0:0:0:
395,143,92010,1,8,0:0:0:0:
282,198,92186,1,0,0:0:0:0:
384,262,92363,2,0,P|426:276|471:257,1,85.4999973907472,2|0,0:0|0:0,0:0:0:0:
282,198,92716,2,0,P|242:186|194:202,1,85.4999973907472,8|0,0:0|0:0,0:0:0:0:
120,332,93069,5,2,0:0:0:0:
282,198,93245,1,0,0:0:0:0:
88,117,93422,1,8,0:0:0:0:
282,198,93598,1,0,0:0:0:0:
324,199,93686,1,0,0:0:0:0:
359,176,93774,1,2,0:0:0:0:
284,60,93951,2,0,P|245:73|189:64,1,85.4999973907472,0|8,0:0|0:0,0:0:0:0:
88,22,94304,1,0,0:0:0:0:
88,22,94392,1,0,0:0:0:0:
88,22,94480,6,0,L|88:140,1,95,6|0,0:0|0:0,0:0:0:0:
88,244,94833,1,0,0:0:0:0:
168,172,95010,2,0,P|212:160|260:168,1,95,8|0,0:0|0:0,0:0:0:0:
320,272,95363,1,2,0:0:0:0:
324,124,95539,1,0,0:0:0:0:
216,240,95715,6,0,P|208:280|232:336,1,95,2|8,0:0|0:0,0:0:0:0:
328,372,96068,1,0,0:0:0:0:
320,272,96245,1,2,0:0:0:0:
226,329,96421,1,8,0:0:0:0:
328,372,96598,2,0,L|440:372,1,95,2|0,0:0|0:0,0:0:0:0:
226,329,96951,1,0,0:0:0:0:
226,329,97127,6,0,L|131:329,2,95,2|8|0,0:0|0:0|0:0,0:0:0:0:
320,272,97657,1,2,0:0:0:0:
388,180,97833,2,0,P|396:136|380:88,1,95,8|0,0:0|0:0,0:0:0:0:
320,272,98186,1,0,0:0:0:0:
320,272,98363,2,0,P|312:316|328:364,1,95,2|0,0:0|0:0,0:0:0:0:
180,352,98715,6,0,L|68:352,1,95,8|0,0:0|0:0,0:0:0:0:
28,300,98980,1,0,0:0:0:0:
28,300,99068,2,0,P|16:252|32:208,2,95,2|8|0,0:0|0:0|0:0,0:0:0:0:
228,232,99598,5,8,0:0:0:0:
96,256,99774,1,2,0:0:0:0:
180,352,99951,1,0,0:0:0:0:
148,184,100127,6,0,P|128:140|136:88,1,95,4|0,0:0|0:0,0:0:0:0:
288,180,100480,2,0,P|308:224|300:276,2,95,2|8|0,0:0|0:0|0:0,0:0:0:0:
148,184,101010,1,2,0:0:0:0:
216,284,101186,1,0,0:0:0:0:
288,180,101363,6,0,L|288:64,1,95,2|8,0:0|0:0,0:0:0:0:
352,16,101715,1,0,0:0:0:0:
212,56,101891,1,2,0:0:0:0:
352,16,102068,1,8,0:0:0:0:
212,56,102245,2,0,P|164:64|116:48,1,95,2|0,0:0|0:0,0:0:0:0:
352,16,102598,1,0,0:0:0:0:
352,16,102774,6,0,P|400:8|448:24,2,95,2|8|0,0:0|0:0|0:0,0:0:0:0:
304,136,103304,1,2,0:0:0:0:
304,136,103480,2,0,L|328:240,1,95,8|0,0:0|0:0,0:0:0:0:
220,336,103833,1,0,0:0:0:0:
220,336,104010,6,0,P|176:352|120:344,2,95,2|0|8,0:0|0:0|0:0,0:0:0:0:
325,228,104539,1,0,0:0:0:0:
204,212,104715,1,2,0:0:0:0:
220,336,104892,1,0,0:0:0:0:
325,228,105068,2,0,B|372:212|412:232|412:232|392:244,1,95,2|0,0:0|0:0,0:0:0:0:
220,336,105421,2,0,B|173:352|133:332|133:332|153:320,1,95,2|0,0:0|0:0,0:0:0:0:
204,212,105774,5,6,0:0:0:0:
202,119,105951,2,0,P|213:165|204:212,1,95,2|0,0:0|0:0,0:0:0:0:
137,329,106304,2,0,P|119:285|80:252,1,95,2|8,0:0|0:0,0:0:0:0:
0,376,106657,1,0,0:0:0:0:
84,254,106833,1,2,0:0:0:0:
16,124,107010,1,0,0:0:0:0:
140,55,107186,6,0,P|161:96|202:119,1,95,8|0,0:0|0:0,0:0:0:0:
334,56,107539,2,0,L|331:20,4,23.75,2|0|0|0|8,0:0|0:0|0:0|0:0|0:0,0:0:0:0:
345,80,107892,2,0,P|332:126|345:176,1,95,2|0,0:0|0:0,0:0:0:0:
465,252,108245,2,0,P|439:292|402:322,1,95,2|0,0:0|0:0,0:0:0:0:
251,320,108598,5,8,0:0:0:0:
328,189,108774,1,0,0:0:0:0:
402,322,108951,1,2,0:0:0:0:
251,320,109127,2,0,P|214:290|188:250,1,95,8|0,0:0|0:0,0:0:0:0:
203,95,109480,1,0,0:0:0:0:
328,189,109657,1,2,0:0:0:0:
188,250,109833,1,0,0:0:0:0:
66,167,110010,6,0,P|45:209|41:256,1,95,8|0,0:0|0:0,0:0:0:0:
106,298,110274,1,2,0:0:0:0:
106,298,110363,2,0,L|203:240,1,95,2|8,0:0|0:0,0:0:0:0:
328,189,110715,2,0,L|326:94,1,95,2|8,0:0|0:0,0:0:0:0:
460,14,111068,2,0,L|461:108,1,95,2|0,0:0|0:0,0:0:0:0:
422,308,111421,6,0,P|470:313|486:268,1,95,8|0,0:0|0:0,0:0:0:0:
328,189,111774,1,2,0:0:0:0:
227,311,111951,2,0,P|179:316|163:271,1,95,8|0,0:0|0:0,0:0:0:0:
169,122,112304,1,0,0:0:0:0:
328,189,112480,1,2,0:0:0:0:
310,17,112657,1,0,0:0:0:0:
169,122,112833,6,0,P|164:171|133:208,1,95,8|0,0:0|0:0,0:0:0:0:
18,312,113186,2,0,L|14:351,4,23.75,2|0|0|0|8,0:0|0:0|0:0|0:0|0:0,0:0:0:0:
34,291,113539,2,0,L|138:312,1,95,2|0,0:0|0:0,0:0:0:0:
280,342,113892,2,0,P|270:296|290:254,1,95,2|0,0:0|0:0,0:0:0:0:
348,204,114157,1,0,0:0:0:0:
348,204,114245,5,8,0:0:0:0:
421,327,114421,1,0,0:0:0:0:
274,184,114598,1,2,0:0:0:0:
448,185,114774,2,0,P|461:139|446:95,1,95,8|0,0:0|0:0,0:0:0:0:
274,184,115127,1,0,0:0:0:0:
362,45,115304,1,2,0:0:0:0:
448,186,115480,1,0,0:0:0:0:
274,183,115657,6,0,P|227:179|187:153,1,95,2|0,0:0|0:0,0:0:0:0:
274,183,116010,2,0,P|274:237|252:294,1,95,2|0,0:0|0:0,0:0:0:0:
109,384,116363,2,0,P|109:330|131:273,1,95,2|0,0:0|0:0,0:0:0:0:
268,219,116715,1,2,0:0:0:0:
316,219,116803,1,0,0:0:0:0:
363,217,116891,1,0,0:0:0:0:
410,218,116979,1,0,0:0:0:0:
456,216,117068,5,6,0:0:0:0:
376,128,117245,2,0,P|364:80|380:32,1,95,0|8,0:0|0:0,0:0:0:0:
268,128,117598,2,0,P|280:176|264:224,1,95,2|0,0:0|0:0,0:0:0:0:
176,342,117951,1,0,0:0:0:0:
322,295,118127,1,8,0:0:0:0:
176,247,118304,1,0,0:0:0:0:
267,372,118480,5,2,0:0:0:0:
267,218,118657,2,0,P|264:168|292:120,1,95,0|8,0:0|0:0,0:0:0:0:
396,264,119010,2,0,P|399:314|371:362,1,95,2|0,0:0|0:0,0:0:0:0:
267,372,119363,1,0,0:0:0:0:
160,332,119539,1,8,0:0:0:0:
244,260,119715,1,0,0:0:0:0:
244,260,119804,1,0,0:0:0:0:
244,260,119892,1,2,0:0:0:0:
267,372,120068,6,0,P|312:380|368:364,1,95,0|8,0:0|0:0,0:0:0:0:
244,260,120421,2,0,P|199:252|143:268,1,95,2|0,0:0|0:0,0:0:0:0:
52,352,120774,1,0,0:0:0:0:
96,216,120951,1,8,0:0:0:0:
132,336,121127,1,0,0:0:0:0:
96,216,121304,5,2,0:0:0:0:
52,352,121480,2,0,B|16:372|16:372|16:316,1,95,0|8,0:0|0:0,0:0:0:0:
96,216,121833,2,0,B|132:196|132:196|132:252,1,95,2|0,0:0|0:0,0:0:0:0:
52,352,122186,1,0,0:0:0:0:
132,249,122363,2,0,L|200:240,1,47.5,8|0,0:0|0:0,0:0:0:0:
224,320,122539,2,0,L|292:311,1,47.5
376,288,122715,5,10,0:0:0:0:
416,264,122803,1,0,0:0:0:0:
442,225,122891,1,0,0:0:0:0:
446,178,122979,1,0,0:0:0:0:
427,135,123067,1,8,0:0:0:0:
391,105,123156,1,0,0:0:0:0:
345,95,123244,1,0,0:0:0:0:
300,109,123333,1,0,0:0:0:0:
271,146,123421,5,10,0:0:0:0:
234,176,123509,1,0,0:0:0:0:
191,195,123597,1,0,0:0:0:0:
143,198,123685,1,0,0:0:0:0:
99,183,123774,1,8,0:0:0:0:
67,149,123862,1,0,0:0:0:0:
60,102,123950,1,0,0:0:0:0:
86,64,124038,1,0,0:0:0:0:
131,52,124127,5,10,0:0:0:0:
173,71,124215,1,0,0:0:0:0:
195,113,124303,1,0,0:0:0:0:
193,160,124391,1,0,0:0:0:0:
173,203,124480,1,8,0:0:0:0:
142,238,124568,1,0,0:0:0:0:
104,266,124656,1,0,0:0:0:0:
62,289,124744,1,0,0:0:0:0:
20,268,124833,6,0,L|-4:216,1,47.5,10|0,0:0|0:0,0:0:0:0:
40,116,125010,2,0,L|64:168,1,47.5
196,200,125186,2,0,L|172:148,1,47.5,8|0,0:0|0:0,0:0:0:0:
216,48,125363,2,0,L|240:100,1,47.5
296,184,125539,5,10,0:0:0:0:
320,223,125627,1,0,0:0:0:0:
363,241,125715,1,0,0:0:0:0:
409,232,125803,1,0,0:0:0:0:
441,197,125891,1,8,0:0:0:0:
447,151,125980,1,0,0:0:0:0:
425,109,126068,1,0,0:0:0:0:
383,88,126156,1,0,0:0:0:0:
337,95,126245,5,10,0:0:0:0:
307,131,126333,1,0,0:0:0:0:
261,139,126421,1,0,0:0:0:0:
221,115,126509,1,0,0:0:0:0:
206,71,126597,1,8,0:0:0:0:
223,28,126686,1,0,0:0:0:0:
264,6,126774,1,0,0:0:0:0:
310,16,126863,1,0,0:0:0:0:
344,49,126951,5,10,0:0:0:0:
366,91,127039,1,0,0:0:0:0:
373,137,127127,1,0,0:0:0:0:
365,184,127215,1,0,0:0:0:0:
343,225,127304,1,8,0:0:0:0:
308,258,127392,1,0,0:0:0:0:
265,277,127480,1,0,0:0:0:0:
220,290,127568,1,0,0:0:0:0:
174,279,127656,5,10,0:0:0:0:
140,246,127744,1,0,0:0:0:0:
126,202,127832,1,0,0:0:0:0:
135,156,127921,1,0,0:0:0:0:
166,120,128009,1,8,0:0:0:0:
210,104,128097,1,0,0:0:0:0:
257,112,128185,1,0,0:0:0:0:
293,142,128274,1,0,0:0:0:0:
256,192,128363,12,0,129245,0:0:0:0:
293,142,129421,6,0,L|405:88,1,95,6|0,3:0|0:0,0:0:0:0:
471,98,129774,6,0,P|421:134|443:226,1,142.5,6|0,0:0|0:0,0:0:0:0:
498,239,130127,2,0,L|403:251,1,95,8|0,0:0|0:0,0:0:0:0:
293,142,130480,2,0,L|177:158,1,95,2|0,0:0|0:0,0:0:0:0:
36,172,130833,1,8,0:0:0:0:
128,296,131010,1,0,0:0:0:0:
169,272,131098,1,0,0:0:0:0:
210,248,131186,1,2,0:0:0:0:
293,142,131363,6,0,P|285:98|305:42,1,95,2|8,0:0|0:0,0:0:0:0:
412,106,131715,1,0,0:0:0:0:
382,228,131892,1,2,0:0:0:0:
293,142,132068,1,0,0:0:0:0:
412,106,132244,2,0,B|446:31|446:31|464:55,1,95,8|0,0:0|0:0,0:0:0:0:
507,193,132598,5,2,0:0:0:0:
510,244,132686,1,0,0:0:0:0:
493,294,132774,1,0,0:0:0:0:
459,333,132862,1,0,0:0:0:0:
413,358,132951,2,0,P|366:367|321:353,1,95,8|0,0:0|0:0,0:0:0:0:
210,248,133304,5,2,0:0:0:0:
161,233,133392,1,0,0:0:0:0:
119,261,133480,1,0,0:0:0:0:
112,311,133568,1,0,0:0:0:0:
144,351,133657,2,0,P|191:360|236:346,1,95,8|0,0:0|0:0,0:0:0:0:
307,207,134010,5,2,0:0:0:0:
299,155,134098,1,0,0:0:0:0:
292,103,134186,1,0,0:0:0:0:
285,51,134274,1,0,0:0:0:0:
278,1,134363,2,0,B|353:-10|353:-10|355:33,1,95,8|0,0:0|0:0,0:0:0:0:
299,155,134715,5,2,0:0:0:0:
247,161,134803,1,0,0:0:0:0:
195,168,134891,1,0,0:0:0:0:
143,179,134980,1,0,0:0:0:0:
90,185,135068,2,0,L|94:247,1,47.5,8|0,0:0|0:0,0:0:0:0:
11,297,135244,2,0,L|6:234,1,47.5
31,116,135421,6,0,P|79:159|91:225,1,95,6|0,0:0|0:0,0:0:0:0:
105,346,135774,2,0,P|151:350|195:332,1,95,8|0,0:0|0:0,0:0:0:0:
303,211,136127,1,2,0:0:0:0:
143,179,136303,1,2,0:0:0:0:
195,332,136480,1,8,0:0:0:0:
303,211,136656,1,0,0:0:0:0:
303,211,136744,1,0,0:0:0:0:
303,211,136833,6,0,L|301:319,1,95,2|0,0:0|0:0,0:0:0:0:
390,150,137186,2,0,L|388:258,1,95,8|0,0:0|0:0,0:0:0:0:
202,210,137539,2,0,L|204:318,1,95,2|0,0:0|0:0,0:0:0:0:
115,149,137892,2,0,L|117:257,1,95,8|0,0:0|0:0,0:0:0:0:
208,361,138245,5,2,0:0:0:0:
259,366,138333,1,0,0:0:0:0:
307,345,138421,1,0,0:0:0:0:
357,333,138509,1,0,0:0:0:0:
407,353,138598,2,0,P|442:340|430:263,1,95,8|0,0:0|0:0,0:0:0:0:
314,193,138951,5,2,0:0:0:0:
303,143,139039,1,0,0:0:0:0:
322,95,139127,1,0,0:0:0:0:
365,66,139215,1,0,0:0:0:0:
416,66,139303,1,8,0:0:0:0:
459,95,139392,1,0,0:0:0:0:
478,143,139480,1,0,0:0:0:0:
475,195,139568,1,0,0:0:0:0:
441,235,139657,1,4,0:0:0:0:
441,235,140186,5,0,0:0:0:0:
441,235,140274,1,0,0:0:0:0:
441,234,140363,2,0,P|394:244|348:233,1,95,2|0,0:0|0:0,0:0:0:0:
365,66,140715,1,2,0:0:0:0:
