osu file format v14

[General]
AudioFilename: myL.mp3
AudioLeadIn: 0
PreviewTime: 48774
Countdown: 0
SampleSet: Soft
StackLeniency: 0.7
Mode: 0
LetterboxInBreaks: 0
EpilepsyWarning: 1
WidescreenStoryboard: 1

[Editor]
Bookmarks: 2716,14010,25304,36598,49304,60598,71892,83186,94480,105774,117068,129774,141068
DistanceSpacing: 1.3
BeatDivisor: 4
GridSize: 4
TimelineZoom: 1.399999

[Metadata]
Title:ALiVE
TitleUnicode:ALiVE
Artist:REDALiCE
ArtistUnicode:REDALiCE
Creator:Natsu
Version:Hard
Source:
Tags:Euny Kanari Alice Emotion HARDCORE SYNDROME 9 Tano*C C88
BeatmapID:798456
BeatmapSetID:359749

[Difficulty]
HPDrainRate:5
CircleSize:4
OverallDifficulty:6.5
ApproachRate:7.5
SliderMultiplier:1.5
SliderTickRate:1

[Events]
//Background and Video events
0,0,"bg.jpg",0,0
//Break Periods
//Storyboard Layer 0 (Background)
//Storyboard Layer 1 (Fail)
//Storyboard Layer 2 (Pass)
//Storyboard Layer 3 (Foreground)
//Storyboard Sound Samples

[TimingPoints]
2716,352.941176470588,4,2,2,70,1,0
2716,-111.111111111111,4,2,2,70,0,0
7304,-111.111111111111,4,2,1,60,0,0
7657,-111.111111111111,4,2,2,70,0,0
14010,-100,4,2,3,70,0,0
36597,-100,4,2,1,70,0,0
41892,-100,4,1,1,50,0,0
47980,-100,4,2,1,15,0,0
48951,-133.333333333333,4,2,1,50,0,0
49304,-100,4,2,3,70,0,1
59186,-133.333333333333,4,2,3,50,0,0
60598,-100,4,2,3,70,0,1
70480,-100,4,2,3,50,0,0
71892,-133.333333333333,4,2,2,50,0,0
83186,-111.111111111111,4,2,2,70,0,0
87775,-111.111111111111,4,2,1,60,0,0
88127,-111.111111111111,4,2,2,70,0,0
94480,-100,4,2,3,70,0,0
117068,-100,4,2,1,70,0,0
122363,-100,4,1,1,50,0,0
128363,-100,4,2,1,15,0,0
129421,-100,4,2,1,50,0,0
129774,-100,4,2,3,70,0,1
139657,-100,4,2,3,60,0,0
140010,-100,4,2,3,50,0,0
140363,-100,4,2,3,40,0,0
140715,-100,4,2,3,30,0,0

[Colours]
Combo1 : 235,14,47
Combo2 : 0,64,128
Combo3 : 230,115,0

[HitObjects]
230,235,2716,5,2,0:0:0:0:
230,148,2892,2,0,L|200:96,2,33.7499989700318,0|0|8,0:0|0:0|0:0,0:0:0:0:
306,192,3245,1,0,0:0:0:0:
230,235,3421,2,0,L|180:280,1,67.4999979400635,2|0,0:0|0:0,0:0:0:0:
112,336,3774,1,8,0:0:0:0:
108,160,4127,6,0,B|108:56|108:56|72:88,1,134.999995880127,2|8,0:0|0:0,0:0:0:0:
16,136,4657,1,0,0:0:0:0:
16,136,4745,1,0,0:0:0:0:
16,136,4833,1,2,0:0:0:0:
48,220,5010,1,0,0:0:0:0:
108,160,5186,1,8,0:0:0:0:
256,84,5539,6,0,L|348:72,1,67.4999979400635,2|0,0:0|0:0,0:0:0:0:
164,76,5892,2,0,L|152:-16,1,67.4999979400635,8|0,0:0|0:0,0:0:0:0:
200,156,6245,2,0,B|192:256|192:256|156:220,1,134.999995880127,2|8,0:0|0:0,0:0:0:0:
200,156,6774,2,0,P|252:176|328:140,1,134.999995880127,0|0,0:0|0:0,0:0:0:0:
256,84,7304,5,12,0:0:0:0:
256,84,7480,2,0,L|256:232,1,134.999995880127,2|0,0:0|0:0,0:0:0:0:
344,312,8010,2,0,L|344:240,1,67.4999979400635,8|0,0:0|0:0,0:0:0:0:
256,219,8363,5,2,0:0:0:0:
172,192,8539,1,0,0:0:0:0:
128,116,8715,2,0,P|124:80|140:36,2,67.4999979400635,8|0|2,0:0|0:0|0:0,0:0:0:0:
172,192,9245,2,0,P|176:228|160:272,1,67.4999979400635,0|8,0:0|0:0,0:0:0:0:
340,192,9774,6,0,P|336:156|352:112,1,67.4999979400635,2|0,0:0|0:0,0:0:0:0:
256,76,10127,2,0,L|256:144,1,67.4999979400635,8|0,0:0|0:0,0:0:0:0:
171,192,10480,2,0,P|176:158|168:126,1,67.4999979400635,2|0,0:0|0:0,0:0:0:0:
119,251,10833,2,0,P|181:271|236:236,1,134.999995880127,8|2,0:0|0:0,0:0:0:0:
256,143,11363,5,0,0:0:0:0:
304,72,11539,2,0,L|384:64,1,67.4999979400635,8|0,0:0|0:0,0:0:0:0:
256,143,11892,2,0,B|156:160|156:160|196:124,1,134.999995880127,2|8,0:0|0:0,0:0:0:0:
416,8,12598,6,0,P|444:72|404:132,1,134.999995880127,4|8,0:0|0:0,0:0:0:0:
356,192,13127,2,0,L|356:248,3,33.7499989700318,2|0|0|0,0:0|0:0|0:0|0:0,0:0:0:0:
356,268,13480,2,0,P|320:272|276:268,1,67.4999979400635,0|8,0:0|0:0,0:0:0:0:
212,228,13833,1,2,0:0:0:0:
212,228,13921,1,8,0:0:0:0:
212,228,14010,6,0,L|208:308,1,75,6|0,0:0|0:0,0:0:0:0:
120,348,14363,2,0,L|123:273,1,75,8|2,0:0|0:0,0:0:0:0:
140,56,14892,1,8,0:0:0:0:
140,56,15068,1,8,0:0:0:0:
160,152,15245,6,0,B|217:139|234:83|234:83|229:160,1,150,2|0,0:0|0:0,0:0:0:0:
212,228,15774,1,8,0:0:0:0:
212,228,15951,1,0,0:0:0:0:
306,204,16127,6,0,L|314:112,1,75,2|8,0:0|0:0,0:0:0:0:
324,32,16480,1,8,0:0:0:0:
405,85,16657,2,0,L|398:159,2,75,2|8|0,0:0|0:0|0:0,0:0:0:0:
324,32,17186,5,8,0:0:0:0:
227,44,17363,2,0,P|186:52|138:39,1,75,2|0,0:0|0:0,0:0:0:0:
58,26,17715,1,8,0:0:0:0:
89,118,17892,2,0,L|82:215,1,75,8|0,0:0|0:0,0:0:0:0:
64,288,18245,6,0,P|97:304|134:303,1,75,8|0,0:0|0:0,0:0:0:0:
226,271,18598,1,8,0:0:0:0:
294,201,18774,2,0,P|332:191|377:194,1,75,2|0,0:0|0:0,0:0:0:0:
452,240,19127,1,8,0:0:0:0:
452,240,19304,2,0,L|448:142,1,75,8|0,0:0|0:0,0:0:0:0:
418,72,19657,6,0,P|393:43|360:26,2,75,6|2|8,0:0|0:0|0:0,0:0:0:0:
333,120,20186,2,0,L|251:127,1,75,2|2,0:0|0:0,0:0:0:0:
160,135,20539,1,8,0:0:0:0:
160,135,20715,1,8,0:0:0:0:
64,157,20892,6,0,P|103:216|191:230,1,150,2|0,0:0|0:0,0:0:0:0:
266,195,21421,1,8,0:0:0:0:
266,195,21598,1,0,0:0:0:0:
333,120,21774,6,0,P|370:115|406:124,1,75,2|8,0:0|0:0,0:0:0:0:
459,206,22127,1,8,0:0:0:0:
363,229,22304,2,0,L|356:303,2,75,2|8|0,0:0|0:0|0:0,0:0:0:0:
333,120,22833,5,8,0:0:0:0:
239,90,23010,2,0,P|202:97|165:92,1,75,2|0,0:0|0:0,0:0:0:0:
73,60,23362,1,8,0:0:0:0:
42,153,23539,2,0,L|35:250,1,75,8|0,0:0|0:0,0:0:0:0:
28,325,23892,6,0,P|65:322|96:303,1,75,2|0,0:0|0:0,0:0:0:0:
144,217,24245,2,0,L|224:276,1,75,2|0,0:0|0:0,0:0:0:0:
284,317,24598,1,2,0:0:0:0:
333,120,24951,2,0,P|383:141|432:118,1,112.5,2|0,0:0|0:0,0:0:0:0:
476,92,25304,6,0,L|476:12,2,75,6|2|8,0:0|0:0|0:0,0:0:0:0:
480,188,25833,2,0,B|476:236|476:236|432:212|376:240,1,150,2|8,0:0|0:0,0:0:0:0:
296,296,26363,2,0,L|296:380,1,75,8|2,0:0|0:0,0:0:0:0:
378,238,26715,6,0,L|378:163,2,75,6|0|8,0:0|0:0|0:0,0:0:0:0:
304,128,27245,2,0,P|372:84|440:112,1,150,2|8,0:0|0:0,0:0:0:0:
480,188,27774,1,8,0:0:0:0:
480,284,27951,2,0,L|480:344,2,37.5,2|0|6,0:0|0:0|0:0,0:0:0:0:
480,188,28304,6,0,B|480:96,1,75,2|8,0:0|0:0,0:0:0:0:
480,188,28657,2,0,B|452:208|452:208|336:208,1,150,2|8,0:0|0:0,0:0:0:0:
256,152,29186,2,0,P|248:112|256:68,1,75,8|2,0:0|0:0,0:0:0:0:
336,208,29539,5,6,0:0:0:0:
336,208,29715,2,0,P|344:248|336:292,1,75,0|8,0:0|0:0,0:0:0:0:
256,152,30068,2,0,P|304:116|404:136,1,150,2|8,0:0|0:0,0:0:0:0:
456,200,30598,2,0,L|456:256,3,37.5,8|0|0|0,0:0|0:0|0:0|0:0,0:0:0:0:
456,288,30950,5,4,0:0:0:0:
368,332,31127,2,0,L|288:332,1,75,2|8,0:0|0:0,0:0:0:0:
196,328,31480,2,0,P|220:268|184:188,1,150,2|8,0:0|0:0,0:0:0:0:
216,96,32010,2,0,L|300:96,1,75,8|2,0:0|0:0,0:0:0:0:
189,192,32363,6,0,L|114:192,2,75,4|2|8,0:0|0:0|0:0,0:0:0:0:
256,264,32892,2,0,P|320:296|388:256,1,150,2|8,0:0|0:0,0:0:0:0:
392,164,33421,1,8,0:0:0:0:
472,220,33598,1,2,0:0:0:0:
472,220,33686,1,0,0:0:0:0:
472,220,33774,5,4,0:0:0:0:
392,164,33951,2,0,L|392:80,1,75,2|8,0:0|0:0,0:0:0:0:
309,28,34304,2,0,P|323:95|392:89,1,150,2|8,0:0|0:0,0:0:0:0:
309,28,34833,2,0,L|232:28,1,75,8|2,0:0|0:0,0:0:0:0:
168,136,35186,6,0,L|245:136,1,75,2|2,0:0|0:0,0:0:0:0:
440,192,35715,2,0,P|460:268|420:324,1,150,2|0,0:0|0:0,0:0:0:0:
328,292,36245,2,0,L|276:292,3,37.5,2|0|0|0,0:0|0:0|0:0|0:0,0:0:0:0:
240,288,36598,5,6,0:0:0:0:
142,287,36774,2,0,P|133:250|141:214,1,75,2|8,0:0|0:0,0:0:0:0:
240,288,37127,2,0,P|247:324|239:360,1,75,2|0,0:0|0:0,0:0:0:0:
142,287,37480,2,0,L|58:285,2,75,0|8|0,0:0|0:0|0:0,0:0:0:0:
194,196,38010,5,2,0:0:0:0:
109,144,38186,2,0,P|133:116|167:99,1,75,2|8,0:0|0:0,0:0:0:0:
262,119,38539,2,0,P|298:126|335:119,1,75,2|0,0:0|0:0,0:0:0:0:
431,100,38892,2,0,P|464:116|489:144,1,75,0|8,0:0|0:0,0:0:0:0:
403,210,39245,2,0,L|391:272,2,37.5,0|0|2,0:0|0:0|0:0,0:0:0:0:
431,100,39598,6,0,L|419:8,1,75,2|8,0:0|0:0,0:0:0:0:
333,64,39951,2,0,L|342:138,1,75,2|0,0:0|0:0,0:0:0:0:
339,242,40304,2,0,P|376:235|403:209,1,75,0|8,0:0|0:0,0:0:0:0:
432,100,40657,1,0,0:0:0:0:
333,64,40833,6,0,L|229:33,2,75,2|0|8,0:0|0:0|0:0,0:0:0:0:
350,168,41363,2,0,L|338:254,1,75,2|0,0:0|0:0,0:0:0:0:
314,336,41715,1,0,0:0:0:0:
243,268,41892,1,8,0:0:0:0:
243,268,41980,1,0,0:0:0:0:
243,268,42068,1,0,0:0:0:0:
145,258,42245,6,0,L|109:273,3,37.5,10|0|0|0,0:0|0:0|0:0|0:0,0:0:0:0:
61,271,42598,2,0,L|20:243,3,37.5,8|0|0|0,0:0|0:0|0:0|0:0,0:0:0:0:
7,205,42951,2,0,P|24:171|30:132,1,75,10|0,0:0|0:0,0:0:0:0:
55,40,43304,6,0,L|109:62,3,37.5,8|0|0|0,0:0|0:0|0:0|0:0,0:0:0:0:
138,63,43657,2,0,L|196:40,3,37.5,10|0|0|0,0:0|0:0|0:0|0:0,0:0:0:0:
219,33,44010,2,0,P|254:44|296:29,1,75,8|0,0:0|0:0,0:0:0:0:
385,13,44363,6,0,L|403:60,3,37.5,10|0|0|0,0:0|0:0|0:0|0:0,0:0:0:0:
428,86,44715,2,0,L|407:138,3,37.5,8|0|0|0,0:0|0:0|0:0|0:0,0:0:0:0:
389,163,45068,2,0,L|398:248,1,75,10|0,0:0|0:0,0:0:0:0:
336,314,45421,6,0,L|287:303,3,37.5,8|0|0|0,0:0|0:0|0:0|0:0,0:0:0:0:
250,306,45774,2,0,L|191:327,3,37.5,10|0|0|0,0:0|0:0|0:0|0:0,0:0:0:0:
166,331,46127,2,0,P|142:302|110:283,1,75,8|0,0:0|0:0,0:0:0:0:
13,270,46480,6,0,L|0:214,3,37.5,10|0|0|0,0:0|0:0|0:0|0:0,0:0:0:0:
4,184,46833,2,0,L|27:134,3,37.5,8|0|2|0,0:0|0:0|0:0|0:0,0:0:0:0:
53,114,47186,2,0,P|104:137|154:135,1,75,8|2,0:0|0:0,0:0:0:0:
212,101,47539,2,0,L|221:201,1,75,8|0,0:0|0:0,0:0:0:0:
256,192,47892,12,6,48951,3:0:0:0:
300,192,49304,6,0,L|380:184,1,75,6|0,0:0|0:0,0:0:0:0:
212,192,49657,2,0,L|132:200,1,75,8|0,0:0|0:0,0:0:0:0:
256,128,50010,2,0,B|256:20|256:20|288:76,1,150,2|8,0:0|0:0,0:0:0:0:
300,192,50539,2,0,L|304:256,2,37.5,0|0|2,0:0|0:0|0:0,0:0:0:0:
212,192,50892,6,0,P|172:200|124:188,1,75,2|8,0:0|0:0,0:0:0:0:
76,120,51245,2,0,P|39:114|2:122,2,75,0|2|0,0:0|0:0|0:0,0:0:0:0:
138,194,51774,2,0,L|140:292,1,75,8|0,0:0|0:0,0:0:0:0:
256,352,52127,6,0,L|304:352,3,37.5,2|0|0|0,0:0|0:0|0:0|0:0,0:0:0:0:
344,352,52480,2,0,P|336:316|348:268,1,75,8|0,0:0|0:0,0:0:0:0:
392,192,52833,2,0,L|392:144,3,37.5,2|0|0|0,0:0|0:0|0:0|0:0,0:0:0:0:
392,104,53186,2,0,P|356:112|308:100,1,75,8|0,0:0|0:0,0:0:0:0:
256,32,53539,6,0,L|208:32,3,37.5,2|0|0|0,0:0|0:0|0:0|0:0,0:0:0:0:
168,32,53892,2,0,P|176:68|164:116,1,75,8|0,0:0|0:0,0:0:0:0:
120,192,54245,2,0,L|120:240,3,37.5,2|0|0|0,0:0|0:0|0:0|0:0,0:0:0:0:
120,280,54598,2,0,P|156:272|204:284,1,75,8|0,0:0|0:0,0:0:0:0:
256,352,54951,6,0,L|320:296,1,75,4|0,0:0|0:0,0:0:0:0:
372,200,55304,2,0,L|316:136,1,75,8|0,0:0|0:0,0:0:0:0:
256,32,55657,2,0,L|192:88,1,75,2|2,0:0|0:0,0:0:0:0:
140,184,56010,2,0,L|196:248,1,75,8|0,0:0|0:0,0:0:0:0:
72,253,56363,6,0,L|61:349,1,75,2|0,0:0|0:0,0:0:0:0:
3,184,56715,2,0,L|-8:280,1,75,8|0,0:0|0:0,0:0:0:0:
72,115,57068,2,0,L|83:19,1,75,2|0,0:0|0:0,0:0:0:0:
141,184,57421,2,0,L|152:88,1,75,8|0,0:0|0:0,0:0:0:0:
256,32,57774,6,0,L|304:32,3,37.5,2|0|0|0,0:0|0:0|0:0|0:0,0:0:0:0:
344,32,58127,2,0,P|352:68|340:116,1,75,8|0,0:0|0:0,0:0:0:0:
256,144,58480,2,0,L|256:188,3,37.5,2|0|0|0,0:0|0:0|0:0|0:0,0:0:0:0:
216,208,58833,2,0,L|216:252,3,37.5,8|0|0|0,0:0|0:0|0:0|0:0,0:0:0:0:
216,284,59186,6,0,P|160:304|100:276,1,112.500004291535,6|0,0:0|0:0,0:0:0:0:
56,196,59715,1,2,0:0:0:0:
56,196,59804,1,0,0:0:0:0:
56,196,59892,2,0,L|56:124,2,56.2500021457673,2|0|2,0:0|0:0|0:0,0:0:0:0:
111,287,60421,1,0,0:0:0:0:
111,287,60510,1,0,0:0:0:0:
111,287,60598,6,0,P|150:248|162:183,1,112.5,6|0,0:0|0:0,0:0:0:0:
160,145,60951,2,0,L|240:153,1,75,8|0,0:0|0:0,0:0:0:0:
296,76,61304,2,0,L|221:68,1,75,2|0,0:0|0:0,0:0:0:0:
124,57,61657,1,8,0:0:0:0:
160,145,61833,2,0,L|155:187,2,37.5,0|0|2,0:0|0:0|0:0,0:0:0:0:
221,68,62186,6,0,P|236:30|277:3,1,75,2|8,0:0|0:0,0:0:0:0:
357,27,62539,1,0,0:0:0:0:
439,78,62715,2,0,L|438:178,1,75,2|0,0:0|0:0,0:0:0:0:
350,197,63068,2,0,L|349:97,1,75,8|0,0:0|0:0,0:0:0:0:
357,27,63421,6,0,L|312:45,3,37.5,2|0|0|0,0:0|0:0|0:0|0:0,0:0:0:0:
272,50,63774,2,0,P|236:56|199:49,1,75,8|0,0:0|0:0,0:0:0:0:
104,25,64127,2,0,L|81:72,3,37.5,2|0|0|0,0:0|0:0|0:0|0:0,0:0:0:0:
61,100,64480,2,0,P|79:132|86:168,1,75,8|0,0:0|0:0,0:0:0:0:
81,266,64833,6,0,L|119:283,3,37.5,2|0|0|0,0:0|0:0|0:0|0:0,0:0:0:0:
161,297,65186,2,0,P|193:282|238:278,1,75,8|0,0:0|0:0,0:0:0:0:
303,344,65539,2,0,L|323:312,3,37.5,2|0|0|0,0:0|0:0|0:0|0:0,0:0:0:0:
344,268,65892,2,0,L|335:220,3,37.5,8|0|0|0,0:0|0:0|0:0|0:0,0:0:0:0:
317,185,66245,6,0,P|281:174|249:154,1,75,6|0,0:0|0:0,0:0:0:0:
163,107,66598,2,0,L|156:208,1,75,8|0,0:0|0:0,0:0:0:0:
161,297,66951,2,0,L|235:293,1,75,2|2,0:0|0:0,0:0:0:0:
344,268,67304,2,0,L|345:352,1,75,8|2,0:0|0:0,0:0:0:0:
449,325,67657,6,0,L|448:250,1,75,2|0,0:0|0:0,0:0:0:0:
444,152,68010,2,0,P|407:158|370:151,1,75,8|0,0:0|0:0,0:0:0:0:
335,60,68363,2,0,P|371:53|408:59,1,75,2|0,0:0|0:0,0:0:0:0:
444,152,68715,2,0,L|447:241,1,75,8|0,0:0|0:0,0:0:0:0:
449,325,69068,6,0,P|431:319|412:316,3,37.5,2|0|0|0,0:0|0:0|0:0|0:0,0:0:0:0:
367,337,69421,2,0,P|330:344|296:331,1,75,8|0,0:0|0:0,0:0:0:0:
219,270,69774,2,0,L|201:227,3,37.5,2|0|0|0,0:0|0:0|0:0|0:0,0:0:0:0:
185,189,70127,2,0,L|149:163,3,37.5,8|0|0|0,0:0|0:0|0:0|0:0,0:0:0:0:
111,143,70480,5,6,0:0:0:0:
111,143,71010,1,2,0:0:0:0:
111,143,71098,1,0,0:0:0:0:
111,143,71186,2,0,L|84:240,1,75,2|0,0:0|0:0,0:0:0:0:
185,189,71539,2,0,L|212:92,1,75,2|0,0:0|0:0,0:0:0:0:
256,24,71892,5,2,0:0:0:0:
336,76,72068,2,0,L|416:76,1,56.2500021457673,2|8,0:0|0:0,0:0:0:0:
456,144,72421,2,0,P|444:196|460:256,1,112.500004291535,2|0,0:0|0:0,0:0:0:0:
500,340,72951,1,8,0:0:0:0:
332,352,73304,6,0,B|296:368|296:368|204:368,1,112.500004291535,2|8,0:0|0:0,0:0:0:0:
128,360,73833,2,0,P|140:304|112:240,1,112.500004291535,2|2,0:0|0:0,0:0:0:0:
48,192,74363,1,8,0:0:0:0:
164,40,74715,5,2,0:0:0:0:
164,40,74892,2,0,L|232:40,1,56.2500021457673,2|8,0:0|0:0,0:0:0:0:
316,40,75245,2,0,P|336:92|312:152,1,112.500004291535,2|0,0:0|0:0,0:0:0:0:
256,216,75774,1,8,0:0:0:0:
396,348,76127,6,0,L|516:348,1,112.500004291535,2|8,0:0|0:0,0:0:0:0:
448,272,76657,2,0,L|316:272,1,112.500004291535,2|2,0:0|0:0,0:0:0:0:
256,216,77186,1,8,0:0:0:0:
204,136,77363,1,0,0:0:0:0:
308,136,77539,5,2,0:0:0:0:
256,216,77715,2,0,L|256:296,1,56.2500021457673,2|8,0:0|0:0,0:0:0:0:
196,348,78068,2,0,P|144:364|88:348,1,112.500004291535,2|0,0:0|0:0,0:0:0:0:
32,272,78598,1,8,0:0:0:0:
96,92,78951,6,0,P|149:76|202:92,1,112.500004291535,2|8,0:0|0:0,0:0:0:0:
256,172,79480,2,0,P|309:188|362:172,1,112.500004291535,2|2,0:0|0:0,0:0:0:0:
436,112,80010,1,8,0:0:0:0:
444,304,80363,5,2,0:0:0:0:
444,304,80539,2,0,L|444:368,1,56.2500021457673,2|8,0:0|0:0,0:0:0:0:
348,348,80892,2,0,P|292:336|240:348,1,112.500004291535,2|0,0:0|0:0,0:0:0:0:
148,372,81421,1,8,0:0:0:0:
192,188,81774,5,2,0:0:0:0:
256,116,81951,1,0,0:0:0:0:
320,188,82127,2,0,L|328:268,2,56.2500021457673,8|2|0,0:0|0:0|0:0,0:0:0:0:
256,116,82657,1,0,0:0:0:0:
192,188,82833,2,0,L|184:268,1,56.2500021457673,8|2,0:0|0:0,0:0:0:0:
159,346,83186,5,4,0:0:0:0:
259,318,83363,2,0,L|314:335,2,33.7499989700318,0|0|8,0:0|0:0|0:0,0:0:0:0:
186,243,83715,1,0,0:0:0:0:
98,230,83892,2,0,L|112:140,1,67.4999979400635,2|0,0:0|0:0,0:0:0:0:
127,77,84245,2,0,P|160:75|192:66,1,67.4999979400635,8|0,0:0|0:0,0:0:0:0:
270,24,84598,6,0,L|291:108,1,67.4999979400635,2|0,0:0|0:0,0:0:0:0:
325,168,84951,2,0,P|357:161|385:143,1,67.4999979400635,8|0,0:0|0:0,0:0:0:0:
461,97,85304,2,0,L|478:250,1,134.999995880127,2|8,0:0|0:0,0:0:0:0:
357,361,86010,6,0,L|348:293,1,67.4999979400635,2|0,0:0|0:0,0:0:0:0:
339,205,86363,2,0,P|307:217|274:216,1,67.4999979400635,8|0,0:0|0:0,0:0:0:0:
192,186,86715,2,0,L|131:215,2,67.4999979400635,2|0|8,0:0|0:0|0:0,0:0:0:0:
279,33,87421,6,0,L|377:28,1,67.4999979400635,0|0,0:0|0:0,0:0:0:0:
434,26,87774,1,12,0:0:0:0:
494,89,87951,2,0,L|483:172,1,67.4999979400635,2|0,0:0|0:0,0:0:0:0:
451,237,88304,2,0,P|484:244|525:236,2,67.4999979400635,0|8|0,0:0|0:0|0:0,0:0:0:0:
370,202,88833,1,2,0:0:0:0:
285,166,89010,6,0,L|202:192,1,67.4999979400635,0|8,0:0|0:0,0:0:0:0:
135,208,89363,1,0,0:0:0:0:
114,122,89539,2,0,P|119:87|112:56,1,67.4999979400635,2|0,0:0|0:0,0:0:0:0:
32,93,89892,2,0,P|25:125|30:159,1,67.4999979400635,8|0,0:0|0:0,0:0:0:0:
135,208,90245,6,0,L|219:213,1,67.4999979400635,2|0,0:0|0:0,0:0:0:0:
246,213,90510,1,0,0:0:0:0:
246,213,90598,2,0,P|237:261|246:302,1,67.4999979400635,8|0,0:0|0:0,0:0:0:0:
308,333,90951,2,0,P|340:339|373:331,1,67.4999979400635,2|0,0:0|0:0,0:0:0:0:
457,305,91304,2,0,P|451:238|467:172,1,134.999995880127,8|0,0:0|0:0,0:0:0:0:
506,94,91833,5,2,0:0:0:0:
442,31,92010,2,0,P|411:39|369:32,1,67.4999979400635,8|0,0:0|0:0,0:0:0:0:
288,26,92363,2,0,B|291:82|337:112|337:112|290:125,1,134.999995880127,2|8,0:0|0:0,0:0:0:0:
133,150,93068,6,0,P|120:215|140:279,1,134.999995880127,2|8,0:0|0:0,0:0:0:0:
219,317,93598,2,0,L|260:328,3,33.7499989700318,0|0|2|0,0:0|0:0|0:0|0:0,0:0:0:0:
296,324,93951,2,0,P|328:315|361:313,1,67.4999979400635,0|8,0:0|0:0,0:0:0:0:
443,345,94304,1,0,0:0:0:0:
443,345,94392,1,0,0:0:0:0:
443,345,94480,6,0,B|476:372|476:372|480:264,2,150,6|8|0,0:0|0:0|0:0,0:0:0:0:
396,256,95363,1,2,0:0:0:0:
396,256,95539,1,0,0:0:0:0:
348,168,95715,6,0,B|315:141|315:141|311:249,1,150,2|0,0:0|0:0,0:0:0:0:
300,344,96245,2,0,P|260:352|216:336,1,75,2|8,0:0|0:0,0:0:0:0:
311,248,96598,2,0,P|351:240|395:256,1,75,2|0,0:0|0:0,0:0:0:0:
460,308,96951,1,0,0:0:0:0:
472,192,97127,6,0,P|448:124|484:44,1,150,2|0,0:0|0:0,0:0:0:0:
360,44,97657,1,2,0:0:0:0:
360,44,97833,2,0,L|272:44,1,75,8|0,0:0|0:0,0:0:0:0:
256,140,98186,1,0,0:0:0:0:
256,140,98362,2,0,L|344:140,1,75,2|0,0:0|0:0,0:0:0:0:
436,176,98715,6,0,P|464:248|432:312,2,150,8|2|0,0:0|0:0|0:0,0:0:0:0:
331,140,99598,1,8,0:0:0:0:
412,72,99774,1,2,0:0:0:0:
436,176,99951,1,0,0:0:0:0:
331,140,100127,6,0,L|240:140,1,75,4|0,0:0|0:0,0:0:0:0:
159,139,100480,2,0,P|180:209|145:273,1,150,2|8,0:0|0:0,0:0:0:0:
88,200,101010,1,2,0:0:0:0:
88,200,101186,1,0,0:0:0:0:
159,139,101363,6,0,B|271:139|271:139|239:91,1,150,2|0,0:0|0:0,0:0:0:0:
160,140,101892,2,0,L|160:228,1,75,2|8,0:0|0:0,0:0:0:0:
151,330,102245,2,0,P|195:275|160:215,1,150,2|0,0:0|0:0,0:0:0:0:
151,330,102774,6,0,L|311:331,1,150,2|0,0:0|0:0,0:0:0:0:
372,264,103304,1,2,0:0:0:0:
372,264,103480,2,0,L|372:184,1,75,8|0,0:0|0:0,0:0:0:0:
468,216,103833,1,0,0:0:0:0:
468,216,104010,6,0,L|468:376,1,150,2|8,0:0|0:0,0:0:0:0:
372,264,104539,2,0,L|372:184,2,75,0|2|0,0:0|0:0|0:0,0:0:0:0:
328,352,105068,2,0,P|292:364|248:352,1,75,2|0,0:0|0:0,0:0:0:0:
208,264,105421,2,0,P|244:252|288:264,1,75,2|0,0:0|0:0,0:0:0:0:
328,352,105774,5,6,0:0:0:0:
372,263,105951,2,0,P|377:227|370:190,1,75,2|0,0:0|0:0,0:0:0:0:
312,111,106304,2,0,P|277:120|241:112,1,75,2|8,0:0|0:0,0:0:0:0:
156,63,106657,2,0,L|145:141,1,75,0|2,0:0|0:0,0:0:0:0:
129,233,107010,1,0,0:0:0:0:
150,327,107186,6,0,P|186:335|222:328,1,75,8|0,0:0|0:0,0:0:0:0:
299,262,107539,2,0,P|335:254|371:263,1,75,2|8,0:0|0:0,0:0:0:0:
455,311,107892,2,0,P|468:239|424:181,1,150,2|2,0:0|0:0,0:0:0:0:
326,174,108421,2,0,P|302:175|282:182,2,37.5,0|0|8,0:0|0:0|0:0,0:0:0:0:
381,93,108774,5,0,0:0:0:0:
381,93,108951,1,2,0:0:0:0:
424,181,109127,2,0,L|427:273,1,75,8|0,0:0|0:0,0:0:0:0:
436,353,109480,2,0,P|476:342|504:312,2,75,0|2|0,0:0|0:0|0:0,0:0:0:0:
348,307,110010,6,0,P|311:301|276:313,1,75,8|0,0:0|0:0,0:0:0:0:
188,357,110363,2,0,L|188:282,1,75,2|8,0:0|0:0,0:0:0:0:
193,184,110715,2,0,P|219:117|174:61,1,150,2|2,0:0|0:0,0:0:0:0:
290,219,111421,6,0,L|387:212,2,75,8|0|2,0:0|0:0|0:0,0:0:0:0:
210,278,111951,2,0,P|173:277|139:262,1,75,8|0,0:0|0:0,0:0:0:0:
76,187,112304,2,0,P|38:188|4:204,2,75,0|2|0,0:0|0:0|0:0,0:0:0:0:
139,262,112833,6,0,L|139:337,1,75,8|0,0:0|0:0,0:0:0:0:
193,184,113186,2,0,L|193:109,1,75,2|8,0:0|0:0,0:0:0:0:
252,31,113539,2,0,P|289:40|325:32,1,75,2|0,0:0|0:0,0:0:0:0:
420,7,113892,1,2,0:0:0:0:
453,98,114068,2,0,L|480:125,2,37.5,0|0|8,0:0|0:0|0:0,0:0:0:0:
362,135,114421,6,0,L|360:209,1,75,0|2,0:0|0:0,0:0:0:0:
360,307,114774,1,8,0:0:0:0:
281,127,115127,2,0,P|291:92|318:67,2,75,0|2|0,0:0|0:0|0:0,0:0:0:0:
241,217,115657,6,0,P|204:224|167:220,1,75,2|0,0:0|0:0,0:0:0:0:
74,186,116010,2,0,P|68:222|78:261,1,75,2|0,0:0|0:0,0:0:0:0:
167,220,116363,2,0,L|166:135,1,75,2|0,0:0|0:0,0:0:0:0:
186,49,116715,2,0,L|225:39,3,37.5,2|0|0|0,0:0|0:0|0:0|0:0,0:0:0:0:
272,28,117068,5,6,0:0:0:0:
312,116,117244,2,0,P|319:152|310:188,1,75,0|8,0:0|0:0,0:0:0:0:
201,188,117598,2,0,P|192:152|200:116,1,75,2|0,0:0|0:0,0:0:0:0:
312,116,117951,2,0,L|396:112,2,75,0|8|0,0:0|0:0|0:0,0:0:0:0:
200,115,118480,5,2,0:0:0:0:
200,115,118657,2,0,L|125:118,1,75,0|8,0:0|0:0,0:0:0:0:
36,160,119009,2,0,P|28:196|40:236,1,75,2|0,0:0|0:0,0:0:0:0:
125,118,119363,2,0,P|133:82|121:42,1,75,0|8,0:0|0:0,0:0:0:0:
28,28,119715,2,0,L|-8:48,2,37.5,0|0|2,0:0|0:0|0:0,0:0:0:0:
123,45,120068,6,0,P|156:52|216:40,1,75,0|8,0:0|0:0,0:0:0:0:
296,44,120421,2,0,P|333:39|369:46,1,75,2|0,0:0|0:0,0:0:0:0:
432,116,120774,2,0,L|433:210,1,75,0|8,0:0|0:0,0:0:0:0:
428,288,121127,1,0,0:0:0:0:
348,232,121304,6,0,P|312:224|264:236,2,75,2|0|8,0:0|0:0|0:0,0:0:0:0:
428,288,121833,2,0,L|428:376,2,75,2|0|0,0:0|0:0|0:0,0:0:0:0:
432,190,122362,1,8,0:0:0:0:
432,190,122450,1,0,0:0:0:0:
432,190,122538,1,0,0:0:0:0:
372,112,122715,6,0,L|328:112,3,37.5,10|0|0|0,0:0|0:0|0:0|0:0,0:0:0:0:
292,136,123068,2,0,L|252:136,3,37.5,8|0|0|0,0:0|0:0|0:0|0:0,0:0:0:0:
204,132,123421,2,0,P|194:164|208:216,1,75,10|0,0:0|0:0,0:0:0:0:
261,282,123774,6,0,L|305:282,3,37.5,8|0|0|0,0:0|0:0|0:0|0:0,0:0:0:0:
341,258,124127,2,0,L|381:258,3,37.5,10|0|0|0,0:0|0:0|0:0|0:0,0:0:0:0:
429,262,124480,2,0,P|438:229|425:178,1,75,8|0,0:0|0:0,0:0:0:0:
384,104,124833,6,0,L|372:60,3,37.5,10|0|0|0,0:0|0:0|0:0|0:0,0:0:0:0:
324,68,125186,2,0,L|312:24,3,37.5,8|0|0|0,0:0|0:0|0:0|0:0,0:0:0:0:
264,32,125538,2,0,P|221:40|180:32,1,75,10|0,0:0|0:0,0:0:0:0:
140,120,125892,6,0,L|152:164,3,37.5,8|0|0|0,0:0|0:0|0:0|0:0,0:0:0:0:
200,156,126245,2,0,L|212:200,3,37.5,10|0|0|0,0:0|0:0|0:0|0:0,0:0:0:0:
260,192,126597,2,0,P|302:183|344:192,1,75,8|0,0:0|0:0,0:0:0:0:
400,260,126951,6,0,L|388:304,3,37.5,10|0|0|0,0:0|0:0|0:0|0:0,0:0:0:0:
340,296,127303,2,0,L|328:340,3,37.5,8|0|0|0,0:0|0:0|0:0|0:0,0:0:0:0:
280,332,127656,2,0,P|237:323|196:332,1,75,10|0,0:0|0:0,0:0:0:0:
116,368,128009,2,0,L|109:293,1,75,8|0,0:0|0:0,0:0:0:0:
256,192,128362,12,6,129421,3:0:0:0:
256,320,129774,6,0,L|256:232,1,75,6|0,0:0|0:0,0:0:0:0:
252,148,130127,2,0,P|218:166|182:171,1,75,8|0,0:0|0:0,0:0:0:0:
88,204,130480,2,0,B|96:240|131:261|131:261|152:304|112:336,1,150,2|8,0:0|0:0,0:0:0:0:
21,326,131009,2,0,L|-20:335,2,37.5,0|0|2,0:0|0:0|0:0,0:0:0:0:
118,330,131363,6,0,P|154:335|191:327,1,75,2|8,0:0|0:0,0:0:0:0:
278,284,131715,2,0,P|314:276|351:281,2,75,0|2|0,0:0|0:0|0:0,0:0:0:0:
196,228,132245,2,0,L|191:126,1,75,8|0,0:0|0:0,0:0:0:0:
194,55,132598,6,0,L|243:46,3,37.5,2|0|0|0,0:0|0:0|0:0|0:0,0:0:0:0:
277,31,132951,2,0,P|299:66|328:95,1,75,8|0,0:0|0:0,0:0:0:0:
419,102,133304,2,0,L|460:114,3,37.5,2|0|0|0,0:0|0:0|0:0|0:0,0:0:0:0:
499,133,133657,2,0,P|482:166|474:203,1,75,8|0,0:0|0:0,0:0:0:0:
477,300,134009,6,0,L|435:321,3,37.5,2|0|0|0,0:0|0:0|0:0|0:0,0:0:0:0:
396,334,134363,2,0,P|363:318|326:314,1,75,8|0,0:0|0:0,0:0:0:0:
237,352,134715,2,0,L|193:322,3,37.5,2|0|0|0,0:0|0:0|0:0|0:0,0:0:0:0:
164,305,135068,2,0,P|127:313|90:306,1,75,8|0,0:0|0:0,0:0:0:0:
68,211,135421,6,0,L|63:135,1,75,6|0,0:0|0:0,0:0:0:0:
68,38,135774,2,0,P|104:43|140:32,1,75,8|0,0:0|0:0,0:0:0:0:
235,8,136127,2,0,L|244:103,1,75,2|2,0:0|0:0,0:0:0:0:
262,178,136480,2,0,P|298:185|335:178,1,75,8|0,0:0|0:0,0:0:0:0:
428,147,136833,6,0,L|419:221,1,75,2|0,0:0|0:0,0:0:0:0:
385,312,137186,2,0,P|350:322|313:317,1,75,8|0,0:0|0:0,0:0:0:0:
223,277,137539,2,0,L|214:351,1,75,2|0,0:0|0:0,0:0:0:0:
119,332,137891,2,0,L|130:236,1,75,8|0,0:0|0:0,0:0:0:0:
121,159,138245,6,0,L|100:115,3,37.5,2|0|0|0,0:0|0:0|0:0|0:0,0:0:0:0:
96,76,138597,2,0,P|132:82|179:67,1,75,8|0,0:0|0:0,0:0:0:0:
262,45,138950,2,0,L|287:79,3,37.5,2|0|0|0,0:0|0:0|0:0|0:0,0:0:0:0:
322,107,139304,2,0,L|310:149,3,37.5,8|0|0|0,0:0|0:0|0:0|0:0,0:0:0:0:
292,188,139657,1,4,0:0:0:0:
292,188,140185,5,0,0:0:0:0:
292,188,140274,1,0,0:0:0:0:
292,188,140362,2,0,L|292:273,2,75,2|0|2,0:0|0:0|0:0,0:0:0:0:
