osu file format v14

[General]
AudioFilename: AFRONOVA.mp3
AudioLeadIn: 0
PreviewTime: 58178
Countdown: 0
SampleSet: Normal
StackLeniency: 0.7
Mode: 1
LetterboxInBreaks: 0
WidescreenStoryboard: 1

[Editor]
DistanceSpacing: 0.8
BeatDivisor: 4
GridSize: 8
TimelineZoom: 1.9

[Metadata]
Title:AFRONOVA
TitleUnicode:AFRONOVA
Artist:RE-VENGE
ArtistUnicode:RE-VENGE
Creator:xWillx
Version:Oni
Source:Dance Dance Revolution
Tags:ddr stepmania lno
BeatmapID:667829
BeatmapSetID:291655

[Difficulty]
HPDrainRate:5
CircleSize:5
OverallDifficulty:5
ApproachRate:5
SliderMultiplier:1.4
SliderTickRate:1

[Events]
//Background and Video events
0,0,"tribal.jpg",0,0
//Break Periods
//Storyboard Layer 0 (Background)
//Storyboard Layer 1 (Fail)
//Storyboard Layer 2 (Pass)
//Storyboard Layer 3 (Foreground)
//Storyboard Sound Samples

[TimingPoints]
-22,300,4,1,0,90,1,0
56378,300,3,1,0,90,1,0
65378,300,4,1,0,90,1,0
74978,-100,4,1,0,90,0,1
84578,-100,4,1,0,90,0,0

[HitObjects]
88,152,9578,5,0,0:0:0:0:
88,152,9878,1,0,0:0:0:0:
88,152,10028,1,8,0:0:0:0:
88,152,10178,1,0,0:0:0:0:
64,200,10328,1,0,0:0:0:0:
88,152,10478,1,8,0:0:0:0:
88,152,10778,1,8,0:0:0:0:
88,152,10928,1,0,0:0:0:0:
88,152,11078,1,0,0:0:0:0:
80,176,11228,1,8,0:0:0:0:
88,152,11378,1,0,0:0:0:0:
64,200,11528,1,0,0:0:0:0:
88,152,11678,1,8,0:0:0:0:
88,152,11978,1,0,0:0:0:0:
80,176,12128,1,0,0:0:0:0:
88,152,12278,1,0,0:0:0:0:
88,152,12428,1,8,0:0:0:0:
88,152,12578,1,0,0:0:0:0:
80,176,12728,1,0,0:0:0:0:
88,152,12878,1,8,0:0:0:0:
88,152,13178,1,8,0:0:0:0:
88,152,13328,1,0,0:0:0:0:
88,152,13478,1,0,0:0:0:0:
80,176,13628,1,8,0:0:0:0:
88,152,13778,1,0,0:0:0:0:
80,176,13928,1,0,0:0:0:0:
88,152,14078,1,8,0:0:0:0:
192,192,14378,1,0,0:0:0:0:
136,176,14528,1,0,0:0:0:0:
80,176,14678,1,0,0:0:0:0:
32,160,14828,1,8,0:0:0:0:
184,208,14978,1,0,0:0:0:0:
0,176,15128,1,0,0:0:0:0:
88,144,15278,1,8,0:0:0:0:
0,176,15578,1,8,0:0:0:0:
80,176,15728,1,0,0:0:0:0:
0,176,15878,1,0,0:0:0:0:
0,176,16028,1,8,0:0:0:0:
0,176,16178,1,0,0:0:0:0:
80,176,16328,1,0,0:0:0:0:
0,176,16478,1,8,0:0:0:0:
0,176,16778,1,0,0:0:0:0:
80,176,16928,1,0,0:0:0:0:
0,176,17078,1,0,0:0:0:0:
0,176,17228,1,8,0:0:0:0:
0,176,17378,1,0,0:0:0:0:
80,176,17528,1,0,0:0:0:0:
0,176,17678,1,8,0:0:0:0:
0,176,17978,1,8,0:0:0:0:
0,176,18128,1,0,0:0:0:0:
0,176,18278,1,0,0:0:0:0:
0,176,18428,1,0,0:0:0:0:
0,176,18578,1,8,0:0:0:0:
0,176,18728,1,0,0:0:0:0:
0,176,18878,1,8,0:0:0:0:
40,184,19178,1,0,0:0:0:0:
96,184,19328,1,0,0:0:0:0:
0,176,19478,1,12,0:0:0:0:
40,184,19628,1,0,0:0:0:0:
96,184,19778,1,0,0:0:0:0:
64,184,19928,1,0,0:0:0:0:
0,176,20078,1,12,0:0:0:0:
40,160,20228,1,0,0:0:0:0:
88,136,20378,1,0,0:0:0:0:
88,136,20528,1,0,0:0:0:0:
0,176,20678,1,12,0:0:0:0:
88,136,20828,1,0,0:0:0:0:
88,136,20978,1,0,0:0:0:0:
88,136,21128,1,0,0:0:0:0:
0,176,21278,1,12,0:0:0:0:
88,136,21428,1,0,0:0:0:0:
88,136,21578,1,12,0:0:0:0:
88,136,21728,1,0,0:0:0:0:
0,176,21878,1,12,0:0:0:0:
88,136,22028,1,0,0:0:0:0:
88,136,22178,1,0,0:0:0:0:
88,136,22328,1,0,0:0:0:0:
0,176,22478,1,12,0:0:0:0:
88,136,22628,1,0,0:0:0:0:
88,136,22778,1,0,0:0:0:0:
88,136,22928,1,0,0:0:0:0:
0,176,23078,1,12,0:0:0:0:
88,136,23228,1,0,0:0:0:0:
88,136,23378,1,0,0:0:0:0:
88,136,23528,1,0,0:0:0:0:
0,176,23678,1,12,0:0:0:0:
0,176,23828,1,0,0:0:0:0:
0,176,23978,1,0,0:0:0:0:
88,136,24128,1,0,0:0:0:0:
0,176,24278,1,12,0:0:0:0:
88,136,24428,1,0,0:0:0:0:
88,136,24578,1,0,0:0:0:0:
88,136,24728,1,0,0:0:0:0:
0,176,24878,1,12,0:0:0:0:
88,136,25028,1,0,0:0:0:0:
88,136,25178,1,0,0:0:0:0:
88,136,25328,1,0,0:0:0:0:
0,176,25478,1,12,0:0:0:0:
88,136,25628,1,0,0:0:0:0:
88,136,25778,1,0,0:0:0:0:
88,136,25928,1,0,0:0:0:0:
0,176,26078,1,12,0:0:0:0:
0,176,26228,1,0,0:0:0:0:
0,176,26378,1,12,0:0:0:0:
88,136,26528,1,0,0:0:0:0:
0,176,26678,1,12,0:0:0:0:
88,136,26828,1,0,0:0:0:0:
88,136,26978,1,0,0:0:0:0:
88,136,27128,1,0,0:0:0:0:
0,176,27278,1,12,0:0:0:0:
88,136,27428,1,0,0:0:0:0:
88,136,27578,1,0,0:0:0:0:
88,136,27728,1,0,0:0:0:0:
0,176,27878,1,12,0:0:0:0:
0,176,28028,1,0,0:0:0:0:
0,176,28178,1,0,0:0:0:0:
0,176,28328,1,0,0:0:0:0:
0,176,28478,1,12,0:0:0:0:
56,128,28778,1,0,0:0:0:0:
56,128,28928,1,0,0:0:0:0:
56,128,29228,1,0,0:0:0:0:
56,128,29378,1,8,0:0:0:0:
56,128,29528,1,0,0:0:0:0:
56,128,29678,1,8,0:0:0:0:
56,128,29828,1,0,0:0:0:0:
80,136,29903,1,0,0:0:0:0:
56,128,29978,1,8,0:0:0:0:
56,128,30128,1,0,0:0:0:0:
56,128,30278,1,8,0:0:0:0:
56,128,30428,1,0,0:0:0:0:
56,128,30578,1,12,0:0:0:0:
56,128,30878,1,8,0:0:0:0:
56,128,31178,1,0,0:0:0:0:
56,128,31328,1,0,0:0:0:0:
56,128,31628,1,0,0:0:0:0:
56,128,31778,1,8,0:0:0:0:
56,128,31928,1,0,0:0:0:0:
56,128,32078,1,8,0:0:0:0:
56,128,32228,1,0,0:0:0:0:
56,128,32378,1,8,0:0:0:0:
80,128,32453,1,8,0:0:0:0:
56,128,32528,1,0,0:0:0:0:
56,128,32678,1,8,0:0:0:0:
56,128,32828,1,0,0:0:0:0:
56,128,32978,1,12,0:0:0:0:
40,176,33278,1,8,0:0:0:0:
56,128,33578,1,0,0:0:0:0:
56,128,33728,1,0,0:0:0:0:
56,128,34028,1,0,0:0:0:0:
56,128,34178,1,8,0:0:0:0:
56,128,34328,1,0,0:0:0:0:
56,128,34478,1,8,0:0:0:0:
72,176,34553,1,8,0:0:0:0:
56,128,34628,1,0,0:0:0:0:
56,128,34778,1,8,0:0:0:0:
56,128,34928,1,0,0:0:0:0:
72,176,35003,1,0,0:0:0:0:
56,128,35078,1,8,0:0:0:0:
56,128,35228,1,0,0:0:0:0:
56,128,35378,1,12,0:0:0:0:
72,176,35678,1,8,0:0:0:0:
56,128,35978,1,0,0:0:0:0:
56,128,36128,1,0,0:0:0:0:
56,128,36428,1,0,0:0:0:0:
56,128,36578,1,8,0:0:0:0:
104,120,36728,1,0,0:0:0:0:
104,120,36803,1,0,0:0:0:0:
56,128,36878,1,8,0:0:0:0:
80,128,36953,1,8,0:0:0:0:
56,128,37028,1,0,0:0:0:0:
56,128,37178,1,8,0:0:0:0:
56,128,37328,1,0,0:0:0:0:
56,128,37478,1,8,0:0:0:0:
56,128,37628,1,0,0:0:0:0:
56,128,37778,1,12,0:0:0:0:
56,240,38078,1,8,0:0:0:0:
64,128,38378,1,8,0:0:0:0:
111,157,38528,1,0,0:0:0:0:
120,224,38678,1,0,0:0:0:0:
174,236,38828,1,0,0:0:0:0:
64,128,38978,1,8,0:0:0:0:
88,176,39128,1,0,0:0:0:0:
64,128,39278,1,8,0:0:0:0:
48,184,39428,1,0,0:0:0:0:
64,128,39578,1,8,0:0:0:0:
120,224,39878,1,0,0:0:0:0:
174,237,40028,1,0,0:0:0:0:
88,176,40328,1,0,0:0:0:0:
120,224,40478,1,8,0:0:0:0:
120,168,40628,1,0,0:0:0:0:
64,128,40778,1,8,0:0:0:0:
120,168,40853,1,8,0:0:0:0:
110,156,40928,1,0,0:0:0:0:
120,224,41078,1,8,0:0:0:0:
88,176,41228,1,0,0:0:0:0:
64,128,41378,1,8,0:0:0:0:
80,152,41678,1,0,0:0:0:0:
80,152,41828,1,0,0:0:0:0:
129,179,41978,1,8,0:0:0:0:
80,152,42128,1,0,0:0:0:0:
80,152,42278,1,0,0:0:0:0:
80,152,42428,1,0,0:0:0:0:
129,179,42578,1,8,0:0:0:0:
80,152,42728,1,0,0:0:0:0:
80,152,42878,1,8,0:0:0:0:
80,152,43178,1,8,0:0:0:0:
80,152,43328,1,0,0:0:0:0:
80,152,43478,1,0,0:0:0:0:
129,179,43628,1,0,0:0:0:0:
153,192,43703,1,0,0:0:0:0:
80,152,43778,1,8,0:0:0:0:
80,152,43928,1,0,0:0:0:0:
104,96,44078,1,8,0:0:0:0:
128,128,44228,1,0,0:0:0:0:
104,136,44378,1,8,0:0:0:0:
104,136,44678,1,0,0:0:0:0:
64,128,44828,1,0,0:0:0:0:
27,218,44978,1,8,0:0:0:0:
65,177,45128,1,0,0:0:0:0:
28,219,45278,1,8,0:0:0:0:
65,177,45428,1,0,0:0:0:0:
28,219,45578,1,8,0:0:0:0:
46,198,45878,1,8,0:0:0:0:
46,198,46028,1,0,0:0:0:0:
46,198,46178,1,8,0:0:0:0:
72,184,46253,1,8,0:0:0:0:
46,198,46328,1,0,0:0:0:0:
46,198,46478,1,8,0:0:0:0:
46,198,46628,1,0,0:0:0:0:
46,198,46778,1,8,0:0:0:0:
46,198,47078,1,8,0:0:0:0:
46,198,47228,1,0,0:0:0:0:
46,198,47378,1,8,0:0:0:0:
46,198,47453,1,8,0:0:0:0:
46,198,47528,1,0,0:0:0:0:
46,198,47678,1,0,0:0:0:0:
46,198,47828,1,8,0:0:0:0:
46,198,47978,1,0,0:0:0:0:
46,198,48278,1,0,0:0:0:0:
46,198,48428,1,8,0:0:0:0:
46,198,48578,1,0,0:0:0:0:
90,164,48728,1,8,0:0:0:0:
46,198,48878,1,0,0:0:0:0:
46,198,49178,1,0,0:0:0:0:
90,164,49328,1,8,0:0:0:0:
46,198,49478,1,0,0:0:0:0:
46,198,49628,1,8,0:0:0:0:
90,164,49778,1,0,0:0:0:0:
46,198,49928,1,8,0:0:0:0:
46,198,50078,1,0,0:0:0:0:
46,198,50378,1,8,0:0:0:0:
90,164,50528,1,8,0:0:0:0:
46,198,50678,1,0,0:0:0:0:
46,198,50978,1,0,0:0:0:0:
90,164,51128,1,8,0:0:0:0:
46,198,51278,1,0,0:0:0:0:
90,164,51428,1,8,0:0:0:0:
46,198,51578,1,0,0:0:0:0:
90,164,51728,1,8,0:0:0:0:
135,131,51878,1,0,0:0:0:0:
135,131,52028,1,8,0:0:0:0:
46,198,52178,1,0,0:0:0:0:
135,131,52328,1,8,0:0:0:0:
46,198,52478,1,0,0:0:0:0:
46,198,52778,1,0,0:0:0:0:
46,198,53078,1,0,0:0:0:0:
46,198,53228,1,8,0:0:0:0:
46,198,53378,1,0,0:0:0:0:
39,142,53528,1,8,0:0:0:0:
46,198,53678,1,0,0:0:0:0:
46,198,53978,1,0,0:0:0:0:
39,142,54128,1,8,0:0:0:0:
46,198,54278,1,0,0:0:0:0:
46,198,54428,1,8,0:0:0:0:
39,142,54578,1,0,0:0:0:0:
46,198,54728,1,8,0:0:0:0:
46,198,54878,1,0,0:0:0:0:
152,160,55178,1,0,0:0:0:0:
87,160,55478,1,0,0:0:0:0:
130,124,55628,1,8,0:0:0:0:
46,198,56078,1,0,0:0:0:0:
46,198,56278,1,8,0:0:0:0:
130,124,56378,1,8,0:0:0:0:
64,176,56478,1,8,0:0:0:0:
96,160,56578,1,8,0:0:0:0:
46,198,56678,1,0,0:0:0:0:
113,165,56878,1,0,0:0:0:0:
180,133,57078,1,0,0:0:0:0:
247,101,57278,1,0,0:0:0:0:
315,72,57478,1,0,0:0:0:0:
169,104,57878,1,8,0:0:0:0:
69,156,58178,1,4,0:0:0:0:
69,156,58478,1,0,0:0:0:0:
69,156,58628,1,0,0:0:0:0:
69,156,58778,1,8,0:0:0:0:
69,156,58853,1,8,0:0:0:0:
69,156,58928,1,0,0:0:0:0:
69,156,59078,1,8,0:0:0:0:
69,156,59228,1,8,0:0:0:0:
69,156,59378,1,0,0:0:0:0:
7,140,59678,1,8,0:0:0:0:
7,140,59828,1,0,0:0:0:0:
7,140,59978,1,0,0:0:0:0:
7,140,60278,1,0,0:0:0:0:
7,140,60428,1,0,0:0:0:0:
7,140,60578,1,8,0:0:0:0:
7,140,60653,1,8,0:0:0:0:
7,140,60728,1,0,0:0:0:0:
7,140,60878,1,8,0:0:0:0:
7,140,61028,1,8,0:0:0:0:
7,140,61178,1,0,0:0:0:0:
7,140,61478,1,8,0:0:0:0:
60,156,61628,1,0,0:0:0:0:
60,156,61778,1,0,0:0:0:0:
32,157,62078,1,0,0:0:0:0:
32,157,62228,1,0,0:0:0:0:
32,157,62378,1,8,0:0:0:0:
0,179,62453,1,8,0:0:0:0:
0,179,62528,1,0,0:0:0:0:
32,157,62678,1,8,0:0:0:0:
32,157,62828,1,8,0:0:0:0:
32,157,62978,1,0,0:0:0:0:
32,157,63278,1,8,0:0:0:0:
32,157,63428,1,0,0:0:0:0:
32,157,63578,1,0,0:0:0:0:
32,157,63878,1,0,0:0:0:0:
0,179,64028,1,8,0:0:0:0:
0,179,64178,1,0,0:0:0:0:
0,179,64478,1,8,0:0:0:0:
0,179,64778,1,0,0:0:0:0:
56,176,64928,1,8,0:0:0:0:
0,179,65078,1,0,0:0:0:0:
88,152,65378,5,0,0:0:0:0:
120,200,65528,1,8,0:0:0:0:
88,152,65678,1,0,0:0:0:0:
88,152,65828,1,8,0:0:0:0:
136,224,65903,1,8,0:0:0:0:
88,152,65978,1,0,0:0:0:0:
64,200,66128,1,0,0:0:0:0:
88,152,66278,1,8,0:0:0:0:
88,152,66578,1,0,0:0:0:0:
88,152,66728,1,0,0:0:0:0:
88,152,66878,1,8,0:0:0:0:
80,176,67028,1,0,0:0:0:0:
88,152,67178,1,8,0:0:0:0:
64,200,67328,1,0,0:0:0:0:
88,152,67478,1,8,0:0:0:0:
88,152,67778,1,0,0:0:0:0:
80,176,67928,1,0,0:0:0:0:
88,152,68078,1,8,0:0:0:0:
88,152,68228,1,0,0:0:0:0:
112,152,68303,1,0,0:0:0:0:
88,152,68378,1,8,0:0:0:0:
80,176,68528,1,0,0:0:0:0:
88,152,68678,1,8,0:0:0:0:
88,152,68978,1,0,0:0:0:0:
88,152,69128,1,0,0:0:0:0:
88,152,69278,1,8,0:0:0:0:
80,176,69428,1,0,0:0:0:0:
136,168,69578,1,8,0:0:0:0:
80,176,69728,1,8,0:0:0:0:
88,152,69878,1,0,0:0:0:0:
192,192,70178,1,12,0:0:0:0:
136,176,70328,1,0,0:0:0:0:
80,176,70478,1,0,0:0:0:0:
32,160,70628,1,8,0:0:0:0:
112,152,70703,1,8,0:0:0:0:
184,208,70778,1,0,0:0:0:0:
0,176,70928,1,0,0:0:0:0:
88,144,71078,1,8,0:0:0:0:
0,176,71378,1,0,0:0:0:0:
80,176,71528,1,0,0:0:0:0:
0,176,71678,1,8,0:0:0:0:
0,176,71828,1,0,0:0:0:0:
0,176,71978,1,8,0:0:0:0:
80,176,72128,1,0,0:0:0:0:
0,176,72278,1,8,0:0:0:0:
0,176,72578,1,8,0:0:0:0:
80,152,72728,1,8,0:0:0:0:
0,176,72878,1,0,0:0:0:0:
0,176,73028,1,8,0:0:0:0:
0,176,73178,1,0,0:0:0:0:
80,176,73328,1,0,0:0:0:0:
0,176,73478,1,8,0:0:0:0:
88,152,73778,1,0,0:0:0:0:
88,152,73928,1,0,0:0:0:0:
88,152,74078,1,8,0:0:0:0:
80,176,74228,1,0,0:0:0:0:
136,168,74378,1,8,0:0:0:0:
80,176,74528,1,8,0:0:0:0:
88,152,74678,1,0,0:0:0:0:
64,128,74978,1,8,0:0:0:0:
111,157,75128,1,0,0:0:0:0:
120,224,75278,1,0,0:0:0:0:
174,236,75428,1,0,0:0:0:0:
64,128,75578,1,8,0:0:0:0:
88,176,75728,1,0,0:0:0:0:
64,128,75878,1,8,0:0:0:0:
48,184,76028,1,0,0:0:0:0:
64,128,76178,1,8,0:0:0:0:
120,224,76478,1,0,0:0:0:0:
174,237,76628,1,0,0:0:0:0:
88,176,76928,1,0,0:0:0:0:
120,224,77078,1,8,0:0:0:0:
120,168,77228,1,0,0:0:0:0:
64,128,77378,1,8,0:0:0:0:
120,168,77453,1,8,0:0:0:0:
110,156,77528,1,0,0:0:0:0:
120,224,77678,1,8,0:0:0:0:
88,176,77828,1,0,0:0:0:0:
64,128,77978,1,8,0:0:0:0:
80,152,78278,1,0,0:0:0:0:
80,152,78428,1,0,0:0:0:0:
129,179,78578,1,8,0:0:0:0:
80,152,78728,1,0,0:0:0:0:
80,152,78878,1,0,0:0:0:0:
80,152,79028,1,0,0:0:0:0:
129,179,79178,1,8,0:0:0:0:
80,152,79328,1,0,0:0:0:0:
80,152,79478,1,8,0:0:0:0:
80,152,79778,1,8,0:0:0:0:
80,152,79928,1,0,0:0:0:0:
80,152,80078,1,0,0:0:0:0:
129,179,80228,1,0,0:0:0:0:
153,192,80303,1,0,0:0:0:0:
80,152,80378,1,8,0:0:0:0:
80,152,80528,1,0,0:0:0:0:
104,96,80678,1,8,0:0:0:0:
128,128,80828,1,0,0:0:0:0:
104,136,80978,1,8,0:0:0:0:
104,136,81278,1,0,0:0:0:0:
64,128,81428,1,0,0:0:0:0:
27,218,81578,1,8,0:0:0:0:
65,177,81728,1,0,0:0:0:0:
28,219,81878,1,8,0:0:0:0:
65,177,82028,1,0,0:0:0:0:
28,219,82178,1,8,0:0:0:0:
46,198,82478,1,8,0:0:0:0:
46,198,82628,1,0,0:0:0:0:
46,198,82778,1,8,0:0:0:0:
46,198,82928,1,0,0:0:0:0:
72,184,83003,1,0,0:0:0:0:
46,198,83078,1,8,0:0:0:0:
46,198,83228,1,0,0:0:0:0:
46,198,83378,1,8,0:0:0:0:
46,198,83678,1,8,0:0:0:0:
46,198,83828,1,0,0:0:0:0:
46,198,83978,1,8,0:0:0:0:
46,198,84053,1,8,0:0:0:0:
46,198,84128,1,0,0:0:0:0:
46,198,84278,1,0,0:0:0:0:
46,198,84428,1,8,0:0:0:0:
46,198,84578,1,0,0:0:0:0:
66,251,85178,5,4,0:0:0:0:
80,177,85378,1,4,0:0:0:0:
97,104,85578,1,4,0:0:0:0:
80,176,85778,1,4,0:0:0:0:
98,103,85978,1,4,0:0:0:0:
80,175,86178,1,4,0:0:0:0:
99,102,86378,1,4,0:0:0:0:
