osu file format v14

[General]
AudioFilename: RDGLDGRN - Lootin in London (TheFatRat Remix).mp3
AudioLeadIn: 0
PreviewTime: 73361
Countdown: 0
SampleSet: None
StackLeniency: 0.7
Mode: 0
LetterboxInBreaks: 0
WidescreenStoryboard: 1

[Editor]
Bookmarks: 136024,146458
DistanceSpacing: 1.2
BeatDivisor: 3
GridSize: 16
TimelineZoom: 3.600006

[Metadata]
Title:Lootin in London (TheFatRat Remix)
TitleUnicode:Lootin in London (TheFatRat Remix)
Artist:RDGLDGRN
ArtistUnicode:RDGLDGRN
Creator:Bonsai
Version:Hooligan
Source:
Tags:
BeatmapID:698285
BeatmapSetID:312810

[Difficulty]
HPDrainRate:6
CircleSize:4
OverallDifficulty:8
ApproachRate:9
SliderMultiplier:1.4
SliderTickRate:1

[Events]
//Background and Video events
0,0,"look at this hooligan.jpg",0,0
//Break Periods
2,21435,30418
2,52739,57157
//Storyboard Layer 0 (Background)
//Storyboard Layer 1 (Fail)
//Storyboard Layer 2 (Pass)
//Storyboard Layer 3 (Foreground)
//Storyboard Sound Samples

[TimingPoints]
365.95652173913,326.086956521739,4,3,2,80,1,0
2648,-83.3333333333333,4,3,2,80,0,0
2974,-100,4,3,2,80,0,0
4605,-76.9230769230769,4,3,2,80,0,0
5257,-100,4,3,3,80,0,0
5909,-100,4,3,2,80,0,0
7865,-83.3333333333333,4,3,2,80,0,0
8192,-100,4,3,2,80,0,0
10148,-76.9230769230769,4,3,3,80,0,0
10800,-100,4,3,2,80,0,0
13083,-83.3333333333333,4,3,2,80,0,0
13409,-100,4,3,2,80,0,0
15365,-90.9090909090909,4,3,3,80,0,0
15365,-90.9090909090909,4,3,2,80,0,0
15692,-76.9230769230769,4,3,3,80,0,0
16018,-100,4,3,2,80,0,0
16344,-83.3333333333333,4,3,2,80,0,0
18300,-76.9230769230769,4,3,2,80,0,0
20583,-71.4285714285714,4,3,3,80,0,0
20909,-66.6666666666667,4,3,3,80,0,0
21235,-111.111111111111,4,3,0,80,0,0
31670,-111.111111111111,4,1,0,60,0,0
42105,-111.111111111111,4,3,0,80,0,0
57757,-90.9090909090908,4,3,0,30,0,0
59061,-90.9090909090908,4,3,0,35,0,0
60365,-90.9090909090908,4,3,0,45,0,0
61670,-90.9090909090908,4,3,0,60,0,0
62322,-90.9090909090908,4,3,0,55,0,0
62974,-90.9090909090908,4,3,0,80,0,0
62974,-83.3333333333333,4,3,0,80,0,0
67865,-76.9230769230769,4,3,0,80,0,0
70800,-71.4285714285714,4,3,0,80,0,0
72105,-62.5,4,3,4,100,0,0
72757,-62.5,4,3,5,100,0,0
73409,-66.6666666666667,4,3,0,80,0,1
75692,-62.5,4,3,0,80,0,1
76018,-71.4285714285714,4,3,0,80,0,1
77974,-125,4,3,0,80,0,1
78300,-62.5,4,3,0,80,0,1
78626,-66.6666666666667,4,3,0,80,0,1
79278,-71.4285714285714,4,3,0,80,0,1
79822,-66.6666666666667,4,3,0,80,0,1
80909,-62.5,4,3,0,80,0,1
81235,-71.4285714285714,4,3,0,80,0,1
81887,-66.6666666666667,4,3,0,80,0,1
83518,-62.5,4,3,0,80,0,1
83844,-66.6666666666667,4,3,0,80,0,1
84496,-71.4285714285714,4,3,0,80,0,1
86452,-66.6666666666667,4,3,0,80,0,1
87105,-71.4285714285714,4,3,0,80,0,1
88409,-125,4,3,0,80,0,1
88735,-62.5,4,3,0,80,0,1
89713,-71.4285714285714,4,3,0,80,0,1
90257,-62.5,4,3,0,80,0,1
91018,-71.4285714285714,4,3,0,80,0,1
91344,-62.5,4,3,0,80,0,1
91996,-71.4285714285714,4,3,0,80,0,1
92974,-62.5,4,3,2,80,0,1
93409,-62.5,4,3,4,100,0,1
93952,-55.5555555555556,4,3,5,100,0,1
94278,-66.6666666666667,4,3,0,80,0,0
95909,-71.4285714285714,4,3,0,80,0,0
96561,-62.5,4,3,0,80,0,0
97213,-71.4285714285714,4,3,0,80,0,0
97539,-58.8235294117647,4,3,0,80,0,0
98518,-71.4285714285714,4,3,0,80,0,0
99496,-66.6666666666667,4,3,0,80,0,0
99822,-71.4285714285714,4,3,0,80,0,0
100800,-62.5,4,3,0,80,0,0
101778,-62.5,4,3,0,80,0,0
102105,-71.4285714285714,4,3,0,80,0,0
103409,-66.6666666666667,4,3,0,80,0,0
103735,-71.4285714285714,4,3,0,80,0,0
104387,-62.5,4,3,0,80,0,0
105039,-66.6666666666667,4,3,0,80,0,0
115148,-66.6666666666667,4,3,0,80,0,1
125583,-66.6666666666667,4,3,0,80,0,0
167322,-66.6666666666667,4,3,0,80,0,1
188192,652.173913043478,4,3,0,80,1,0
209061,326.086956521739,4,3,0,80,1,1
209061,-66.6666666666667,4,3,0,80,0,1
219496,-66.6666666666667,4,3,0,80,0,0

[Colours]
Combo1 : 164,123,0
Combo2 : 157,0,0
Combo3 : 0,73,164

[HitObjects]
96,352,365,5,0,0:0:0:0:
9,120,692,2,0,B|36:122|36:122|29:164|71:198|149:197,1,140,8|0,0:0|0:0,0:0:0:0:
441,214,1344,1,2,0:0:0:0:
252,38,1561,1,0,0:0:0:0:
153,84,1670,2,0,P|199:134|267:143,1,140,0|8,0:0|0:0,0:0:0:0:
509,21,2322,1,0,0:0:0:0:
331,178,2539,1,0,0:0:0:0:
369,281,2648,2,0,P|414:249|434:197,1,111.999996582031,4|0,0:0|0:0,0:0:0:0:
377,93,2974,5,0,0:0:0:0:
208,298,3300,2,0,P|170:325|124:334,1,93.3333333333333,8|0,0:0|0:0,0:0:0:0:
21,303,3626,1,0,0:0:0:0:
255,47,3952,1,2,0:0:0:0:
373,337,4170,2,0,P|379:359|382:382,1,46.6666666666667
126,240,4605,2,0,B|148:212|148:212|136:190|136:190|166:146|237:125,1,181.999991668702,8|0,0:0|0:0,0:0:0:0:
458,340,5257,1,4,0:0:0:0:
69,63,5583,1,0,0:0:0:0:
179,292,5909,6,0,B|200:274|200:274|273:290|317:233,1,140,8|0,0:0|0:0,0:0:0:0:
0,200,6561,1,2,0:0:0:0:
134,356,6778,2,0,P|161:366|191:366,1,46.6666666666667
480,205,7213,1,8,0:0:0:0:
241,24,7539,2,0,P|244:71|270:112,1,93.3333333333333
407,85,7865,2,0,L|331:226,1,111.999996582031,4|0,0:0|0:0,0:0:0:0:
234,230,8192,1,0,0:0:0:0:
54,96,8518,6,0,B|32:102|32:102|64:133|35:188|78:190,1,93.3333333333333,8|0,0:0|0:0,0:0:0:0:
179,156,8844,2,0,P|180:199|115:277,1,140,0|2,0:0|0:0,0:0:0:0:
319,267,9387,2,0,P|326:299|339:323,1,46.6666666666667
510,127,9822,1,8,0:0:0:0:
193,44,10148,2,0,B|136:68|136:68|126:135,1,121.333327779134,2|0,0:0|0:0,0:0:0:0:
322,137,10474,2,0,B|376:161|376:161|384:222,1,121.333327779134,2|0,0:0|0:0,0:0:0:0:
248,310,10800,6,0,P|193:325|124:310,1,93.3333333333333
47,188,11126,1,8,0:0:0:0:
311,165,11452,2,0,P|273:207|207:232,1,93.3333333333333
112,272,11778,1,2,0:0:0:0:
251,50,11996,1,0,0:0:0:0:
114,53,12105,2,0,P|134:106|186:154,1,93.3333333333333
299,229,12431,1,8,0:0:0:0:
56,196,12757,2,0,P|99:212|134:242,1,93.3333333333333
163,359,13083,2,0,L|51:359,1,111.999996582031,4|0,0:0|0:0,0:0:0:0:
184,168,13409,6,0,L|306:168,1,93.3333333333333
278,32,13735,1,8,0:0:0:0:
277,334,14061,1,0,0:0:0:0:
374,122,14387,2,0,P|400:84|452:68,1,93.3333333333333,2|0,0:0|0:0,0:0:0:0:
370,238,14713,2,0,L|270:238,1,93.3333333333333
87,235,15039,1,8,0:0:0:0:
152,48,15365,6,0,P|163:97|195:137,1,102.666669799805
416,157,15692,2,0,B|413:125|439:107|439:107|365:42,1,121.333327779134,4|0,0:0|0:0,0:0:0:0:
289,222,16018,6,0,P|241:269|180:289,1,93.3333333333333
131,189,16344,1,8,0:0:0:0:
242,371,16670,2,0,L|359:371,1,111.999996582031
486,297,16996,1,2,0:0:0:0:
415,116,17213,5,0,0:0:0:0:
317,175,17322,2,0,P|264:194|208:196,1,111.999996582031
45,171,17648,1,8,0:0:0:0:
211,0,17974,2,0,L|210:115,1,111.999996582031
104,241,18300,2,4,L|103:364,1,121.333327779134,4|0,0:0|0:0,0:0:0:0:
270,319,18626,6,0,P|311:269|311:202,1,121.333327779134
140,94,18952,1,8,0:0:0:0:
314,214,19278,2,0,P|373:214|422:180,1,121.333327779134
477,38,19605,2,0,L|351:38,1,121.333327779134,2|0,0:0|0:0,0:0:0:0:
139,193,19931,5,0,0:0:0:0:
452,330,20257,1,8,0:0:0:0:
245,138,20583,2,0,B|176:66|176:66|152:86,1,130.666662679037,2|0,0:0|0:0,0:0:0:0:
231,270,20909,2,0,B|312:201|312:201|339:231,1,140.000005340576,2|0,0:0|0:0,0:0:0:0:
243,384,21235,5,0,0:0:0:0:
311,57,31018,5,8,0:0:0:0:
193,164,31344,1,0,0:0:0:0:
260,310,31670,1,4,0:0:0:0:
396,192,32322,1,0,0:0:0:0:
236,107,32974,2,0,P|175:117|128:135,1,62.9999980773926
54,179,33300,1,0,0:0:0:0:
249,216,33626,2,0,P|308:234|359:271,1,125.999996154785,8|0,0:0|0:0,0:0:0:0:
132,164,34605,6,0,P|124:102|153:46,1,125.999996154785,0|8,0:0|0:0,0:0:0:0:
246,125,35094,2,0,P|282:199|382:254,1,188.999994232178
466,246,35746,1,0,0:0:0:0:
512,170,35909,1,0,0:0:0:0:
200,200,36235,2,0,P|174:269|179:321,1,125.999996154785,8|0,0:0|0:0,0:0:0:0:
434,364,37213,5,0,0:0:0:0:
482,220,37539,1,8,0:0:0:0:
337,264,37865,1,0,0:0:0:0:
355,113,38192,2,0,L|371:23,1,62.9999980773926
366,50,38518,1,0,0:0:0:0:
152,172,38844,1,8,0:0:0:0:
33,360,39822,5,0,0:0:0:0:
139,253,40148,1,8,0:0:0:0:
272,324,40474,1,0,0:0:0:0:
224,180,40800,2,0,L|195:100,1,62.9999980773926
202,120,41126,1,0,0:0:0:0:
415,52,41452,1,8,0:0:0:0:
322,268,41778,1,0,0:0:0:0:
65,133,42105,6,4,B|57:198|119:238|119:238|97:308|145:354,2,251.999992309571,4|8|4,0:0|0:0|0:0,0:0:0:0:
225,119,43572,1,0,0:0:0:0:
238,274,43735,1,0,0:0:0:0:
493,357,44061,1,8,0:0:0:0:
397,158,44387,2,0,B|347:151|328:200|278:191,1,125.999996154785,0|4,0:0|0:0,0:0:0:0:
139,69,45039,6,0,P|93:126|86:199,1,125.999996154785,0|8,0:0|0:0,0:0:0:0:
217,146,45528,2,0,B|187:161|176:195|256:244|242:321,1,188.999994232178,0|4,0:0|0:0,0:0:0:0:
132,285,46181,1,0,0:0:0:0:
303,209,46344,1,0,0:0:0:0:
236,7,46670,1,8,0:0:0:0:
234,294,46996,1,0,0:0:0:0:
418,185,47322,5,4,0:0:0:0:
260,113,47648,1,0,0:0:0:0:
0,241,47974,1,8,0:0:0:0:
144,356,48300,1,0,0:0:0:0:
155,183,48626,2,0,P|156:151|168:122,2,62.9999980773926,4|0|0,0:0|0:0|0:0,0:0:0:0:
397,345,49278,2,0,B|455:374|506:320|493:252|433:238|461:139,1,251.999992309571,8|4,0:0|0:0,0:0:0:0:
285,147,50257,5,0,0:0:0:0:
237,38,50583,1,8,0:0:0:0:
198,246,50909,1,0,0:0:0:0:
121,57,51235,2,0,P|82:39|47:42,1,62.9999980773926
61,144,51561,2,0,P|61:194|36:243,1,83.9999974365235
0,309,51887,5,8,0:0:0:0:
257,89,52213,1,8,0:0:0:0:
256,318,52539,1,4,0:0:0:0:
206,216,57757,5,0,0:0:0:0:
167,83,58409,1,0,0:0:0:0:
302,172,59061,1,0,0:0:0:0:
112,176,59713,1,0,0:0:0:0:
246,84,60365,1,0,0:0:0:0:
218,286,61017,1,0,0:0:0:0:
130,102,61670,1,0,0:0:0:0:
306,223,62322,1,0,0:0:0:0:
60,238,62974,5,0,0:0:0:0:
253,289,63300,2,0,B|268:273|268:273|269:231|256:176,1,102.666669799805,8|0,0:0|0:0,0:0:0:0:
156,164,63626,1,0,0:0:0:0:
325,46,63952,1,8,0:0:0:0:
0,201,64278,5,0,0:0:0:0:
266,155,64605,2,0,B|265:163|265:163|211:194|218:270,1,102.666669799805,8|0,0:0|0:0,0:0:0:0:
300,328,64931,2,0,L|342:221,1,102.666669799805
305,82,65257,1,8,0:0:0:0:
50,123,65583,5,0,0:0:0:0:
23,326,65909,2,0,B|50:264|144:256,1,102.666669799805,8|0,0:0|0:0,0:0:0:0:
226,326,66235,1,0,0:0:0:0:
474,187,66561,1,8,0:0:0:0:
222,157,66887,6,0,P|172:110|112:96,1,102.666669799805
298,43,67213,2,0,L|368:144,1,102.666669799805,8|0,0:0|0:0,0:0:0:0:
277,259,67539,1,0,0:0:0:0:
474,187,67757,1,0,0:0:0:0:
478,309,67865,2,0,B|461:337|461:337|372:328|372:328|327:274,1,181.999991668702,8|0,0:0|0:0,0:0:0:0:
298,43,68518,5,8,0:0:0:0:
59,74,68735,1,0,0:0:0:0:
137,189,68844,2,0,P|115:272|30:285,1,181.999991668702,0|8,0:0|0:0,0:0:0:0:
250,128,69496,6,0,P|267:204|221:284,1,121.333327779134
346,164,69822,2,0,L|497:84,1,121.333327779134,8|0,0:0|0:0,0:0:0:0:
452,241,70148,2,0,P|436:298|394:341,1,121.333327779134
254,243,70474,1,8,0:0:0:0:
15,84,70800,6,0,L|57:214,1,130.666662679037
189,281,71126,2,0,L|202:139,1,130.666662679037,8|0,0:0|0:0,0:0:0:0:
499,77,71452,6,0,L|457:207,1,130.666662679037
308,281,71778,2,0,L|296:150,1,130.666662679037,8|0,0:0|0:0,0:0:0:0:
45,168,72105,6,0,B|15:267|15:267|67:224,1,149.333333333333,6|8,0:0|0:0,0:0:0:0:
212,97,72431,1,0,0:0:0:0:
425,218,72757,6,0,B|436:260|436:260|399:261|399:261|370:320|333:367|302:336,1,224,2|4,0:0|0:0,0:0:0:0:
63,116,73409,6,0,B|92:149|92:149|60:210|61:261|61:261|99:335,1,210.000008010865
365,82,73952,1,0,0:0:0:0:
505,158,74061,2,0,B|506:191|497:217|497:217|456:232|436:265|436:265|401:276|366:266,1,210.000008010865
35,76,74605,2,0,B|24:94|24:94|41:143,1,70.0000026702882
40,140,74931,1,0,0:0:0:0:
174,117,75039,2,0,B|194:218|194:218|155:244,1,140.000005340576
163,238,75583,5,0,0:0:0:0:
283,277,75692,2,0,B|300:284|300:284|330:240|311:193|311:193|333:154,1,149.333333333333
133,69,76018,6,0,P|157:165|102:250,1,195.999994018555
313,209,76561,1,0,0:0:0:0:
431,283,76670,2,0,P|363:350|267:349,1,195.999994018555
245,23,77213,1,0,0:0:0:0:
108,61,77322,2,0,P|159:142|252:164,1,195.999994018555
416,349,77865,5,0,0:0:0:0:
256,268,77974,2,0,B|250:284|250:284|270:366,1,74.6666666666667
408,252,78300,2,0,B|395:230|395:230|343:214|343:214|321:124,1,149.333333333333
444,69,78626,6,0,B|428:26|428:26|366:88|248:67,1,210.000008010865
45,359,79170,1,0,0:0:0:0:
100,226,79278,2,0,B|174:249|152:320|247:351,1,195.999994018555
384,169,79822,2,0,L|300:218,1,70.0000026702882
67,133,80148,1,0,0:0:0:0:
40,123,80257,2,0,B|107:103|107:103|172:159,1,140.000005340576
163,56,80800,5,0,0:0:0:0:
235,198,80909,2,0,B|242:217|242:217|162:244|109:197,1,149.333333333333
347,112,81235,6,0,P|389:168|363:296,1,195.999994018555
118,204,81778,1,0,0:0:0:0:
40,313,81887,2,0,B|48:335|48:335|104:365|182:336,1,140.000005340576
282,261,82213,1,0,0:0:0:0:
434,0,82431,1,0,0:0:0:0:
512,109,82540,2,0,B|504:131|504:131|448:161|390:138,1,140.000005340576
211,73,82865,1,0,0:0:0:0:
358,39,83083,5,0,0:0:0:0:
268,154,83192,2,0,L|126:181,1,140.000005340576
264,256,83518,2,0,B|303:249|303:249|420:278,1,149.333333333333
287,351,83844,6,0,B|249:375|249:375|194:334|128:314|128:314|59:331,1,210.000008010865
37,126,84387,1,0,0:0:0:0:
175,97,84496,2,0,P|211:209|295:253,1,195.999994018555
343,112,85039,1,0,0:0:0:0:
108,218,85148,2,0,B|88:239|88:239|124:287|142:328,1,130.666662679037
261,148,85474,1,0,0:0:0:0:
336,384,85692,1,0,0:0:0:0:
373,173,86018,5,0,0:0:0:0:
284,292,86126,2,0,P|237:229|170:208,1,130.666662679037
231,58,86452,6,0,B|250:58|250:58|277:42|277:42|299:60|299:60|358:24|431:61,1,210.000008010865
224,184,86996,1,0,0:0:0:0:
341,133,87105,2,0,P|415:133|483:170,1,130.666662679037
393,276,87431,1,0,0:0:0:0:
98,174,87648,1,0,0:0:0:0:
140,312,87757,1,0,0:0:0:0:
185,107,88083,6,0,P|207:170|165:241,1,130.666662679037
288,104,88409,2,0,B|304:98|304:98|355:46,1,74.6666666666667
340,184,88735,2,0,B|309:189|309:189|300:220|300:220|245:250|239:312,1,149.333333333333
83,286,89061,6,0,B|79:264|79:264|68:261|68:261|72:250|72:250|59:249|59:249|62:241|62:241|45:241|45:241|-14:182|2:103,1,224
174,19,89605,1,0,0:0:0:0:
244,95,89713,2,0,P|309:104|371:49,1,130.666662679037
492,106,90039,1,0,0:0:0:0:
240,156,90257,2,0,P|205:177|179:218,1,74.6666666666667
126,47,90692,6,0,P|114:86|122:133,1,74.6666666666667
217,269,90909,1,0,0:0:0:0:
230,295,91018,2,0,P|179:317|111:282,1,130.666662679037
256,190,91344,2,0,B|281:173|281:173|298:196|298:196|349:189|404:240,1,149.333333333333
512,366,91670,1,0,0:0:0:0:
464,143,91996,6,0,B|460:119|460:119|401:140|332:132,1,130.666662679037
199,249,92322,1,0,0:0:0:0:
339,52,92539,1,0,0:0:0:0:
356,236,92648,2,0,B|361:249|361:249|403:232|423:280|481:275,1,130.666662679037
330,363,92974,2,0,B|301:383|301:383|273:367|226:362|226:362|191:375,1,149.333333333333
35,230,93300,6,0,P|22:190|55:153,1,74.6666666666667,2|0,0:0|0:0,0:0:0:0:
288,44,93626,6,0,B|326:40|326:40|332:89,1,74.6666666666667,2|0,0:0|0:0,0:0:0:0:
266,280,93952,6,0,B|265:192|307:241|307:241|350:192|350:282,1,188.999994232178,2|0,0:0|0:0,0:0:0:0:
302,353,94278,6,0,B|283:353|283:353|256:369|256:369|234:351|175:387|137:313,1,140.000005340576
67,284,94605,2,0,P|159:240|208:237,1,140.000005340576
382,308,94931,1,0,0:0:0:0:
19,168,95257,1,0,0:0:0:0:
427,168,95583,2,0,P|473:182|460:100,1,140.000005340576
326,115,95909,6,0,P|299:179|245:216,1,130.666662679037
0,287,96235,2,0,L|140:325,1,130.666662679037
339,351,96561,2,0,B|343:336|343:336|335:330|335:330|345:320|345:320|332:315|332:315|337:300|337:300|324:297|324:297|324:281|324:281|309:283|309:283|306:272|306:272|290:274|290:274|286:261|286:261,1,149.333333333333
76,384,96887,1,0,0:0:0:0:
405,249,97213,6,0,P|423:198|396:141,1,97.9999970092774
232,173,97539,2,0,B|222:188|222:188|202:187|202:187|200:205|200:205|182:195|182:195|168:213|168:213|154:198|154:198|139:214|139:214|129:196|129:196|114:210|114:210|104:192|104:192|87:207|87:207|70:184|70:184|67:193,2,238.00000453949
498,253,98409,1,0,0:0:0:0:
417,368,98518,2,0,P|332:382|263:357,1,130.666662679037
185,188,98844,2,0,P|270:174|339:199,1,130.666662679037
444,268,99170,1,0,0:0:0:0:
487,8,99387,1,0,0:0:0:0:
359,84,99496,6,0,B|325:112|325:112|276:88|200:105|200:105,1,140.000005340576
116,169,99822,2,0,B|120:217|193:234|273:233,1,130.666662679037
386,189,100148,1,0,0:0:0:0:
26,285,100474,1,0,0:0:0:0:
399,348,100800,2,0,P|428:292|345:303,1,149.333333333333
234,346,101126,1,0,0:0:0:0:
234,346,101344,1,0,0:0:0:0:
300,225,101452,1,0,0:0:0:0:
300,225,101670,1,0,0:0:0:0:
403,299,101778,2,0,B|419:310|419:310|465:239|432:176,1,149.333333333333
348,64,102105,6,0,P|301:108|296:215,1,130.666662679037
275,313,102431,2,0,P|227:268|212:206,1,130.666662679037
364,145,102757,1,0,0:0:0:0:
469,349,102974,1,0,0:0:0:0:
469,349,103083,1,0,0:0:0:0:
317,245,103300,1,0,0:0:0:0:
317,245,103409,2,0,B|340:247|340:247|392:211|398:149,1,140.000005340576
198,144,103735,2,0,P|156:201|153:269,1,130.666662679037
226,365,104061,1,0,0:0:0:0:
377,231,104278,1,0,0:0:0:0:
302,153,104387,2,0,P|240:205|279:244,1,149.333333333333
422,136,104713,6,0,B|412:119|412:119|412:98|412:98|394:101|394:101|391:83|391:83|376:86|376:86|348:66|311:66,1,149.333333333333
201,185,105039,2,0,P|127:220|-1:159,1,210.000008010865
117,110,105583,1,0,0:0:0:0:
146,295,105692,2,0,P|180:361|271:370,1,140.000005340576
380,355,106018,1,0,0:0:0:0:
