osu file format v4

[General]
AudioFilename: RB2.mp3
AudioLeadIn: 0
AudioHash: fc37a1a777ba29fd0f1f69ffab861674
PreviewTime: -1
SampleSet: Soft
EditorBookmarks: 58075,70916,107382

[Metadata]
Title:Thai Stage v3
Artist:RBFF2 OST
Creator:EiJi
Version:Hard

[Difficulty]
HPDrainRate:4
CircleSize:6
OverallDifficulty:8
SliderMultiplier: 1.4
SliderTickRate: 8

[Events]
0,0,"rbff.jpg"
2,46022,57561
2,96211,107751
3,0,163,162,255

[TimingPoints]
730,392.105607110182,4,2,1

[HitObjects]
256,192,2298,1,2,
256,96,3866,1,2,
96,160,5435,1,2,
208,160,5827,1,2,
320,160,6219,1,2,
320,216,6415,1,2,
320,272,6611,1,2,
208,272,7003,5,2,
208,160,7395,1,2,
96,160,7787,1,2,
96,216,7983,1,2,
96,272,8180,1,2,
208,272,8572,1,2,
416,280,10140,5,2,
32,192,11708,1,2,
144,192,12101,1,2,
256,200,12493,5,2,
256,256,12689,1,2,
312,256,12885,1,2,
424,256,13277,1,2,
424,144,13669,1,2,
312,144,14061,5,2,
312,88,14257,1,2,
256,88,14453,1,2,
144,88,14845,1,2,
144,200,15237,1,2,
144,312,15630,5,2,
200,312,15826,1,2,
256,312,16022,1,2,
368,312,16414,5,2,
368,312,16610,1,2,
368,312,16806,1,2,
368,200,17198,5,2,
368,200,17394,1,2,
368,200,17590,1,2,
368,88,17982,1,2,
256,88,18374,1,2,
144,88,18766,5,2,
88,88,18962,1,2,
32,88,19158,1,2,
32,200,19551,5,2,
88,200,19747,1,2,
144,200,19943,1,2,
200,200,20139,1,2,
256,200,20335,1,2,
312,200,20531,1,2,
368,200,20727,1,2,
480,208,21119,5,2,
480,152,21315,1,2,
480,96,21511,1,2,
368,104,21903,5,2,
368,160,22099,1,2,
368,216,22295,1,2,
256,216,22687,1,2,
144,216,23080,1,2,
144,104,23472,5,2,
200,104,23668,1,2,
256,104,23864,1,2,
368,112,24256,1,2,
368,224,24648,1,2,
256,232,25040,5,2,
200,232,25236,1,2,
144,232,25432,1,2,
144,344,25824,1,2,
256,344,26216,1,2,
368,344,26608,5,2,
424,344,26805,1,2,
480,344,27001,1,2,
480,232,27393,1,2,
480,120,27785,1,2,
368,120,28177,5,2,
312,120,28373,1,2,
256,120,28569,1,2,
144,128,28961,1,2,
32,128,29353,1,2,
32,240,29745,5,2,
72,280,29941,1,2,
112,320,30137,1,2,
224,320,30530,1,2,
336,320,30922,1,2,
448,320,31314,5,2,
408,280,31510,1,2,
368,240,31706,1,2,
256,240,32098,1,2,
144,240,32490,1,2,
152,128,32882,5,2,
152,184,33078,1,2,
152,240,33274,1,2,
160,352,33666,5,2,
216,352,33862,1,2,
272,352,34058,1,2,
384,352,34451,5,2,
384,296,34647,1,2,
384,240,34843,1,2,
296,240,35137,5,2,
296,240,35235,1,2,
240,240,35431,1,2,
184,240,35627,1,2,
184,128,36019,5,2,
240,128,36215,1,2,
296,128,36411,1,2,
376,128,36705,5,2,
376,128,36803,1,2,
376,184,36999,1,2,
376,240,37195,1,2,
264,240,37587,5,2,
208,240,37783,1,2,
152,240,37980,1,2,
64,232,38274,5,2,
64,232,38372,1,2,
104,200,38568,1,2,
152,168,38764,1,2,
264,168,39156,5,2,
296,216,39352,1,2,
328,264,39548,1,2,
216,264,39940,5,2,
272,264,40136,1,2,
328,264,40332,1,2,
328,152,40724,5,2,
272,152,40920,1,2,
216,152,41116,1,2,
216,40,41508,5,2,
272,40,41705,1,2,
328,40,41901,1,2,
440,48,42293,5,2,
440,104,42489,1,2,
440,160,42685,1,2,
328,160,43077,5,2,
328,216,43273,1,2,
328,272,43469,1,2,
216,272,43861,5,2,
176,232,44057,1,2,
136,192,44253,1,2,
224,120,44645,5,2,
272,88,44841,1,2,
320,64,45037,1,2,
376,160,45430,5,2,
328,192,45626,1,2,
280,224,45822,1,2,
256,192,58761,5,2,
416,64,60330,1,2,
192,64,61114,1,2,
136,64,61310,1,2,
80,64,61506,1,2,
80,176,61898,1,2,
304,184,62682,5,2,
360,184,62878,1,2,
416,184,63074,2,2,L|416:184|416:136,4,35
48,48,65035,5,2,
40,272,65819,1,2,
96,272,66015,1,2,
152,272,66211,1,2,
264,272,66603,1,2,
488,272,67387,5,2,
488,216,67584,1,2,
488,160,67780,1,2,
376,152,68172,1,2,
152,160,68956,5,2,
184,200,69152,1,2,
224,240,69348,1,2,
336,248,69740,6,2,L|336:248|336:168,6,70
224,256,71309,5,2,
168,256,71505,1,2,
168,200,71701,1,2,
224,200,71897,1,2,
280,200,72093,1,2,
280,256,72289,1,2,
280,312,72485,1,2,
392,312,72877,5,2,
392,200,73269,1,2,
392,88,73661,1,2,
352,128,73857,1,2,
408,136,74053,1,2,
408,248,74445,5,2,
296,248,74837,1,2,
184,248,75230,1,2,
136,280,75426,1,2,
128,224,75622,1,2,
136,112,76014,5,2,
248,112,76406,1,2,
360,112,76798,1,2,
360,168,76994,1,2,
416,168,77190,1,2,
416,280,77582,5,2,
312,320,77974,1,2,
216,264,78366,1,2,
216,208,78562,1,2,
216,152,78759,1,2,
328,144,79151,5,2,
440,144,79543,1,2,
440,256,79935,1,2,
400,296,80131,1,2,
352,328,80327,1,2,
240,328,80719,1,2,
240,104,81503,5,2,
184,120,81699,1,2,
232,152,81895,1,2,
232,264,82287,1,2,
424,152,83072,5,2,
440,200,83268,1,2,
384,192,83464,1,2,
272,192,83856,1,2,
160,192,84248,1,2,
72,192,84542,5,2,
72,192,84640,1,2,
72,248,84836,1,2,
72,304,85032,1,2,
184,304,85424,5,2,
240,304,85620,1,2,
296,304,85816,1,2,
296,216,86110,5,2,
296,184,86209,1,2,
296,128,86405,1,2,
296,72,86601,1,2,
408,72,86993,5,2,
432,120,87189,1,2,
408,168,87385,1,2,
440,240,87679,5,2,
424,264,87777,1,2,
384,224,87973,1,2,
360,272,88169,1,2,
264,208,88561,5,2,
224,248,88757,1,2,
192,200,88953,1,2,
120,240,89247,5,2,
120,208,89345,1,2,
72,168,89541,1,2,
56,112,89737,1,2,
168,104,90130,5,2,
200,56,90326,1,2,
256,56,90522,1,2,
336,56,90816,5,2,
360,72,90914,1,2,
400,112,91110,1,2,
400,168,91306,1,2,
400,280,91698,5,2,
344,280,91894,1,2,
288,280,92090,1,2,
288,192,92384,5,2,
256,192,92482,1,2,
200,192,92678,1,2,
152,224,92874,1,2,
64,288,93266,1,2,
288,288,94051,5,2,
336,264,94247,1,2,
336,320,94443,1,2,
448,312,94835,5,2,
448,256,95031,1,2,
448,200,95227,1,2,
456,88,95619,5,2,
400,88,95815,1,2,
344,88,96011,1,2,
256,192,108951,5,2,
64,72,109735,2,2,L|64:72|64:152,2,70
64,184,110519,1,2,
288,192,111303,6,2,L|288:192|288:112,2,70
288,80,112087,1,2,
288,304,112872,5,2,
232,304,113068,1,2,
232,248,113264,1,2,
120,248,113656,1,2,
248,64,114440,6,2,L|248:64|248:144,2,70
248,176,115224,1,2,
440,296,116009,5,2,
384,296,116205,1,2,
408,248,116401,1,2,
424,136,116793,1,2,
200,136,117577,5,2,
256,136,117773,1,2,
232,184,117969,1,2,
232,296,118361,1,2,
8,304,119145,5,2,
8,248,119341,1,2,
56,272,119537,1,2,
120,176,119930,5,4,
176,176,120126,1,0,
232,176,120322,1,4,
232,232,120518,1,0,
232,288,120714,1,4,
176,288,120910,1,0,
120,288,121106,1,4,
