osu file format v12

[General]
AudioFilename: -suikyou heaven-.mp3
AudioLeadIn: 1500
PreviewTime: 69643
Countdown: 0
SampleSet: Soft
StackLeniency: 0.7
Mode: 0
LetterboxInBreaks: 1

[Editor]
Bookmarks: 43,2443,10843,20293,21643,31243,40843,45643,50743,69643,76843,79243,80443,81643,88843,91243,96043,98443,99643,100843,108043,110443
DistanceSpacing: 0.8
BeatDivisor: 4
GridSize: 8

[Metadata]
Title:Suikyou HEAVEN
TitleUnicode:酔狂HEAVEN
Artist:RB
ArtistUnicode:煉獄小僧
Creator:-WhiteNEKO-
Version:Easy
Source:
Tags:rengoku teien kozou
BeatmapID:257910
BeatmapSetID:93741

[Difficulty]
HPDrainRate:2
CircleSize:3
OverallDifficulty:2
ApproachRate:3
SliderMultiplier:1
SliderTickRate:1

[Events]
//Background and Video events
0,0,"BG.jpg",0,0
//Break Periods
2,32743,39403
2,50743,53803
2,56743,58903
2,61443,63403
//Storyboard Layer 0 (Background)
//Storyboard Layer 1 (Fail)
//Storyboard Layer 2 (Pass)
//Storyboard Layer 3 (Foreground)
//Storyboard Sound Samples
//Background Colour Transformations
3,100,163,162,255

[TimingPoints]
43,300,4,2,0,100,1,0
2443,-100,4,2,1,100,0,0
12043,-100,4,2,0,100,0,0
12343,-100,4,2,2,100,0,0
20293,-100,4,2,0,100,0,0
20443,-100,4,2,1,100,0,0
21643,-100,4,2,2,100,0,0
32443,-100,4,2,2,5,0,0
40843,-100,4,2,0,100,0,0
41143,-100,4,2,3,100,0,0
43243,-100,4,2,0,100,0,0
43543,-100,4,2,3,100,0,0
45643,-100,4,2,1,100,0,0
48043,-100,4,2,3,100,0,0
50443,-100,4,2,1,5,0,0
50743,-100,4,2,0,100,0,0
69643,-100,4,2,0,5,0,0
69943,-100,4,2,0,12,0,0
70093,-100,4,2,0,19,0,0
70243,-100,4,2,0,26,0,0
70393,-100,4,2,0,33,0,0
70543,-100,4,2,0,40,0,0
70693,-100,4,2,0,47,0,0
70843,-100,4,2,0,54,0,0
70993,-100,4,2,0,61,0,0
71143,-100,4,2,0,68,0,0
71293,-100,4,2,0,75,0,0
71443,-100,4,2,0,82,0,0
71593,-100,4,2,0,89,0,0
71743,-100,4,2,0,96,0,0
71893,-100,4,2,0,99,0,0
72043,-100,4,2,0,100,0,1
72343,-100,4,2,1,100,0,1
73243,-100,4,2,0,100,0,1
73543,-100,4,2,1,100,0,1
76768,-100,4,2,1,100,0,0
76843,-100,4,2,0,100,0,1
77143,-100,4,2,1,100,0,1
78043,-100,4,2,0,100,0,1
78343,-100,4,2,1,100,0,1
80443,-100,4,2,1,100,0,1
81343,-100,4,2,0,100,0,0
81943,-100,4,2,3,100,0,0
83743,-100,4,2,0,100,0,0
84043,-100,4,2,3,100,0,0
86143,-100,4,2,0,100,0,0
86443,-100,4,2,3,100,0,0
88543,-100,4,2,0,100,0,0
88843,-100,4,2,2,100,0,0
91243,-100,4,2,0,100,0,1
91543,-100,4,2,1,100,0,1
92443,-100,4,2,0,100,0,1
92743,-100,4,2,1,100,0,1
95968,-100,4,2,1,100,0,0
96043,-100,4,2,0,100,0,1
96343,-100,4,2,1,100,0,1
97243,-100,4,2,0,100,0,1
97543,-100,4,2,1,100,0,1
100843,-100,4,2,0,100,0,0
101143,-100,4,2,3,100,0,0
103243,-100,4,2,0,100,0,0
103543,-100,4,2,3,100,0,0
105643,-100,4,2,0,100,0,0
105943,-100,4,2,3,100,0,0
107743,-100,4,2,0,100,0,0
108043,-100,4,2,2,100,0,0
110443,-100,4,2,0,100,0,0
110593,-100,4,2,1,100,0,0
112243,-100,4,2,1,60,0,0
112393,-100,4,2,0,50,0,0
112543,-100,4,2,0,40,0,0
115093,-100,4,2,0,5,0,0

[Colours]
Combo1 : 0,55,36
Combo2 : 197,178,133
Combo3 : 2,143,38
Combo4 : 160,207,73

[HitObjects]
136,128,43,1,2,0:0:0:0:
136,128,643,1,2,0:0:0:0:
136,128,1243,2,2,P|191:202|294:228,1,200
369,210,2143,2,0,P|416:149|419:111,1,100,4|8,0:0|0:0,0:0:0:0:
273,221,3343,6,0,P|292:295|325:316,2,100,8|0|8,0:0|0:0|0:0,0:0:0:0:
413,142,4543,2,0,P|394:216|361:237,2,100,8|0|8,0:0|0:0|0:0,0:0:0:0:
270,69,5743,2,0,L|164:69,1,100,8|0,0:0|0:0,0:0:0:0:
90,70,6343,1,8,0:0:0:0:
86,229,6943,6,8,P|126:289|252:303,1,200
265,146,8143,2,8,B|379:83|379:83|460:98,1,200
301,31,9343,2,8,B|187:94|187:94|106:79,1,200
119,241,10543,5,8,0:0:0:0:
189,278,10843,2,4,P|259:311|470:113,1,400
311,129,12643,6,0,P|231:88|120:130,1,200,8|0,0:0|0:0,0:0:0:0:
333,247,14143,6,0,L|452:247,1,100,8|0,0:0|0:0,0:0:0:0:
311,143,15043,2,8,P|199:167|273:340,1,350,8|2,0:0|0:0,0:0:0:0:
348,255,16543,6,0,L|246:240,1,100,8|0,0:0|0:0,0:0:0:0:
170,226,17143,2,0,P|109:189|232:88,1,300,8|0,0:0|0:0,0:0:0:0:
213,163,18343,2,0,L|120:128,1,100,8|2,0:0|0:0,0:0:0:0:
43,153,18943,6,0,P|33:244|43:264,1,100,8|0,0:0|0:0,0:0:0:0:
191,215,19843,2,0,P|192:219|189:278,1,50,2|0,0:0|0:0,0:0:0:0:
243,327,20293,2,4,P|421:228|347:31,1,450
191,67,22243,6,0,P|97:82|54:184,1,200,8|0,0:0|0:0,0:0:0:0:
77,245,23143,2,0,L|119:283,1,50,8|2,0:0|0:0,0:0:0:0:
232,259,23743,6,8,P|281:167|371:118,1,200
423,171,24643,2,0,P|374:263|284:312,1,200,0|2,0:0|0:0,0:0:0:0:
231,258,25543,2,8,P|167:189|203:94,1,200
356,123,26743,6,0,L|472:123,2,100,8|0|8,0:0|0:0|0:0,0:0:0:0:
276,124,27643,2,0,P|319:197|424:169,1,200,0|8,0:0|0:0,0:0:0:0:
214,300,29143,6,8,P|130:268|103:154,1,200
166,125,30043,2,0,P|164:68|296:171,1,400,2|4,0:0|0:0,0:0:0:0:
256,192,31318,12,0,32443,0:0:0:0:
146,90,40843,6,0,L|146:210,1,100,4|8,0:0|0:0,0:0:0:0:
146,270,41443,2,0,P|237:304|344:264,1,200,0|8,0:0|0:0,0:0:0:0:
89,65,43243,6,0,P|171:35|201:35,1,100,4|8,0:0|0:0,0:0:0:0:
255,68,43843,2,0,P|318:122|347:132,3,100,0|8|0|8,0:0|0:0|0:0|0:0,0:0:0:0:
408,154,45043,1,0,0:0:0:0:
408,154,45343,1,8,0:0:0:0:
359,217,45643,6,0,P|311:229|260:207,2,100,0|4|0,0:0|0:0|0:0,0:0:0:0:
316,149,46543,2,0,P|364:137|398:93,2,100,4|0|4,0:0|0:0|0:0,0:0:0:0:
239,125,47443,2,0,P|227:76|183:42,1,100,0|4,0:0|0:0,0:0:0:0:
159,118,48043,6,0,P|76:168|25:261,1,200,4|4,0:0|0:0,0:0:0:0:
99,288,48943,2,0,P|132:224|158:202,2,100,8|4|8,0:0|0:0|0:0,0:0:0:0:
176,307,49843,2,0,P|271:343|367:292,1,200,4|0,0:0|0:0,0:0:0:0:
57,123,55243,6,0,P|106:98|158:96,1,100,4|0,0:0|0:0,0:0:0:0:
215,142,55843,2,0,P|259:138|308:113,1,100
369,62,56443,1,4,0:0:0:0:
167,89,60343,6,0,P|205:181|215:193,1,100,4|0,0:0|0:0,0:0:0:0:
249,247,60943,2,0,P|228:303|183:332,1,100,0|4,0:0|0:0,0:0:0:0:
155,133,64843,5,4,0:0:0:0:
155,133,65443,1,4,0:0:0:0:
155,133,66043,2,0,P|205:193|335:201,1,200,4|2,0:0|0:0,0:0:0:0:
395,176,66943,2,0,L|467:96,1,100,0|4,0:0|0:0,0:0:0:0:
263,73,67993,6,4,L|208:39,2,50
159,109,69643,6,0,P|173:162|176:170,15,50
182,196,72043,2,0,P|222:250|352:245,1,200,4|8,0:0|0:0,0:0:0:0:
219,348,73243,2,0,P|218:224|272:184,1,200,4|8,0:0|0:0,0:0:0:0:
428,146,74443,6,0,P|376:85|341:78,1,100,0|8,0:0|0:0,0:0:0:0:
281,95,75043,2,0,P|196:114|166:107,1,100,0|8,0:0|0:0,0:0:0:0:
104,116,75643,2,0,P|38:121|28:242,1,200,0|8,0:0|0:0,0:0:0:0:
173,283,76843,6,0,B|260:303|260:303|314:272|314:272|373:283,1,200,4|8,0:0|0:0,0:0:0:0:
309,129,78043,2,0,B|261:120|261:120|207:151|207:151|120:131,1,200,4|8,0:0|0:0,0:0:0:0:
245,31,79243,6,0,P|330:31|361:41,1,100,0|4,0:0|0:0,0:0:0:0:
396,94,79843,2,0,P|439:159|470:183,1,100,0|12,0:0|0:0,0:0:0:0:
447,252,80443,2,4,P|397:315|121:230,1,400
66,101,82243,5,2,0:0:0:0:
66,101,82843,2,0,P|123:73|173:73,1,100,0|2,0:0|0:0,0:0:0:0:
233,100,83443,2,0,P|268:97|325:69,1,100,0|4,0:0|0:0,0:0:0:0:
405,78,84043,6,0,B|463:103|463:103|463:262,1,200,0|2,0:0|0:0,0:0:0:0:
303,223,85243,2,0,P|248:215|190:233,1,100,0|2,0:0|0:0,0:0:0:0:
140,272,85843,2,0,P|77:265|47:222,1,100,0|4,0:0|0:0,0:0:0:0:
32,163,86443,5,2,0:0:0:0:
32,163,87043,1,2,0:0:0:0:
32,163,87643,2,0,P|55:88|77:71,1,100,0|2,0:0|0:0,0:0:0:0:
147,60,88243,2,0,L|262:60,1,100,0|4,0:0|0:0,0:0:0:0:
319,94,88843,6,0,P|250:140|226:139,2,100,0|2|0,0:0|0:0|0:0,0:0:0:0:
444,193,90043,2,0,P|382:261|276:300,1,200,4|2,0:0|0:0,0:0:0:0:
152,205,91243,6,0,P|94:158|37:34,1,200,4|8,0:0|0:0,0:0:0:0:
187,107,92443,2,0,P|284:182|357:199,1,200,4|8,0:0|0:0,0:0:0:0:
424,54,93643,6,0,P|470:104|476:153,1,100,0|8,0:0|0:0,0:0:0:0:
476,213,94243,2,0,P|469:242|423:292,1,100,0|8,0:0|0:0,0:0:0:0:
343,292,94843,2,0,P|250:261|144:298,1,200,0|8,0:0|0:0,0:0:0:0:
95,140,96043,6,0,P|131:108|195:104,2,100,4|8|0,0:0|0:0|0:0,0:0:0:0:
250,100,97243,2,0,P|299:107|335:139,2,100,4|8|0,0:0|0:0|0:0,0:0:0:0:
252,260,98443,6,4,P|314:294|443:286,1,200
478,217,99343,1,4,0:0:0:0:
459,139,99643,2,4,P|396:58|373:233,1,400
201,284,101443,5,8,0:0:0:0:
201,284,102043,2,0,P|116:254|97:233,1,100,0|8,0:0|0:0,0:0:0:0:
77,175,102643,2,0,P|55:96|29:76,1,100,0|8,0:0|0:0,0:0:0:0:
106,36,103243,6,0,P|205:45|313:38,1,200,4|8,0:0|0:0,0:0:0:0:
452,102,104443,2,0,P|416:153|362:165,1,100,0|8,0:0|0:0,0:0:0:0:
306,191,105043,2,0,P|378:269|484:307,1,200,0|4,0:0|0:0,0:0:0:0:
472,224,105943,5,8,0:0:0:0:
395,199,106243,2,0,P|326:248|319:273,1,100,0|8,0:0|0:0,0:0:0:0:
259,308,106843,2,0,P|162:309|23:165,1,300,0|4,0:0|0:0,0:0:0:0:
97,139,108043,5,2,0:0:0:0:
97,139,108643,1,2,0:0:0:0:
97,139,109243,2,0,P|136:213|166:228,1,100,4|8,0:0|0:0,0:0:0:0:
215,262,109843,2,0,P|272:289|415:252,1,200,0|4,0:0|0:0,0:0:0:0:
453,202,110743,5,2,0:0:0:0:
438,123,111043,2,0,P|381:72|342:70,2,100,0|2|0,0:0|0:0|0:0,0:0:0:0:
407,149,111793,1,0,0:0:0:0:
361,147,111943,2,0,P|273:165|149:139,1,200,2|4,0:0|0:0,0:0:0:0:
256,192,112693,12,0,115093,0:0:0:0:
