osu file format v14

[General]
AudioFilename: RAN - Dekat di Hati (REDSHiFT Remix).mp3
AudioLeadIn: 0
PreviewTime: 67339
Countdown: 0
SampleSet: Soft
StackLeniency: 0.7
Mode: 0
LetterboxInBreaks: 0
EpilepsyWarning: 1
WidescreenStoryboard: 1

[Editor]
DistanceSpacing: 1
BeatDivisor: 8
GridSize: 4
TimelineZoom: 1.7

[Metadata]
Title:Dekat di Hati (REDSHiFT Remix)
TitleUnicode:Dekat di Hati (REDSHiFT Remix)
Artist:RAN
ArtistUnicode:RAN
Creator:[ A v a l o n ]
Version:Mako's Easy
Source:
Tags:Del05 Mako Sakata Surono Flying_Pan Volta Genocide PatZar Hatsune Miku feat. Megurine Luka 初音ミク 巡音ルカ Vocaloid Bahasa Indonesia crashtest rikuu powerkid Kuroha AI
BeatmapID:776877
BeatmapSetID:350207

[Difficulty]
HPDrainRate:2
CircleSize:3
OverallDifficulty:2
ApproachRate:3
SliderMultiplier:1
SliderTickRate:1

[Events]
//Background and Video events
0,0,"Dekat di hati (REDSHiFT Remix).jpg",0,0
//Break Periods
2,99416,105822
//Storyboard Layer 0 (Background)
Sprite,Background,TopLeft,"Dekat di hati (REDSHiFT Remix).jpg",320,240 F,0,14,,0 S,0,14,151570,0.6861936
//Storyboard Layer 1 (Fail)
//Storyboard Layer 2 (Pass)
//Storyboard Layer 3 (Foreground)
Sprite,Foreground,Centre,"SB/Lyric1.png",320,240 S,0,3762,,0.6861935 F,0,3762,3993,0,1 M,0,3762,10339,927,458,100,458
Sprite,Foreground,Centre,"SB/Lyric2.png",320,240 S,0,11147,,0.6861935 F,0,11147,11378,0,1 M,0,11147,17724,921,458,94,458
Sprite,Foreground,Centre,"SB/Lyric3.png",320,240 S,0,18532,,0.6861935 F,0,18532,18762,0,1 M,0,18532,25109,900,458,27,458
Sprite,Foreground,Centre,"SB/Lyric4.png",320,240 S,0,25916,,0.6861935 F,0,25916,26147,0,1 M,0,25916,32493,875,458,48,458
Sprite,Foreground,Centre,"SB/Lyric5.png",320,240 S,0,33301,,0.6861935 F,0,33301,33532,0,1 M,0,33301,36186,807,458,350,458
Sprite,Foreground,Centre,"SB/Lyric6.png",320,240 S,0,36993,,0.6861935 F,0,36993,37224,0,1 M,0,36993,39878,810,458,345,458
Sprite,Foreground,Centre,"SB/Lyric7.png",320,240 S,0,40686,,0.6861935 F,0,40686,40916,0,1 M,0,40686,47262,927,458,100,458
Sprite,Foreground,Centre,"SB/Lyric8.png",320,240 S,0,48070,,0.6861935 F,0,48070,48301,0,1 M,0,48070,50955,805,458,348,458
Sprite,Foreground,Centre,"SB/Lyric9.png",320,240 S,0,51762,,0.6861935 F,0,51762,51993,0,1 M,0,51762,54647,850,458,310,458
Sprite,Foreground,Centre,"SB/Lyric10.png",320,240 S,0,55455,,0.6861935 F,0,55455,55686,0,1 M,0,55455,57416,787,458,380,458
Sprite,Foreground,Centre,"SB/Lyric11.png",320,240 S,0,57993,,0.6861935 F,0,57993,58224,0,1 M,0,57993,61109,744,458,300,458 S,0,67224,,0.6861935 F,0,67224,67455,0,1 M,0,67224,70339,744,458,300,458 S,0,81993,,0.6861935 F,0,81993,82224,0,1 M,0,81993,85109,744,458,300,458
Sprite,Foreground,Centre,"SB/Lyric1b.png",320,240 S,0,99762,,0.6861935 F,0,99762,99993,0,1 M,0,99762,106339,419,458,-408,458
Sprite,Foreground,Centre,"SB/Lyric4b.png",320,240 S,0,107147,,0.6861935 F,0,107147,107378,0,1 M,0,107147,113724,366,458,-461,458
Sprite,Foreground,Centre,"SB/Lyric5b.png",320,240 S,0,114532,,0.6861935 F,0,114532,114762,0,1 M,0,114532,117416,299,458,-158,458
Sprite,Foreground,Centre,"SB/Lyric6b.png",320,240 S,0,118224,,0.6861935 F,0,118224,118455,0,1 M,0,118224,121109,303,458,-162,458
Sprite,Foreground,Centre,"SB/Lyric7b.png",320,240 S,0,121916,,0.6861935 F,0,121916,122147,0,1 M,0,121916,128493,419,458,-408,458
Sprite,Foreground,Centre,"SB/Lyric8b.png",320,240 S,0,129301,,0.6861935 F,0,129301,129532,0,1 M,0,129301,132186,298,458,-159,458
Sprite,Foreground,Centre,"SB/Lyric9b.png",320,240 S,0,132993,,0.6861935 F,0,132993,133224,0,1 M,0,132993,135878,343,458,-197,458
Sprite,Foreground,Centre,"SB/Lyric10b.png",320,240 S,0,136686,,0.6861935 F,0,136686,136916,0,1 M,0,136686,138647,279,458,-128,458
Sprite,Foreground,Centre,"SB/Lyric11b.png",320,240 S,0,139224,,0.6861935 F,0,139224,139455,0,1 M,0,139224,144186,228,458,-160,458
Sprite,Foreground,Centre,"SB/Middly.jpg",320,240 F,0,2032,3878,0,1 S,0,2032,98032,0.6283873 F,0,97570,98032,1,0 F,0,99416,99878,0,1 S,0,99878,151570,0.6283873 F,0,144186,147878,1,0
Sprite,Foreground,Centre,"SB/Lyrictemplate.png",320,240 M,0,2032,,574,240 F,0,2032,3878,0,1 S,0,2032,98032,0.6283873 F,0,97570,98032,1,0 M,0,99416,,66,240 F,0,99416,99878,0,1 S,0,99416,151570,0.6283873 F,0,144186,147878,1,0
Sprite,Foreground,Centre,"SB/Lefty.jpg",320,240 M,0,2032,,66,240 F,0,2032,3878,0,1 S,0,2032,98032,0.6283873 F,0,97570,98032,1,0
Sprite,Foreground,Centre,"SB/Righty.jpg",320,240 F,0,99416,99878,0,1 M,0,99878,,574,240 S,0,99878,147878,0.6283873 F,0,144186,147878,1,0 S,0,147878,,0.6283873
Sprite,Foreground,Centre,"SB/Rain.png",320,240 F,0,98032,98262,0,1 F,0,98262,99186,1 F,0,99186,99416,1,0 S,0,99186,99416,0.6283873,1.933162
Sprite,Foreground,Centre,"SB/Lefty.jpg",320,240 M,0,33416,,66,240 F,0,33416,33878,1,0 S,0,33416,33878,0.6283873,0.6944515 F,0,48186,48647,1,0 S,0,48186,48647,0.6283873,0.6944515 F,0,49109,49570,1,0 S,0,49109,49570,0.6283873,0.6944515 F,0,50032,50493,1,0 S,0,50032,50493,0.6283873,0.6944515 F,0,50955,51416,1,0 S,0,50955,51416,0.6283873,0.6944515 F,0,51878,52339,1,0 S,0,51878,52339,0.6283873,0.6944515 F,0,52801,53262,1,0 S,0,52801,53262,0.6283873,0.6944515 F,0,53724,54186,1,0 S,0,53724,54186,0.6283873,0.6944515 F,0,54647,55109,1,0 S,0,54647,55109,0.6283873,0.6944515 F,0,55570,56032,1,0 S,0,55570,56032,0.6283873,0.6944515 F,0,56493,56955,1,0 S,0,56493,56955,0.6283873,0.6944515 F,0,57416,57878,1,0 S,0,57416,57878,0.6283873,0.6944515 F,0,58339,58801,1,0 S,0,58339,58801,0.6283873,0.6944515 F,0,59262,59724,1,0 S,0,59262,59724,0.6283873,0.6944515 F,0,68493,68955,1,0 S,0,68493,68955,0.6283873,0.6944515 F,0,69416,69878,1,0 S,0,69416,69878,0.6283873,0.6944515 F,0,70339,70801,1,0 S,0,70339,70801,0.6283873,0.6944515 F,0,71262,71724,1,0 S,0,71262,71724,0.6283873,0.6944515 F,0,72186,72647,1,0 S,0,72186,72647,0.6283873,0.6944515 F,0,73109,73570,1,0 S,0,73109,73570,0.6283873,0.6944515 F,0,74032,74493,1,0 S,0,74032,74493,0.6283873,0.6944515 F,0,74955,75416,1,0 S,0,74955,75416,0.6283873,0.6944515 F,0,75878,76339,1,0 S,0,75878,76339,0.6283873,0.6944515 F,0,76801,77262,1,0 S,0,76801,77262,0.6283873,0.6944515 F,0,77724,78186,1,0 S,0,77724,78186,0.6283873,0.6944515 F,0,78647,79109,1,0 S,0,78647,79109,0.6283873,0.6944515 F,0,79570,80032,1,0 S,0,79570,80032,0.6283873,0.6944515 F,0,80493,80955,1,0 S,0,80493,80955,0.6283873,0.6944515 F,0,81416,81878,1,0 S,0,81416,81878,0.6283873,0.6944515 F,0,83262,83724,1,0 S,0,83262,83724,0.6283873,0.6944515 F,0,84186,84647,1,0 S,0,84186,84647,0.6283873,0.6944515 F,0,85109,85570,1,0 S,0,85109,85570,0.6283873,0.6944515 F,0,86032,86493,1,0 S,0,86032,86493,0.6283873,0.6944515 F,0,86955,87416,1,0 S,0,86955,87416,0.6283873,0.6944515 F,0,87878,88339,1,0 S,0,87878,88339,0.6283873,0.6944515 F,0,88801,89262,1,0 S,0,88801,89262,0.6283873,0.6944515 F,0,89724,90186,1,0 S,0,89724,90186,0.6283873,0.6944515 F,0,90647,91109,1,0 S,0,90647,91109,0.6283873,0.6944515 F,0,91570,92032,1,0 S,0,91570,92032,0.6283873,0.6944515 F,0,92493,92955,1,0 S,0,92493,92955,0.6283873,0.6944515 F,0,93416,93878,1,0 S,0,93416,93878,0.6283873,0.6944515 F,0,94339,94801,1,0 S,0,94339,94801,0.6283873,0.6944515 F,0,95032,95493,1,0 S,0,95032,95493,0.6283873,0.6944515 F,0,95724,96186,1,0 S,0,95724,96186,0.6283873,0.6944515 F,0,96416,96878,1,0 S,0,96416,96878,0.6283873,0.6944515 F,0,97109,97570,1,0 S,0,97109,97570,0.6283873,0.6944515
Sprite,Foreground,Centre,"SB/flash.png",320,240 C,0,68493,,154,210,204 F,0,68493,68955,1,0 S,0,68493,68955,0.6283873,0.6944515 F,0,69416,69878,1,0 S,0,69416,69878,0.6283873,0.6944515 F,0,70339,70801,1,0 S,0,70339,70801,0.6283873,0.6944515 F,0,71262,71724,1,0 S,0,71262,71724,0.6283873,0.6944515 F,0,72186,72647,1,0 S,0,72186,72647,0.6283873,0.6944515 F,0,73109,73570,1,0 S,0,73109,73570,0.6283873,0.6944515 F,0,74032,74493,1,0 S,0,74032,74493,0.6283873,0.6944515 F,0,74955,75416,1,0 S,0,74955,75416,0.6283873,0.6944515 F,0,75878,76339,1,0 S,0,75878,76339,0.6283873,0.6944515 F,0,76801,77262,1,0 S,0,76801,77262,0.6283873,0.6944515 F,0,77724,78186,1,0 S,0,77724,78186,0.6283873,0.6944515 F,0,78647,79109,1,0 S,0,78647,79109,0.6283873,0.6944515 F,0,79570,80032,1,0 S,0,79570,80032,0.6283873,0.6944515 F,0,80493,80955,1,0 S,0,80493,80955,0.6283873,0.6944515 F,0,81416,81878,1,0 S,0,81416,81878,0.6283873,0.6944515 F,0,83262,83724,1,0 S,0,83262,83724,0.6283873,0.6944515 F,0,84186,84647,1,0 S,0,84186,84647,0.6283873,0.6944515 F,0,85109,85570,1,0 S,0,85109,85570,0.6283873,0.6944515 F,0,86032,86493,1,0 S,0,86032,86493,0.6283873,0.6944515 F,0,86955,87416,1,0 S,0,86955,87416,0.6283873,0.6944515 F,0,87878,88339,1,0 S,0,87878,88339,0.6283873,0.6944515 F,0,88801,89262,1,0 S,0,88801,89262,0.6283873,0.6944515 F,0,89724,90186,1,0 S,0,89724,90186,0.6283873,0.6944515 F,0,90647,91109,1,0 S,0,90647,91109,0.6283873,0.6944515 F,0,91570,92032,1,0 S,0,91570,92032,0.6283873,0.6944515 F,0,92493,92955,1,0 S,0,92493,92955,0.6283873,0.6944515 F,0,93416,93878,1,0 S,0,93416,93878,0.6283873,0.6944515 F,0,94339,94801,1,0 S,0,94339,94801,0.6283873,0.6944515 F,0,95032,95493,1,0 S,0,95032,95493,0.6283873,0.6944515 F,0,95724,96186,1,0 S,0,95724,96186,0.6283873,0.6944515 F,0,96416,96878,1,0 S,0,96416,96878,0.6283873,0.6944515 F,0,97109,97570,1,0 S,0,97109,97570,0.6283873,0.6944515
Sprite,Foreground,Centre,"SB/Righty.jpg",320,240 M,0,107262,,574,240 F,0,107262,107724,1,0 S,0,107262,107724,0.6283873,0.6944515 F,0,108186,108647,1,0 S,0,108186,108647,0.6283873,0.6944515 F,0,109109,109570,1,0 S,0,109109,109570,0.6283873,0.6944515 F,0,110032,110493,1,0 S,0,110032,110493,0.6283873,0.6944515 F,0,110955,111416,1,0 S,0,110955,111416,0.6283873,0.6944515 F,0,111878,112339,1,0 S,0,111878,112339,0.6283873,0.6944515 F,0,112801,113262,1,0 S,0,112801,113262,0.6283873,0.6944515 F,0,113724,114186,1,0 S,0,113724,114186,0.6283873,0.6944515 F,0,114647,115109,1,0 S,0,114647,115109,0.6283873,0.6944515 F,0,115570,116032,1,0 S,0,115570,116032,0.6283873,0.6944515 F,0,116493,116955,1,0 S,0,116493,116955,0.6283873,0.6944515 F,0,117416,117878,1,0 S,0,117416,117878,0.6283873,0.6944515 F,0,118339,118801,1,0 S,0,118339,118801,0.6283873,0.6944515 F,0,119262,119724,1,0 S,0,119262,119724,0.6283873,0.6944515 F,0,120186,120647,1,0 S,0,120186,120647,0.6283873,0.6944515 F,0,121109,121570,1,0 S,0,121109,121570,0.6283873,0.6944515 F,0,122032,122493,1,0 S,0,122032,122493,0.6283873,0.6944515 F,0,122955,123416,1,0 S,0,122955,123416,0.6283873,0.6944515 F,0,123878,124339,1,0 S,0,123878,124339,0.6283873,0.6944515 F,0,124801,125262,1,0 S,0,124801,125262,0.6283873,0.6944515 F,0,125724,126186,1,0 S,0,125724,126186,0.6283873,0.6944515 F,0,126647,127109,1,0 S,0,126647,127109,0.6283873,0.6944515 F,0,127570,128032,1,0 S,0,127570,128032,0.6283873,0.6944515 F,0,128493,128955,1,0 S,0,128493,128955,0.6283873,0.6944515 F,0,129416,129878,1,0 S,0,129416,129878,0.6283873,0.6944515 F,0,130339,130801,1,0 S,0,130339,130801,0.6283873,0.6944515 F,0,131262,131724,1,0 S,0,131262,131724,0.6283873,0.6944515 F,0,132186,132647,1,0 S,0,132186,132647,0.6283873,0.6944515 F,0,133109,133570,1,0 S,0,133109,133570,0.6283873,0.6944515 F,0,134032,134493,1,0 S,0,134032,134493,0.6283873,0.6944515 F,0,134955,135416,1,0 S,0,134955,135416,0.6283873,0.6944515 F,0,135878,136339,1,0 S,0,135878,136339,0.6283873,0.6944515 F,0,136801,137262,1,0 S,0,136801,137262,0.6283873,0.6944515 F,0,137724,138186,1,0 S,0,137724,138186,0.6283873,0.6944515 F,0,138647,139109,1,0 S,0,138647,139109,0.6283873,0.6944515 F,0,139570,140032,1,0 S,0,139570,140032,0.6283873,0.6944515
Sprite,Foreground,Centre,"SB/flash.png",320,240 C,0,114647,,238,185,214 F,0,114647,115109,1,0 S,0,114647,115109,0.6283873,0.6944515 F,0,115570,116032,1,0 S,0,115570,116032,0.6283873,0.6944515 F,0,116493,116955,1,0 S,0,116493,116955,0.6283873,0.6944515 F,0,117416,117878,1,0 S,0,117416,117878,0.6283873,0.6944515 F,0,118339,118801,1,0 S,0,118339,118801,0.6283873,0.6944515 F,0,119262,119724,1,0 S,0,119262,119724,0.6283873,0.6944515 F,0,120186,120647,1,0 S,0,120186,120647,0.6283873,0.6944515 F,0,121109,121570,1,0 S,0,121109,121570,0.6283873,0.6944515 F,0,122032,122493,1,0 S,0,122032,122493,0.6283873,0.6944515 F,0,122955,123416,1,0 S,0,122955,123416,0.6283873,0.6944515 F,0,123878,124339,1,0 S,0,123878,124339,0.6283873,0.6944515 F,0,124801,125262,1,0 S,0,124801,125262,0.6283873,0.6944515 F,0,125724,126186,1,0 S,0,125724,126186,0.6283873,0.6944515 F,0,126647,127109,1,0 S,0,126647,127109,0.6283873,0.6944515 F,0,127570,128032,1,0 S,0,127570,128032,0.6283873,0.6944515 F,0,128493,128955,1,0 S,0,128493,128955,0.6283873,0.6944515 F,0,129416,129878,1,0 S,0,129416,129878,0.6283873,0.6944515 F,0,130339,130801,1,0 S,0,130339,130801,0.6283873,0.6944515 F,0,131262,131724,1,0 S,0,131262,131724,0.6283873,0.6944515 F,0,132186,132647,1,0 S,0,132186,132647,0.6283873,0.6944515 F,0,133109,133570,1,0 S,0,133109,133570,0.6283873,0.6944515 F,0,134032,134493,1,0 S,0,134032,134493,0.6283873,0.6944515 F,0,134955,135416,1,0 S,0,134955,135416,0.6283873,0.6944515 F,0,135878,136339,1,0 S,0,135878,136339,0.6283873,0.6944515 F,0,136801,137262,1,0 S,0,136801,137262,0.6283873,0.6944515 F,0,137724,138186,1,0 S,0,137724,138186,0.6283873,0.6944515 F,0,138647,139109,1,0 S,0,138647,139109,0.6283873,0.6944515 F,0,139570,140032,1,0 S,0,139570,140032,0.6283873,0.6944515
//Storyboard Sound Samples

[TimingPoints]
2032,461.538461538462,4,2,1,40,1,0
18647,-100,4,2,1,45,0,0
33416,-100,4,2,1,50,0,0
48185,-100,4,2,1,55,0,0
68493,-100,4,2,1,60,0,0
107262,-100,4,2,1,55,0,0
114647,-100,4,2,1,60,0,1
140493,-100,4,2,1,60,0,1
141416,-100,4,2,1,55,0,1
142339,-100,4,2,1,50,0,1
143262,-100,4,2,1,45,0,1
144185,-100,4,2,1,40,0,0

[Colours]
Combo1 : 70,247,146
Combo2 : 253,100,176
Combo3 : 255,174,136
Combo4 : 232,148,241

[HitObjects]
256,192,2032,12,6,3878,0:0:0:0:
196,244,5724,37,4,0:0:0:0:
200,264,7570,5,4,0:0:0:0:
204,284,9416,5,4,0:0:0:0:
316,140,11262,5,4,0:0:0:0:
312,120,13108,5,4,0:0:0:0:
308,100,14954,5,4,0:0:0:0:
112,64,16801,5,4,0:0:0:0:
112,64,17724,1,4,0:0:0:0:
112,64,18647,6,0,L|104:164,1,100,4|0,0:0|0:0,0:0:0:0:
176,232,19570,2,0,P|224:222|268:243,1,100
312,332,20493,1,4,0:0:0:0:
212,328,20955,2,0,P|163:337|119:316,1,100
176,232,21878,1,0,0:0:0:0:
231,148,22339,6,0,P|290:104|363:113,2,150,4|0|0,0:0|0:0|0:0,0:0:0:0:
316,200,24186,2,0,P|383:229|411:296,2,150,4|0|0,0:0|0:0|0:0,0:0:0:0:
316,300,26032,6,0,L|216:300,1,100,4|0,0:0|0:0,0:0:0:0:
128,348,26955,2,0,P|112:300|128:256,1,100
84,164,27878,1,4,0:0:0:0:
128,76,28339,2,0,L|227:72,1,100
308,132,29262,1,0,0:0:0:0:
283,228,29724,6,0,P|411:346|497:194,1,400,4|4,0:0|0:0,0:0:0:0:
308,132,32493,1,4,0:0:0:0:
112,164,33416,6,0,L|104:264,1,100,6|0,0:0|0:0,0:0:0:0:
144,356,34339,1,0,0:0:0:0:
240,328,34801,2,0,P|290:324|334:346,2,100,0|4|0,0:0|0:0|0:0,0:0:0:0:
168,260,36186,2,0,L|176:160,1,100
264,112,37109,6,0,P|312:128|360:112,1,100,4|0,0:0|0:0,0:0:0:0:
312,24,38032,1,0,0:0:0:0:
264,112,38493,2,0,L|256:212,2,100,0|4|0,0:0|0:0|0:0,0:0:0:0:
180,60,39878,2,0,P|132:44|84:60,1,100
84,160,40801,6,0,P|132:176|180:160,1,100,4|0,0:0|0:0,0:0:0:0:
264,112,41724,1,0,0:0:0:0:
352,160,42186,2,0,L|344:260,2,100,0|4|0,0:0|0:0|0:0,0:0:0:0:
360,60,43570,2,0,P|409:68|455:50,1,100
500,140,44493,6,0,L|492:240,1,100,4|0,0:0|0:0,0:0:0:0:
404,284,45416,1,0,0:0:0:0:
308,252,45878,2,0,P|258:248|214:270,2,100,0|4|0,0:0|0:0|0:0,0:0:0:0:
404,284,47262,1,0,0:0:0:0:
492,235,47724,1,0,0:0:0:0:
436,152,48186,6,0,P|432:102|454:58,1,100,6|2,0:0|0:0,0:0:0:0:
356,36,49109,2,0,L|256:28,1,100,2|2,0:0|0:0,0:0:0:0:
200,112,50032,2,0,L|100:120,1,100,6|2,0:0|0:0,0:0:0:0:
128,216,50955,2,0,P|144:264|128:312,1,100,2|2,0:0|0:0,0:0:0:0:
28,312,51878,6,0,P|12:264|28:216,1,100,6|2,0:0|0:0,0:0:0:0:
128,216,52801,2,0,L|228:224,1,100,2|2,0:0|0:0,0:0:0:0:
276,312,53724,2,0,L|376:304,1,100,6|2,0:0|0:0,0:0:0:0:
464,352,54647,2,0,P|480:304|464:256,1,100,2|2,0:0|0:0,0:0:0:0:
512,168,55570,6,0,P|464:152|416:168,1,100,6|2,0:0|0:0,0:0:0:0:
330,122,56493,2,0,P|316:169|332:216,1,100,2|2,0:0|0:0,0:0:0:0:
418,166,57416,2,0,P|434:118|418:70,1,100,6|2,0:0|0:0,0:0:0:0:
330,122,58339,2,0,P|283:138|236:124,1,100,2|2,0:0|0:0,0:0:0:0:
140,104,59262,6,0,B|211:55|275:139|226:204|226:204|163:286|163:286|65:263|65:263|-12:244|-20:140|64:132,1,600,6|0,0:0|0:0,0:0:0:0:
256,192,62955,12,8,66648,0:0:0:0:
472,236,68032,5,8,0:0:0:0:
372,236,68493,6,2,P|323:228|276:244,1,100,6|10,0:0|0:0,0:0:0:0:
332,328,69416,2,0,P|381:336|428:320,1,100,2|8,0:0|0:0,0:0:0:0:
471,342,70109,2,2,B|456:296|456:296|484:252|464:200,1,150,2|8,0:1|0:0,0:1:0:0:
504,108,71262,2,0,P|455:100|408:116,1,100,2|8,0:0|0:0,0:0:0:0:
324,168,72186,6,0,P|277:183|228:175,1,100,2|8,0:0|0:0,0:0:0:0:
132,200,73109,2,0,L|140:300,1,100,2|8,0:0|0:0,0:0:0:0:
91,311,73801,2,2,P|27:278|7:208,1,150,2|8,0:1|0:0,0:1:0:0:
36,112,74955,2,0,P|82:96|131:104,1,100,2|8,0:0|0:0,0:0:0:0:
188,187,75878,6,0,P|141:202|92:194,1,100,2|8,0:0|0:0,0:0:0:0:
0,236,76801,2,0,L|8:336,1,100,2|8,0:0|0:0,0:0:0:0:
48,364,77493,2,2,B|94:349|94:349|144:364|144:364|192:354,1,150,2|8,0:1|0:0,0:1:0:0:
256,276,78647,1,2,0:0:0:0:
319,354,79109,1,8,0:0:0:0:
382,275,79570,6,0,L|374:175,1,100,2|8,0:0|0:0,0:0:0:0:
392,128,80262,1,2,0:1:0:0:
248,176,80955,2,0,L|256:276,1,100,2|8,0:0|0:0,0:0:0:0:
238,323,81647,1,2,0:1:0:0:
116,236,82339,2,0,L|108:136,1,100,0|8,0:0|0:0,0:0:0:0:
148,44,83262,6,0,P|99:36|52:52,1,100,6|8,0:0|0:0,0:0:0:0:
12,144,84186,2,0,L|20:244,1,100,2|8,0:0|0:0,0:0:0:0:
80,324,85109,2,0,P|129:332|176:316,1,100,2|8,0:0|0:0,0:0:0:0:
220,340,85801,2,2,B|205:294|205:294|233:250|213:198,1,150,2|8,0:1|0:0,0:1:0:0:
272,116,86955,6,2,L|372:124,1,100,2|8,0:0|0:0,0:1:0:0:
404,160,87647,2,2,B|397:207|397:207|420:254|420:254|419:303,1,150,2|8,0:1|0:0,0:1:0:0:
380,336,88570,2,0,P|331:327|284:343,1,100,2|2,0:1|0:1,0:0:0:0:
244,372,89262,1,8,0:0:0:0:
152,332,89724,2,2,L|144:232,1,100,2|8,0:0|0:0,0:1:0:0:
184,140,90647,6,0,P|135:132|88:148,1,100,2|8,0:0|0:0,0:0:0:0:
144,232,91570,2,0,P|193:240|240:224,1,100,2|8,0:0|0:0,0:0:0:0:
284,248,92262,2,2,B|272:208|284:176|284:176|296:140|285:101,1,150,2|8,0:1|0:0,0:1:0:0:
364,40,93416,2,0,L|464:48,1,100,2|8,0:0|0:0,0:0:0:0:
468,148,94339,6,0,L|460:248,1,100,2|8,0:0|0:0,0:0:0:0:
478,295,95031,1,2,0:1:0:0:
334,247,95724,2,0,L|342:147,1,100,2|8,0:0|0:0,0:0:0:0:
324,100,96416,1,2,0:1:0:0:
202,187,97108,2,0,L|194:287,1,100,2|8,0:0|0:0,0:0:0:0:
124,352,107262,22,0,P|172:368|220:352,1,100,2|2,0:0|0:0,0:0:0:0:
216,252,108186,2,0,P|168:237|122:253,1,100,2|2,0:0|0:0,0:0:0:0:
32,208,109109,2,0,L|40:108,1,100,2|2,0:0|0:0,0:0:0:0:
136,136,110032,2,0,P|183:150|229:134,1,100,2|2,0:0|0:0,0:0:0:0:
327,112,110955,6,0,B|256:63|192:147|241:212|241:212|304:294|304:294|402:271|402:271|479:252|487:148|403:140,1,600,2|2,0:0|0:0,0:0:0:0:
392,40,114186,1,8,0:0:0:0:
296,16,114647,6,0,P|246:17|200:40,1,100,6|8,0:0|0:0,0:0:0:0:
120,96,115570,2,0,P|71:104|24:88,1,100,2|8,0:0|0:0,0:0:0:0:
12,188,116493,2,0,L|20:288,1,100,2|8,0:0|0:0,0:0:0:0:
108,336,117416,1,2,0:0:0:0:
196,288,117878,1,8,0:0:0:0:
284,332,118339,6,0,P|333:340|380:324,1,100,2|8,0:0|0:0,0:0:0:0:
464,380,119262,2,0,P|480:333|472:284,1,100,2|8,0:0|0:0,0:0:0:0:
416,200,120186,2,0,P|408:151|424:104,1,100,2|8,0:0|0:0,0:0:0:0:
480,20,121109,1,2,0:0:0:0:
380,20,121570,1,8,0:0:0:0:
320,100,122032,6,0,L|220:92,1,100,2|8,0:0|0:0,0:0:0:0:
156,168,122955,2,0,P|172:216|156:264,1,100,2|8,0:0|0:0,0:0:0:0:
56,264,123878,2,0,P|40:216|56:168,1,100,2|8,0:0|0:0,0:0:0:0:
104,84,124801,1,2,0:0:0:0:
204,84,125262,1,8,0:0:0:0:
260,168,125724,6,0,P|348:200|424:136,1,200,2|2,0:0|0:0,0:0:0:0:
332,96,127109,1,8,0:0:0:0:
260,168,127570,2,0,L|267:267,1,100,2|8,0:0|0:0,0:0:0:0:
236,364,128493,2,0,P|286:371|330:347,1,100,2|8,0:0|0:0,0:0:0:0:
267,267,129416,6,0,P|218:259|174:282,1,100,6|8,0:0|0:0,0:0:0:0:
80,248,130339,2,0,L|73:149,1,100,2|8,0:0|0:0,0:0:0:0:
68,48,131262,2,0,L|168:56,1,100,2|8,0:0|0:0,0:0:0:0:
256,104,132186,1,2,0:0:0:0:
344,55,132647,1,8,0:0:0:0:
432,104,133109,6,0,P|448:152|432:200,1,100,2|8,0:0|0:0,0:0:0:0:
480,288,134032,2,0,P|432:304|384:288,1,100,2|8,0:0|0:0,0:0:0:0:
296,336,134955,2,0,P|280:288|296:240,1,100,2|8,0:0|0:0,0:0:0:0:
344,156,135878,1,2,0:0:0:0:
284,76,136339,1,8,0:0:0:0:
196,124,136801,6,0,P|147:132|103:109,1,100,2|8,0:0|0:0,0:0:0:0:
20,164,137724,2,0,L|13:263,1,100,2|8,0:0|0:0,0:0:0:0:
48,300,138416,2,0,B|95:293|95:293|142:316|142:316|192:314,1,150,0|8,0:0|0:0,0:0:0:0:
280,364,139570,1,2,0:0:0:0:
380,348,140032,1,8,0:0:0:0:
348,252,140493,6,0,B|346:200|267:154|204:162|183:127|164:82|189:15|243:27|264:31|277:42|277:42|284:27|301:16|351:-9|396:47|395:96|380:137|312:144|254:214|269:266,1,700
324,348,144186,5,6,0:0:0:0:
