osu file format v14

[General]
AudioFilename: RAN - Dekat di Hati (REDSHiFT Remix).mp3
AudioLeadIn: 0
PreviewTime: 67339
Countdown: 0
SampleSet: Normal
StackLeniency: 0.7
Mode: 1
LetterboxInBreaks: 0
WidescreenStoryboard: 0

[Editor]
DistanceSpacing: 1
BeatDivisor: 4
GridSize: 32
TimelineZoom: 1.7

[Metadata]
Title:Dekat di Hati (REDSHiFT Remix)
TitleUnicode:Dekat di Hati (REDSHiFT Remix)
Artist:RAN
ArtistUnicode:RAN
Creator:[ A v a l o n ]
Version:Gen's Muzukashii
Source:
Tags:Del05 Mako Sakata Surono Flying_Pan Volta Genocide PatZar Hatsune Miku feat. Megurine Luka 初音ミク 巡音ルカ Vocaloid Bahasa Indonesia crashtest rikuu powerkid Kuroha AI
BeatmapID:794746
BeatmapSetID:350207

[Difficulty]
HPDrainRate:7
CircleSize:3
OverallDifficulty:4
ApproachRate:9
SliderMultiplier:1.4
SliderTickRate:1

[Events]
//Background and Video events
0,0,"Dekat di hati (REDSHiFT Remix).jpg",0,75
//Break Periods
//Storyboard Layer 0 (Background)
//Storyboard Layer 1 (Fail)
//Storyboard Layer 2 (Pass)
//Storyboard Layer 3 (Foreground)
//Storyboard Sound Samples

[TimingPoints]
2032,461.538461538462,4,1,0,85,1,0
68493,-100,4,1,0,85,0,1
81416,-100,4,1,0,85,0,0
83262,-100,4,1,0,85,0,1
94339,-100,4,1,0,85,0,0
114647,-100,4,1,0,85,0,1
144185,-100,4,1,0,85,0,0

[HitObjects]
256,192,3878,5,4,0:0:0:0:
256,192,4339,1,0,0:0:0:0:
256,192,4570,1,0,0:0:0:0:
256,192,4801,1,8,0:0:0:0:
256,192,5724,1,0,0:0:0:0:
256,192,5955,1,0,0:0:0:0:
256,192,6186,1,8,0:0:0:0:
256,192,6647,1,0,0:0:0:0:
256,192,7109,1,0,0:0:0:0:
256,192,7570,1,8,0:0:0:0:
256,192,8032,1,0,0:0:0:0:
256,192,8262,1,8,0:0:0:0:
256,192,9416,1,0,0:0:0:0:
256,192,11262,1,0,0:0:0:0:
256,192,11724,1,8,0:0:0:0:
256,192,11955,1,8,0:0:0:0:
256,192,12186,1,0,0:0:0:0:
256,192,12647,1,0,0:0:0:0:
256,192,12878,1,8,0:0:0:0:
256,192,13339,1,8,0:0:0:0:
256,192,13570,1,0,0:0:0:0:
256,192,14032,1,8,0:0:0:0:
256,192,14493,1,0,0:0:0:0:
256,192,14955,1,0,0:0:0:0:
256,192,15416,1,8,0:0:0:0:
256,192,15647,1,0,0:0:0:0:
256,192,16801,1,0,0:0:0:0:
256,192,17724,1,0,0:0:0:0:
256,192,18647,1,0,0:0:0:0:
256,192,19108,1,0,0:0:0:0:
256,192,19339,1,0,0:0:0:0:
256,192,19570,1,8,0:0:0:0:
256,192,20493,1,0,0:0:0:0:
256,192,20724,1,0,0:0:0:0:
256,192,20955,1,8,0:0:0:0:
256,192,21416,1,0,0:0:0:0:
256,192,21878,1,0,0:0:0:0:
256,192,22339,1,8,0:0:0:0:
256,192,22801,1,0,0:0:0:0:
256,192,23031,1,8,0:0:0:0:
256,192,24185,1,0,0:0:0:0:
256,192,26031,1,0,0:0:0:0:
256,192,26493,1,8,0:0:0:0:
256,192,26724,1,8,0:0:0:0:
256,192,26955,1,0,0:0:0:0:
256,192,27416,1,0,0:0:0:0:
256,192,27647,1,8,0:0:0:0:
256,192,28108,1,8,0:0:0:0:
256,192,28339,1,0,0:0:0:0:
256,192,28801,1,8,0:0:0:0:
256,192,29262,1,0,0:0:0:0:
256,192,29724,1,0,0:0:0:0:
256,192,31570,1,0,0:0:0:0:
256,192,32493,1,0,0:0:0:0:
256,192,32955,1,0,0:0:0:0:
256,192,33186,1,8,0:0:0:0:
256,192,33416,1,4,0:0:0:0:
256,192,33878,1,0,0:0:0:0:
256,192,34339,1,0,0:0:0:0:
256,192,34801,1,0,0:0:0:0:
256,192,35032,1,8,0:0:0:0:
256,192,35262,1,0,0:0:0:0:
256,192,35724,1,8,0:0:0:0:
256,192,35955,1,8,0:0:0:0:
256,192,36186,1,0,0:0:0:0:
256,192,36647,1,8,0:0:0:0:
256,192,37109,1,0,0:0:0:0:
256,192,37339,1,8,0:0:0:0:
256,192,37570,1,8,0:0:0:0:
256,192,37801,1,0,0:0:0:0:
256,192,38032,1,0,0:0:0:0:
256,192,38493,1,8,0:0:0:0:
256,192,38955,1,0,0:0:0:0:
256,192,39416,1,8,0:0:0:0:
256,192,39647,1,0,0:0:0:0:
256,192,39878,1,8,0:0:0:0:
256,192,40339,1,8,0:0:0:0:
256,192,40801,1,0,0:0:0:0:
256,192,41262,1,0,0:0:0:0:
256,192,41493,1,8,0:0:0:0:
256,192,41724,1,0,0:0:0:0:
256,192,42185,1,8,0:0:0:0:
256,192,42416,1,0,0:0:0:0:
256,192,42647,1,8,0:0:0:0:
256,192,43109,1,0,0:0:0:0:
256,192,43339,1,8,0:0:0:0:
256,192,43570,1,8,0:0:0:0:
256,192,44032,1,8,0:0:0:0:
256,192,44262,1,8,0:0:0:0:
256,192,44493,1,0,0:0:0:0:
256,192,44955,1,0,0:0:0:0:
256,192,45186,1,0,0:0:0:0:
256,192,45647,1,8,0:0:0:0:
256,192,46109,1,0,0:0:0:0:
256,192,46570,1,0,0:0:0:0:
256,192,46801,1,8,0:0:0:0:
256,192,47032,1,0,0:0:0:0:
256,192,47262,1,0,0:0:0:0:
256,192,47724,1,8,0:0:0:0:
256,192,48186,1,0,0:0:0:0:
256,192,48647,1,0,0:0:0:0:
256,192,49109,1,0,0:0:0:0:
256,192,49570,1,0,0:0:0:0:
256,192,50032,1,0,0:0:0:0:
256,192,50493,1,0,0:0:0:0:
256,192,50955,1,0,0:0:0:0:
256,192,51186,1,8,0:0:0:0:
256,192,51416,1,0,0:0:0:0:
256,192,51647,1,0,0:0:0:0:
256,192,51878,1,8,0:0:0:0:
256,192,52339,1,8,0:0:0:0:
256,192,52801,1,8,0:0:0:0:
256,192,53262,1,8,0:0:0:0:
256,192,53724,1,8,0:0:0:0:
256,192,54186,1,8,0:0:0:0:
256,192,54647,1,8,0:0:0:0:
256,192,54878,1,0,0:0:0:0:
256,192,55109,1,8,0:0:0:0:
256,192,55339,1,0,0:0:0:0:
256,192,55570,1,8,0:0:0:0:
256,192,56032,1,0,0:0:0:0:
256,192,56262,1,0,0:0:0:0:
256,192,56493,1,8,0:0:0:0:
256,192,56955,1,0,0:0:0:0:
256,192,57186,1,8,0:0:0:0:
256,192,57416,1,0,0:0:0:0:
256,192,57878,1,8,0:0:0:0:
256,192,58109,1,0,0:0:0:0:
256,192,58339,1,0,0:0:0:0:
256,192,58570,1,8,0:0:0:0:
256,192,58801,1,0,0:0:0:0:
256,192,59032,1,8,0:0:0:0:
256,192,59262,1,0,0:0:0:0:
256,192,59378,1,0,0:0:0:0:
256,192,59493,1,0,0:0:0:0:
256,192,59724,1,8,0:0:0:0:
256,192,60186,1,8,0:0:0:0:
256,192,60416,1,0,0:0:0:0:
256,192,60532,1,0,0:0:0:0:
256,192,60647,1,0,0:0:0:0:
256,192,61109,1,8,0:0:0:0:
256,192,61339,1,0,0:0:0:0:
256,192,61570,1,8,0:0:0:0:
256,192,62032,1,0,0:0:0:0:
256,192,62147,1,0,0:0:0:0:
256,192,62262,1,0,0:0:0:0:
256,192,62493,1,0,0:0:0:0:
256,192,62955,1,8,0:0:0:0:
256,192,63186,1,0,0:0:0:0:
256,192,63416,1,0,0:0:0:0:
256,192,63647,1,0,0:0:0:0:
256,192,63878,1,8,0:0:0:0:
256,192,64109,1,0,0:0:0:0:
256,192,64339,1,0,0:0:0:0:
256,192,64570,1,8,0:0:0:0:
256,192,64801,12,4,66647,0:0:0:0:
256,192,68032,5,12,0:0:0:0:
256,192,68493,1,4,0:0:0:0:
256,192,68955,1,0,0:0:0:0:
256,192,69416,1,8,0:0:0:0:
256,192,69647,1,0,0:0:0:0:
256,192,69762,1,0,0:0:0:0:
256,192,69878,1,0,0:0:0:0:
256,192,70109,1,0,0:0:0:0:
256,192,70339,1,8,0:0:0:0:
256,192,70801,1,0,0:0:0:0:
256,192,71262,1,8,0:0:0:0:
256,192,71493,1,0,0:0:0:0:
256,192,71609,1,0,0:0:0:0:
256,192,71955,1,8,0:0:0:0:
256,192,72186,1,0,0:0:0:0:
256,192,72647,1,0,0:0:0:0:
256,192,73109,1,8,0:0:0:0:
256,192,73339,1,0,0:0:0:0:
256,192,73455,1,0,0:0:0:0:
256,192,73801,1,8,0:0:0:0:
256,192,74032,1,0,0:0:0:0:
256,192,74493,1,0,0:0:0:0:
256,192,74955,1,8,0:0:0:0:
256,192,75186,1,8,0:0:0:0:
256,192,75416,1,0,0:0:0:0:
256,192,75647,1,8,0:0:0:0:
256,192,75878,1,0,0:0:0:0:
256,192,76339,1,0,0:0:0:0:
256,192,76801,1,8,0:0:0:0:
256,192,77032,1,0,0:0:0:0:
256,192,77147,1,0,0:0:0:0:
256,192,77493,1,0,0:0:0:0:
256,192,77724,1,8,0:0:0:0:
256,192,78186,1,0,0:0:0:0:
256,192,78647,1,8,0:0:0:0:
256,192,78878,1,0,0:0:0:0:
256,192,79339,1,8,0:0:0:0:
256,192,79570,1,0,0:0:0:0:
256,192,79801,1,0,0:0:0:0:
256,192,79916,1,0,0:0:0:0:
256,192,80032,1,0,0:0:0:0:
256,192,80262,1,8,0:0:0:0:
256,192,80724,1,8,0:0:0:0:
256,192,80839,1,8,0:0:0:0:
256,192,80955,1,8,0:0:0:0:
256,192,81185,1,0,0:0:0:0:
256,192,81301,1,0,0:0:0:0:
256,192,81416,1,0,0:0:0:0:
256,192,81647,1,8,0:0:0:0:
256,192,82801,1,12,0:0:0:0:
256,192,83262,1,4,0:0:0:0:
256,192,83724,1,0,0:0:0:0:
256,192,84186,1,0,0:0:0:0:
256,192,84416,1,0,0:0:0:0:
256,192,84532,1,0,0:0:0:0:
256,192,84647,1,0,0:0:0:0:
256,192,84878,1,8,0:0:0:0:
256,192,85109,1,0,0:0:0:0:
256,192,85570,1,0,0:0:0:0:
256,192,86032,1,8,0:0:0:0:
256,192,86262,1,8,0:0:0:0:
256,192,86493,1,0,0:0:0:0:
256,192,86724,1,8,0:0:0:0:
256,192,86955,1,0,0:0:0:0:
256,192,87416,1,0,0:0:0:0:
256,192,87878,1,8,0:0:0:0:
256,192,88109,1,0,0:0:0:0:
256,192,88224,1,0,0:0:0:0:
256,192,88339,1,0,0:0:0:0:
256,192,88570,1,8,0:0:0:0:
256,192,88801,1,0,0:0:0:0:
256,192,89262,1,8,0:0:0:0:
256,192,89724,1,0,0:0:0:0:
256,192,89839,1,0,0:0:0:0:
256,192,89955,1,0,0:0:0:0:
256,192,90070,1,0,0:0:0:0:
256,192,90186,1,0,0:0:0:0:
256,192,90647,1,0,0:0:0:0:
256,192,91109,1,8,0:0:0:0:
256,192,91570,1,0,0:0:0:0:
256,192,91801,1,0,0:0:0:0:
256,192,92032,1,8,0:0:0:0:
256,192,92493,1,0,0:0:0:0:
256,192,92955,1,8,0:0:0:0:
256,192,93416,1,0,0:0:0:0:
256,192,93532,1,0,0:0:0:0:
256,192,93647,1,0,0:0:0:0:
256,192,93878,1,8,0:0:0:0:
256,192,94339,1,0,0:0:0:0:
256,192,95032,1,0,0:0:0:0:
256,192,95724,1,0,0:0:0:0:
256,192,96416,1,0,0:0:0:0:
256,192,97109,1,0,0:0:0:0:
256,192,99416,1,8,0:0:0:0:
256,192,99878,1,4,0:0:0:0:
256,192,100339,1,0,0:0:0:0:
256,192,100801,1,0,0:0:0:0:
256,192,101262,1,0,0:0:0:0:
256,192,101724,1,0,0:0:0:0:
256,192,102186,1,0,0:0:0:0:
256,192,102416,1,8,0:0:0:0:
256,192,102647,1,0,0:0:0:0:
256,192,103109,1,0,0:0:0:0:
256,192,103339,1,8,0:0:0:0:
256,192,103570,1,0,0:0:0:0:
256,192,104032,1,0,0:0:0:0:
256,192,104493,1,0,0:0:0:0:
256,192,104724,1,8,0:0:0:0:
256,192,105186,1,0,0:0:0:0:
256,192,105416,1,0,0:0:0:0:
256,192,105878,1,0,0:0:0:0:
256,192,106339,1,0,0:0:0:0:
256,192,106570,1,8,0:0:0:0:
256,192,106801,1,0,0:0:0:0:
256,192,107262,1,8,0:0:0:0:
256,192,107724,1,8,0:0:0:0:
256,192,108186,1,8,0:0:0:0:
256,192,108647,1,8,0:0:0:0:
256,192,108878,1,0,0:0:0:0:
256,192,109109,1,8,0:0:0:0:
256,192,109339,1,0,0:0:0:0:
256,192,109570,1,8,0:0:0:0:
256,192,110032,1,8,0:0:0:0:
256,192,110262,1,0,0:0:0:0:
256,192,110493,1,8,0:0:0:0:
256,192,110955,1,0,0:0:0:0:
256,192,111186,1,0,0:0:0:0:
256,192,111416,1,8,0:0:0:0:
256,192,111647,1,8,0:0:0:0:
256,192,111878,1,0,0:0:0:0:
256,192,112108,1,8,0:0:0:0:
256,192,112570,1,8,0:0:0:0:
256,192,112801,1,8,0:0:0:0:
256,192,112916,1,8,0:0:0:0:
256,192,113032,1,8,0:0:0:0:
256,192,113262,1,0,0:0:0:0:
256,192,113493,1,8,0:0:0:0:
256,192,113724,1,0,0:0:0:0:
256,192,113839,1,0,0:0:0:0:
256,192,113955,1,0,0:0:0:0:
256,192,114185,1,8,0:0:0:0:
256,192,114647,1,4,0:0:0:0:
256,192,115109,1,0,0:0:0:0:
256,192,115339,1,0,0:0:0:0:
256,192,115570,1,8,0:0:0:0:
256,192,115801,1,0,0:0:0:0:
256,192,116032,1,0,0:0:0:0:
256,192,116262,1,8,0:0:0:0:
256,192,116724,1,8,0:0:0:0:
256,192,116955,1,0,0:0:0:0:
256,192,117416,1,0,0:0:0:0:
256,192,117647,1,0,0:0:0:0:
256,192,117878,1,8,0:0:0:0:
256,192,118339,1,0,0:0:0:0:
256,192,118570,1,0,0:0:0:0:
256,192,118801,1,8,0:0:0:0:
256,192,119032,1,8,0:0:0:0:
256,192,119262,1,0,0:0:0:0:
256,192,119724,1,0,0:0:0:0:
256,192,119955,1,8,0:0:0:0:
256,192,120186,1,8,0:0:0:0:
256,192,120416,1,0,0:0:0:0:
256,192,120647,1,0,0:0:0:0:
256,192,120878,1,8,0:0:0:0:
256,192,121109,1,0,0:0:0:0:
256,192,121570,1,8,0:0:0:0:
256,192,122032,1,8,0:0:0:0:
256,192,122147,1,8,0:0:0:0:
256,192,122262,1,8,0:0:0:0:
256,192,122493,1,0,0:0:0:0:
256,192,122724,1,8,0:0:0:0:
256,192,122955,1,0,0:0:0:0:
256,192,123416,1,0,0:0:0:0:
256,192,123647,1,8,0:0:0:0:
256,192,124109,1,8,0:0:0:0:
256,192,124339,1,0,0:0:0:0:
256,192,124801,1,0,0:0:0:0:
256,192,125032,1,0,0:0:0:0:
256,192,125262,1,8,0:0:0:0:
256,192,125493,1,8,0:0:0:0:
256,192,125724,1,0,0:0:0:0:
256,192,126186,1,0,0:0:0:0:
256,192,126647,1,0,0:0:0:0:
256,192,126878,1,8,0:0:0:0:
256,192,127339,1,8,0:0:0:0:
256,192,127801,1,8,0:0:0:0:
256,192,128032,1,0,0:0:0:0:
256,192,128493,1,0,0:0:0:0:
256,192,128955,1,8,0:0:0:0:
256,192,129416,1,4,0:0:0:0:
256,192,129878,1,0,0:0:0:0:
256,192,130109,1,8,0:0:0:0:
256,192,130339,1,8,0:0:0:0:
256,192,130801,1,8,0:0:0:0:
256,192,131032,1,0,0:0:0:0:
256,192,131493,1,0,0:0:0:0:
256,192,131724,1,8,0:0:0:0:
256,192,131955,1,8,0:0:0:0:
256,192,132186,1,0,0:0:0:0:
256,192,132416,1,0,0:0:0:0:
256,192,132532,1,0,0:0:0:0:
256,192,132647,1,0,0:0:0:0:
256,192,132878,1,8,0:0:0:0:
256,192,133109,1,0,0:0:0:0:
256,192,133571,1,0,0:0:0:0:
256,192,133801,1,0,0:0:0:0:
256,192,134032,1,8,0:0:0:0:
256,192,134263,1,0,0:0:0:0:
256,192,134493,1,0,0:0:0:0:
256,192,134724,1,8,0:0:0:0:
256,192,135186,1,0,0:0:0:0:
256,192,135416,1,8,0:0:0:0:
256,192,135647,1,8,0:0:0:0:
256,192,135878,1,0,0:0:0:0:
256,192,136109,1,0,0:0:0:0:
256,192,136339,1,8,0:0:0:0:
256,192,136802,1,0,0:0:0:0:
256,192,137032,1,0,0:0:0:0:
256,192,137262,1,8,0:0:0:0:
256,192,137493,1,8,0:0:0:0:
256,192,137724,1,0,0:0:0:0:
256,192,138186,1,8,0:0:0:0:
256,192,138416,1,0,0:0:0:0:
256,192,139109,1,8,0:0:0:0:
256,192,139339,1,0,0:0:0:0:
256,192,139570,1,8,0:0:0:0:
256,192,139801,1,8,0:0:0:0:
256,192,140032,1,0,0:0:0:0:
256,192,140262,1,8,0:0:0:0:
256,192,140493,12,0,144186,0:0:0:0:
