osu file format v14

[General]
AudioFilename: RAN - Dekat di Hati (REDSHiFT Remix).mp3
AudioLeadIn: 0
PreviewTime: 67339
Countdown: 0
SampleSet: Soft
StackLeniency: 0.7
Mode: 0
LetterboxInBreaks: 0
EpilepsyWarning: 1
WidescreenStoryboard: 1

[Editor]
Bookmarks: 18633,33402,48172,59248,83248,98018,129402
DistanceSpacing: 1
BeatDivisor: 4
GridSize: 4
TimelineZoom: 1.7

[Metadata]
Title:Dekat di Hati (REDSHiFT Remix)
TitleUnicode:Dekat di Hati (REDSHiFT Remix)
Artist:RAN
ArtistUnicode:RAN
Creator:[ A v a l o n ]
Version:Del's Normal
Source:
Tags:Del05 Mako Sakata Surono Flying_Pan Volta Genocide PatZar Hatsune Miku feat. Megurine Luka 初音ミク 巡音ルカ Vocaloid Bahasa Indonesia crashtest rikuu powerkid Kuroha AI
BeatmapID:813622
BeatmapSetID:350207

[Difficulty]
HPDrainRate:3.5
CircleSize:3.5
OverallDifficulty:4
ApproachRate:5
SliderMultiplier:1.2
SliderTickRate:1

[Events]
//Background and Video events
0,0,"Dekat di hati (REDSHiFT Remix).jpg",0,0
//Break Periods
2,63154,66832
//Storyboard Layer 0 (Background)
Sprite,Background,TopLeft,"Dekat di hati (REDSHiFT Remix).jpg",320,240 F,0,14,,0 S,0,14,151570,0.6861936
//Storyboard Layer 1 (Fail)
//Storyboard Layer 2 (Pass)
//Storyboard Layer 3 (Foreground)
Sprite,Foreground,Centre,"SB/Lyric1.png",320,240 S,0,3762,,0.6861935 F,0,3762,3993,0,1 M,0,3762,10339,927,458,100,458
Sprite,Foreground,Centre,"SB/Lyric2.png",320,240 S,0,11147,,0.6861935 F,0,11147,11378,0,1 M,0,11147,17724,921,458,94,458
Sprite,Foreground,Centre,"SB/Lyric3.png",320,240 S,0,18532,,0.6861935 F,0,18532,18762,0,1 M,0,18532,25109,900,458,27,458
Sprite,Foreground,Centre,"SB/Lyric4.png",320,240 S,0,25916,,0.6861935 F,0,25916,26147,0,1 M,0,25916,32493,875,458,48,458
Sprite,Foreground,Centre,"SB/Lyric5.png",320,240 S,0,33301,,0.6861935 F,0,33301,33532,0,1 M,0,33301,36186,807,458,350,458
Sprite,Foreground,Centre,"SB/Lyric6.png",320,240 S,0,36993,,0.6861935 F,0,36993,37224,0,1 M,0,36993,39878,810,458,345,458
Sprite,Foreground,Centre,"SB/Lyric7.png",320,240 S,0,40686,,0.6861935 F,0,40686,40916,0,1 M,0,40686,47262,927,458,100,458
Sprite,Foreground,Centre,"SB/Lyric8.png",320,240 S,0,48070,,0.6861935 F,0,48070,48301,0,1 M,0,48070,50955,805,458,348,458
Sprite,Foreground,Centre,"SB/Lyric9.png",320,240 S,0,51762,,0.6861935 F,0,51762,51993,0,1 M,0,51762,54647,850,458,310,458
Sprite,Foreground,Centre,"SB/Lyric10.png",320,240 S,0,55455,,0.6861935 F,0,55455,55686,0,1 M,0,55455,57416,787,458,380,458
Sprite,Foreground,Centre,"SB/Lyric11.png",320,240 S,0,57993,,0.6861935 F,0,57993,58224,0,1 M,0,57993,61109,744,458,300,458 S,0,67224,,0.6861935 F,0,67224,67455,0,1 M,0,67224,70339,744,458,300,458 S,0,81993,,0.6861935 F,0,81993,82224,0,1 M,0,81993,85109,744,458,300,458
Sprite,Foreground,Centre,"SB/Lyric1b.png",320,240 S,0,99762,,0.6861935 F,0,99762,99993,0,1 M,0,99762,106339,419,458,-408,458
Sprite,Foreground,Centre,"SB/Lyric4b.png",320,240 S,0,107147,,0.6861935 F,0,107147,107378,0,1 M,0,107147,113724,366,458,-461,458
Sprite,Foreground,Centre,"SB/Lyric5b.png",320,240 S,0,114532,,0.6861935 F,0,114532,114762,0,1 M,0,114532,117416,299,458,-158,458
Sprite,Foreground,Centre,"SB/Lyric6b.png",320,240 S,0,118224,,0.6861935 F,0,118224,118455,0,1 M,0,118224,121109,303,458,-162,458
Sprite,Foreground,Centre,"SB/Lyric7b.png",320,240 S,0,121916,,0.6861935 F,0,121916,122147,0,1 M,0,121916,128493,419,458,-408,458
Sprite,Foreground,Centre,"SB/Lyric8b.png",320,240 S,0,129301,,0.6861935 F,0,129301,129532,0,1 M,0,129301,132186,298,458,-159,458
Sprite,Foreground,Centre,"SB/Lyric9b.png",320,240 S,0,132993,,0.6861935 F,0,132993,133224,0,1 M,0,132993,135878,343,458,-197,458
Sprite,Foreground,Centre,"SB/Lyric10b.png",320,240 S,0,136686,,0.6861935 F,0,136686,136916,0,1 M,0,136686,138647,279,458,-128,458
Sprite,Foreground,Centre,"SB/Lyric11b.png",320,240 S,0,139224,,0.6861935 F,0,139224,139455,0,1 M,0,139224,144186,228,458,-160,458
Sprite,Foreground,Centre,"SB/Middly.jpg",320,240 F,0,2032,3878,0,1 S,0,2032,98032,0.6283873 F,0,97570,98032,1,0 F,0,99416,99878,0,1 S,0,99878,151570,0.6283873 F,0,144186,147878,1,0
Sprite,Foreground,Centre,"SB/Lyrictemplate.png",320,240 M,0,2032,,574,240 F,0,2032,3878,0,1 S,0,2032,98032,0.6283873 F,0,97570,98032,1,0 M,0,99416,,66,240 F,0,99416,99878,0,1 S,0,99416,151570,0.6283873 F,0,144186,147878,1,0
Sprite,Foreground,Centre,"SB/Lefty.jpg",320,240 M,0,2032,,66,240 F,0,2032,3878,0,1 S,0,2032,98032,0.6283873 F,0,97570,98032,1,0
Sprite,Foreground,Centre,"SB/Righty.jpg",320,240 F,0,99416,99878,0,1 M,0,99878,,574,240 S,0,99878,147878,0.6283873 F,0,144186,147878,1,0 S,0,147878,,0.6283873
Sprite,Foreground,Centre,"SB/Rain.png",320,240 F,0,98032,98262,0,1 F,0,98262,99186,1 F,0,99186,99416,1,0 S,0,99186,99416,0.6283873,1.933162
Sprite,Foreground,Centre,"SB/Lefty.jpg",320,240 M,0,33416,,66,240 F,0,33416,33878,1,0 S,0,33416,33878,0.6283873,0.6944515 F,0,48186,48647,1,0 S,0,48186,48647,0.6283873,0.6944515 F,0,49109,49570,1,0 S,0,49109,49570,0.6283873,0.6944515 F,0,50032,50493,1,0 S,0,50032,50493,0.6283873,0.6944515 F,0,50955,51416,1,0 S,0,50955,51416,0.6283873,0.6944515 F,0,51878,52339,1,0 S,0,51878,52339,0.6283873,0.6944515 F,0,52801,53262,1,0 S,0,52801,53262,0.6283873,0.6944515 F,0,53724,54186,1,0 S,0,53724,54186,0.6283873,0.6944515 F,0,54647,55109,1,0 S,0,54647,55109,0.6283873,0.6944515 F,0,55570,56032,1,0 S,0,55570,56032,0.6283873,0.6944515 F,0,56493,56955,1,0 S,0,56493,56955,0.6283873,0.6944515 F,0,57416,57878,1,0 S,0,57416,57878,0.6283873,0.6944515 F,0,58339,58801,1,0 S,0,58339,58801,0.6283873,0.6944515 F,0,59262,59724,1,0 S,0,59262,59724,0.6283873,0.6944515 F,0,68493,68955,1,0 S,0,68493,68955,0.6283873,0.6944515 F,0,69416,69878,1,0 S,0,69416,69878,0.6283873,0.6944515 F,0,70339,70801,1,0 S,0,70339,70801,0.6283873,0.6944515 F,0,71262,71724,1,0 S,0,71262,71724,0.6283873,0.6944515 F,0,72186,72647,1,0 S,0,72186,72647,0.6283873,0.6944515 F,0,73109,73570,1,0 S,0,73109,73570,0.6283873,0.6944515 F,0,74032,74493,1,0 S,0,74032,74493,0.6283873,0.6944515 F,0,74955,75416,1,0 S,0,74955,75416,0.6283873,0.6944515 F,0,75878,76339,1,0 S,0,75878,76339,0.6283873,0.6944515 F,0,76801,77262,1,0 S,0,76801,77262,0.6283873,0.6944515 F,0,77724,78186,1,0 S,0,77724,78186,0.6283873,0.6944515 F,0,78647,79109,1,0 S,0,78647,79109,0.6283873,0.6944515 F,0,79570,80032,1,0 S,0,79570,80032,0.6283873,0.6944515 F,0,80493,80955,1,0 S,0,80493,80955,0.6283873,0.6944515 F,0,81416,81878,1,0 S,0,81416,81878,0.6283873,0.6944515 F,0,83262,83724,1,0 S,0,83262,83724,0.6283873,0.6944515 F,0,84186,84647,1,0 S,0,84186,84647,0.6283873,0.6944515 F,0,85109,85570,1,0 S,0,85109,85570,0.6283873,0.6944515 F,0,86032,86493,1,0 S,0,86032,86493,0.6283873,0.6944515 F,0,86955,87416,1,0 S,0,86955,87416,0.6283873,0.6944515 F,0,87878,88339,1,0 S,0,87878,88339,0.6283873,0.6944515 F,0,88801,89262,1,0 S,0,88801,89262,0.6283873,0.6944515 F,0,89724,90186,1,0 S,0,89724,90186,0.6283873,0.6944515 F,0,90647,91109,1,0 S,0,90647,91109,0.6283873,0.6944515 F,0,91570,92032,1,0 S,0,91570,92032,0.6283873,0.6944515 F,0,92493,92955,1,0 S,0,92493,92955,0.6283873,0.6944515 F,0,93416,93878,1,0 S,0,93416,93878,0.6283873,0.6944515 F,0,94339,94801,1,0 S,0,94339,94801,0.6283873,0.6944515 F,0,95032,95493,1,0 S,0,95032,95493,0.6283873,0.6944515 F,0,95724,96186,1,0 S,0,95724,96186,0.6283873,0.6944515 F,0,96416,96878,1,0 S,0,96416,96878,0.6283873,0.6944515 F,0,97109,97570,1,0 S,0,97109,97570,0.6283873,0.6944515
Sprite,Foreground,Centre,"SB/flash.png",320,240 C,0,68493,,154,210,204 F,0,68493,68955,1,0 S,0,68493,68955,0.6283873,0.6944515 F,0,69416,69878,1,0 S,0,69416,69878,0.6283873,0.6944515 F,0,70339,70801,1,0 S,0,70339,70801,0.6283873,0.6944515 F,0,71262,71724,1,0 S,0,71262,71724,0.6283873,0.6944515 F,0,72186,72647,1,0 S,0,72186,72647,0.6283873,0.6944515 F,0,73109,73570,1,0 S,0,73109,73570,0.6283873,0.6944515 F,0,74032,74493,1,0 S,0,74032,74493,0.6283873,0.6944515 F,0,74955,75416,1,0 S,0,74955,75416,0.6283873,0.6944515 F,0,75878,76339,1,0 S,0,75878,76339,0.6283873,0.6944515 F,0,76801,77262,1,0 S,0,76801,77262,0.6283873,0.6944515 F,0,77724,78186,1,0 S,0,77724,78186,0.6283873,0.6944515 F,0,78647,79109,1,0 S,0,78647,79109,0.6283873,0.6944515 F,0,79570,80032,1,0 S,0,79570,80032,0.6283873,0.6944515 F,0,80493,80955,1,0 S,0,80493,80955,0.6283873,0.6944515 F,0,81416,81878,1,0 S,0,81416,81878,0.6283873,0.6944515 F,0,83262,83724,1,0 S,0,83262,83724,0.6283873,0.6944515 F,0,84186,84647,1,0 S,0,84186,84647,0.6283873,0.6944515 F,0,85109,85570,1,0 S,0,85109,85570,0.6283873,0.6944515 F,0,86032,86493,1,0 S,0,86032,86493,0.6283873,0.6944515 F,0,86955,87416,1,0 S,0,86955,87416,0.6283873,0.6944515 F,0,87878,88339,1,0 S,0,87878,88339,0.6283873,0.6944515 F,0,88801,89262,1,0 S,0,88801,89262,0.6283873,0.6944515 F,0,89724,90186,1,0 S,0,89724,90186,0.6283873,0.6944515 F,0,90647,91109,1,0 S,0,90647,91109,0.6283873,0.6944515 F,0,91570,92032,1,0 S,0,91570,92032,0.6283873,0.6944515 F,0,92493,92955,1,0 S,0,92493,92955,0.6283873,0.6944515 F,0,93416,93878,1,0 S,0,93416,93878,0.6283873,0.6944515 F,0,94339,94801,1,0 S,0,94339,94801,0.6283873,0.6944515 F,0,95032,95493,1,0 S,0,95032,95493,0.6283873,0.6944515 F,0,95724,96186,1,0 S,0,95724,96186,0.6283873,0.6944515 F,0,96416,96878,1,0 S,0,96416,96878,0.6283873,0.6944515 F,0,97109,97570,1,0 S,0,97109,97570,0.6283873,0.6944515
Sprite,Foreground,Centre,"SB/Righty.jpg",320,240 M,0,107262,,574,240 F,0,107262,107724,1,0 S,0,107262,107724,0.6283873,0.6944515 F,0,108186,108647,1,0 S,0,108186,108647,0.6283873,0.6944515 F,0,109109,109570,1,0 S,0,109109,109570,0.6283873,0.6944515 F,0,110032,110493,1,0 S,0,110032,110493,0.6283873,0.6944515 F,0,110955,111416,1,0 S,0,110955,111416,0.6283873,0.6944515 F,0,111878,112339,1,0 S,0,111878,112339,0.6283873,0.6944515 F,0,112801,113262,1,0 S,0,112801,113262,0.6283873,0.6944515 F,0,113724,114186,1,0 S,0,113724,114186,0.6283873,0.6944515 F,0,114647,115109,1,0 S,0,114647,115109,0.6283873,0.6944515 F,0,115570,116032,1,0 S,0,115570,116032,0.6283873,0.6944515 F,0,116493,116955,1,0 S,0,116493,116955,0.6283873,0.6944515 F,0,117416,117878,1,0 S,0,117416,117878,0.6283873,0.6944515 F,0,118339,118801,1,0 S,0,118339,118801,0.6283873,0.6944515 F,0,119262,119724,1,0 S,0,119262,119724,0.6283873,0.6944515 F,0,120186,120647,1,0 S,0,120186,120647,0.6283873,0.6944515 F,0,121109,121570,1,0 S,0,121109,121570,0.6283873,0.6944515 F,0,122032,122493,1,0 S,0,122032,122493,0.6283873,0.6944515 F,0,122955,123416,1,0 S,0,122955,123416,0.6283873,0.6944515 F,0,123878,124339,1,0 S,0,123878,124339,0.6283873,0.6944515 F,0,124801,125262,1,0 S,0,124801,125262,0.6283873,0.6944515 F,0,125724,126186,1,0 S,0,125724,126186,0.6283873,0.6944515 F,0,126647,127109,1,0 S,0,126647,127109,0.6283873,0.6944515 F,0,127570,128032,1,0 S,0,127570,128032,0.6283873,0.6944515 F,0,128493,128955,1,0 S,0,128493,128955,0.6283873,0.6944515 F,0,129416,129878,1,0 S,0,129416,129878,0.6283873,0.6944515 F,0,130339,130801,1,0 S,0,130339,130801,0.6283873,0.6944515 F,0,131262,131724,1,0 S,0,131262,131724,0.6283873,0.6944515 F,0,132186,132647,1,0 S,0,132186,132647,0.6283873,0.6944515 F,0,133109,133570,1,0 S,0,133109,133570,0.6283873,0.6944515 F,0,134032,134493,1,0 S,0,134032,134493,0.6283873,0.6944515 F,0,134955,135416,1,0 S,0,134955,135416,0.6283873,0.6944515 F,0,135878,136339,1,0 S,0,135878,136339,0.6283873,0.6944515 F,0,136801,137262,1,0 S,0,136801,137262,0.6283873,0.6944515 F,0,137724,138186,1,0 S,0,137724,138186,0.6283873,0.6944515 F,0,138647,139109,1,0 S,0,138647,139109,0.6283873,0.6944515 F,0,139570,140032,1,0 S,0,139570,140032,0.6283873,0.6944515
Sprite,Foreground,Centre,"SB/flash.png",320,240 C,0,114647,,238,185,214 F,0,114647,115109,1,0 S,0,114647,115109,0.6283873,0.6944515 F,0,115570,116032,1,0 S,0,115570,116032,0.6283873,0.6944515 F,0,116493,116955,1,0 S,0,116493,116955,0.6283873,0.6944515 F,0,117416,117878,1,0 S,0,117416,117878,0.6283873,0.6944515 F,0,118339,118801,1,0 S,0,118339,118801,0.6283873,0.6944515 F,0,119262,119724,1,0 S,0,119262,119724,0.6283873,0.6944515 F,0,120186,120647,1,0 S,0,120186,120647,0.6283873,0.6944515 F,0,121109,121570,1,0 S,0,121109,121570,0.6283873,0.6944515 F,0,122032,122493,1,0 S,0,122032,122493,0.6283873,0.6944515 F,0,122955,123416,1,0 S,0,122955,123416,0.6283873,0.6944515 F,0,123878,124339,1,0 S,0,123878,124339,0.6283873,0.6944515 F,0,124801,125262,1,0 S,0,124801,125262,0.6283873,0.6944515 F,0,125724,126186,1,0 S,0,125724,126186,0.6283873,0.6944515 F,0,126647,127109,1,0 S,0,126647,127109,0.6283873,0.6944515 F,0,127570,128032,1,0 S,0,127570,128032,0.6283873,0.6944515 F,0,128493,128955,1,0 S,0,128493,128955,0.6283873,0.6944515 F,0,129416,129878,1,0 S,0,129416,129878,0.6283873,0.6944515 F,0,130339,130801,1,0 S,0,130339,130801,0.6283873,0.6944515 F,0,131262,131724,1,0 S,0,131262,131724,0.6283873,0.6944515 F,0,132186,132647,1,0 S,0,132186,132647,0.6283873,0.6944515 F,0,133109,133570,1,0 S,0,133109,133570,0.6283873,0.6944515 F,0,134032,134493,1,0 S,0,134032,134493,0.6283873,0.6944515 F,0,134955,135416,1,0 S,0,134955,135416,0.6283873,0.6944515 F,0,135878,136339,1,0 S,0,135878,136339,0.6283873,0.6944515 F,0,136801,137262,1,0 S,0,136801,137262,0.6283873,0.6944515 F,0,137724,138186,1,0 S,0,137724,138186,0.6283873,0.6944515 F,0,138647,139109,1,0 S,0,138647,139109,0.6283873,0.6944515 F,0,139570,140032,1,0 S,0,139570,140032,0.6283873,0.6944515
//Storyboard Sound Samples

[TimingPoints]
2032,461.538461538462,4,2,1,25,1,0
3878,-100,4,2,1,30,0,0
18647,-100,4,2,1,35,0,0
33416,-100,4,2,1,40,0,0
59262,-100,4,2,1,45,0,0
59724,-100,4,2,1,46,0,0
60185,-100,4,2,1,47,0,0
60647,-100,4,2,1,48,0,0
61108,-100,4,2,1,49,0,0
61570,-100,4,2,1,50,0,0
68493,-100,4,2,1,55,0,0
99878,-100,4,2,1,45,0,0
107262,-100,4,2,1,55,0,0
110955,-100,4,2,1,56,0,0
111878,-100,4,2,1,57,0,0
112801,-100,4,2,1,58,0,0
113724,-100,4,2,1,59,0,0
114647,-100,4,2,1,60,0,1
140032,-100,4,2,1,61,0,1
140493,-100,4,2,1,62,0,1
140955,-100,4,2,1,63,0,1
141416,-100,4,2,1,64,0,1
141878,-100,4,2,1,65,0,1
142339,-100,4,2,1,66,0,1
142801,-100,4,2,1,67,0,1
143262,-100,4,2,1,68,0,1
143724,-100,4,2,1,69,0,1
144185,-100,4,2,1,70,0,0

[Colours]
Combo1 : 70,247,146
Combo2 : 253,100,176
Combo3 : 255,174,136
Combo4 : 232,148,241

[HitObjects]
75,48,3878,6,0,P|141:201|306:173,1,360,6|0,0:0|0:0,0:0:0:0:
210,98,5724,6,0,P|220:261|384:268,1,360,4|0,0:0|0:0,0:0:0:0:
456,172,7570,6,0,B|480:100|444:52|372:52|372:52|280:56|280:56|268:28|216:0|172:28|172:28,1,390,4|0,0:0|0:0,0:0:0:0:
96,92,9416,6,0,B|56:132|56:132|32:188|64:248|164:236|164:236|128:304|184:356,1,360,4|0,0:0|0:0,0:0:0:0:
296,348,11262,6,0,B|338:310|302:242|302:242|402:254|434:194|410:138|410:138|370:98,1,360,4|0,0:0|0:0,0:0:0:0:
272,32,13109,6,0,B|184:68|112:25|112:25|32:72|48:152|48:152|88:176,1,360,4|0,0:0|0:0,0:0:0:0:
172,264,14955,6,0,B|260:228|332:271|332:271|412:224|396:144|396:144|356:120,1,360,4|0,0:0|0:0,0:0:0:0:
236,140,16801,6,0,P|250:60|330:-1,1,180,4|0,0:0|0:0,0:0:0:0:
384,0,17724,2,0,P|454:53|471:139,1,180,4|0,0:0|0:0,0:0:0:0:
504,188,18647,6,0,L|356:200,1,120,4|0,0:0|0:0,0:0:0:0:
328,180,19339,2,0,P|328:108|296:52,1,120
256,32,20032,1,0,0:0:0:0:
204,140,20493,2,0,P|204:212|236:268,1,120,4|0,0:0|0:0,0:0:0:0:
276,288,21186,2,0,B|380:269|380:269|408:280,1,120
444,304,21878,1,0,0:0:0:0:
508,200,22339,6,0,P|512:132|496:60,1,120,4|0,0:0|0:0,0:0:0:0:
452,48,23032,2,0,P|388:60|320:52,1,120
280,32,23724,1,0,0:0:0:0:
188,112,24186,2,0,B|188:212|188:212|176:252,1,120,4|0,0:0|0:0,0:0:0:0:
140,276,24878,2,0,P|202:271|260:288,1,120
300,328,25570,1,0,0:0:0:0:
384,244,26032,6,0,B|392:148|392:148|380:112,1,120,4|0,0:0|0:0,0:0:0:0:
344,84,26724,2,0,P|284:100|200:88,1,120
176,68,27416,1,0,0:0:0:0:
56,52,27878,2,0,P|61:113|110:171,1,120,4|0,0:0|0:0,0:0:0:0:
144,192,28570,2,0,B|148:296|148:296|156:324,1,120
196,352,29262,1,0,0:0:0:0:
296,288,29724,6,0,P|360:284|440:300,1,120,4|0,0:0|0:0,0:0:0:0:
464,328,30416,2,0,P|452:264|464:188,1,120
492,160,31109,1,0,0:0:0:0:
396,88,31570,2,0,B|305:103|305:103|256:96,1,120,4|0,0:0|0:0,0:0:0:0:
220,84,32262,1,0,0:0:0:0:
220,84,32493,2,0,B|204:120|204:120|200:200,1,120,4|0,0:0|0:0,0:0:0:0:
160,316,33416,6,0,P|212:324|283:289,1,120,6|0,0:0|0:0,0:0:0:0:
312,252,34109,2,0,P|371:231|432:244,1,120
472,280,34801,1,0,0:0:0:0:
512,168,35262,2,0,B|492:67|492:67|476:52,1,120,4|0,0:0|0:0,0:0:0:0:
420,44,35955,2,0,P|352:62|276:56,1,120
252,32,36647,1,0,0:0:0:0:
152,100,37109,6,0,B|132:196|132:196|136:224,1,120,4|0,0:0|0:0,0:0:0:0:
168,268,37801,2,0,P|228:280|309:264,1,120
336,236,38493,1,0,0:0:0:0:
284,128,38955,2,0,P|224:116|143:132,1,120,4|0,0:0|0:0,0:0:0:0:
124,168,39647,2,0,P|133:226|120:304,1,120
96,340,40339,1,0,0:0:0:0:
12,256,40801,6,0,P|0:223|0:192,2,60,4|0|0,0:0|0:0|0:0,0:0:0:0:
60,288,41493,2,0,L|132:284,1,60
240,272,42186,1,0,0:0:0:0:
348,324,42647,2,0,P|365:262|336:201,1,120,4|0,0:0|0:0,0:0:0:0:
292,188,43339,2,0,P|275:126|304:65,1,120
336,32,44032,1,0,0:0:0:0:
436,100,44493,6,0,P|455:155|438:212,2,120,4|0|0,0:0|0:0|0:0,0:0:0:0:
380,76,45647,2,0,P|316:88|246:77,1,120
220,40,46339,6,0,L|212:172,1,120
244,276,47262,2,0,P|276:280|314:275,1,60
352,244,47724,2,0,P|384:239|422:245,1,60
464,272,48186,6,0,P|455:219|452:148,1,120,6|8,0:0|0:0,0:0:0:0:
356,80,49109,2,0,P|303:88|232:92,1,120,2|8,0:0|0:0,0:0:0:0:
160,184,50032,2,0,P|168:236|172:308,1,120,2|8,0:0|0:0,0:0:0:0:
276,360,50955,2,0,P|266:300|263:240,1,120,2|8,0:0|0:0,0:0:0:0:
236,124,51878,6,0,P|294:122|357:165,2,120,2|8|2,0:0|0:0|0:0,0:0:0:0:
132,184,53262,1,8,0:0:0:0:
180,292,53724,2,0,P|231:321|290:320,1,120,2|8,0:0|0:0,0:0:0:0:
384,248,54647,2,0,P|385:182|376:124,1,120,2|8,0:0|0:0,0:0:0:0:
284,56,55570,6,0,P|224:64|164:62,2,120,2|8|2,0:0|0:0|0:0,0:0:0:0:
400,24,56955,1,8,0:0:0:0:
452,132,57416,2,0,L|468:268,1,120,2|8,0:0|0:0,0:0:0:0:
376,332,58339,2,0,L|361:212,1,120,2|8,0:0|0:0,0:0:0:0:
277,127,59262,6,0,B|213:155|141:79|141:79|74:78|39:143|65:204|65:204|166:205|194:297,2,480,2|2|0,0:0|0:0|0:0,0:0:0:0:
277,127,68032,6,0,L|288:192,1,60,8|0,0:0|0:0,0:0:0:0:
340,216,68493,6,0,P|288:216|224:248,1,120,6|8,0:0|0:0,0:0:0:0:
132,316,69416,2,0,P|141:350|164:372,2,60,2|0|8,0:0|0:0|0:0,0:0:0:0:
140,256,70109,1,0,0:0:0:0:
140,256,70339,2,0,B|118:168|118:168|124:128,1,120,2|8,0:0|0:0,0:0:0:0:
228,84,71262,2,0,B|249:171|249:171|244:212,1,120,2|8,0:0|0:0,0:0:0:0:
212,252,71955,1,0,0:0:0:0:
212,251,72186,6,0,P|270:242|328:258,1,120,2|8,0:0|0:0,0:0:0:0:
436,308,73109,2,0,P|418:337|394:358,2,60,2|0|8,0:0|0:0|0:0,0:0:0:0:
424,248,73801,1,0,0:0:0:0:
424,248,74032,2,0,B|433:150|433:150|454:116,1,120,2|8,0:0|0:0,0:0:0:0:
332,92,74955,2,0,B|339:112|339:112|330:210,1,120,2|8,0:0|0:0,0:0:0:0:
284,248,75647,1,0,0:0:0:0:
283,248,75878,6,0,P|226:263|168:249,1,120,2|8,0:0|0:0,0:0:0:0:
68,184,76801,2,0,P|50:221|48:263,2,60,2|0|8,0:0|0:0|0:0,0:0:0:0:
120,156,77493,2,0,B|188:176|248:136|248:136|288:160,1,180,0|8,0:0|0:0,0:0:0:0:
372,244,78647,2,0,P|398:250|436:248,1,60,2|0,0:0|0:0,0:0:0:0:
476,212,79109,2,0,P|466:173|468:140,1,60,8|0,0:0|0:0,0:0:0:0:
512,112,79570,6,0,B|438:146|369:118|369:118|344:88,1,180,2|0,0:0|0:0,0:0:0:0:
240,40,80724,1,0,0:0:0:0:
240,40,80955,2,0,L|224:176,1,120,8|2,0:0|0:0,0:0:0:0:
204,216,81647,1,0,0:0:0:0:
24,224,82339,1,0,0:0:0:0:
0,108,82801,2,0,L|64:84,1,60,8|0,0:0|0:0,0:0:0:0:
92,40,83262,6,0,P|95:100|120:172,1,120,2|8,0:0|0:0,0:0:0:0:
220,212,84186,2,0,P|216:152|198:94,1,120,2|8,0:0|0:0,0:0:0:0:
224,40,84878,2,0,P|250:50|285:59,1,60,0|2,0:0|0:0,0:0:0:0:
400,64,85570,1,8,0:0:0:0:
400,64,85801,2,0,P|407:97|408:132,1,60,0|2,0:0|0:0,0:0:0:0:
364,164,86262,2,0,P|356:197|356:232,1,60,0|8,0:0|0:0,0:0:0:0:
372,280,86724,1,0,0:0:0:0:
372,280,86955,6,0,L|232:288,1,120,2|8,0:0|0:0,0:0:0:0:
140,248,87878,2,0,P|139:182|128:116,1,120,2|8,0:0|0:0,0:0:0:0:
100,80,88570,1,0,0:0:0:0:
8,160,89032,2,0,B|-4:240|24:312|24:312|44:332,1,180,0|2,0:0|0:0,0:0:0:0:
92,360,89955,2,0,P|121:362|160:356,1,60,0|8,0:0|0:0,0:0:0:0:
200,324,90416,1,0,0:0:0:0:
200,324,90647,6,0,P|180:260|188:188,2,120,2|8|2,0:0|0:0|0:0,0:0:0:0:
312,368,92032,2,0,P|328:332|328:304,1,60,8|0,0:0|0:0,0:0:0:0:
300,260,92493,2,0,P|288:188|308:120,2,120,2|8|2,0:0|0:0|0:0,0:0:0:0:
388,340,93878,2,0,L|460:332,1,60,8|0,0:0|0:0,0:0:0:0:
504,308,94339,6,0,P|476:248|476:176,1,120,2|8,0:0|0:0,0:0:0:0:
512,148,95032,2,0,P|464:156|380:136,1,120,2|2,0:0|0:0,0:0:0:0:
344,108,95724,1,8,0:0:0:0:
256,188,96186,1,8,0:0:0:0:
256,188,96416,2,0,P|162:201|73:189,1,180
156,96,97570,2,0,P|224:84|283:87,1,120
76,232,99878,6,0,P|68:292|92:360,2,120,2|2|2,0:0|0:0|0:0,0:0:0:0:
148,136,101262,1,2,0:0:0:0:
260,184,101724,2,0,P|320:189|384:168,1,120,2|2,0:0|0:0,0:0:0:0:
415,59,102647,2,0,P|356:54|299:71,1,120,2|2,0:0|0:0,0:0:0:0:
192,128,103570,6,0,P|134:145|75:139,2,120,2|2|2,0:0|0:0|0:0,0:0:0:0:
244,96,104724,2,0,P|308:88|377:104,1,120
412,136,105416,1,2,0:0:0:0:
344,236,105878,1,2,0:0:0:0:
236,184,106339,2,0,P|201:189|172:212,1,60,2|0,0:0|0:0,0:0:0:0:
144,252,106801,2,0,P|118:266|88:271,1,60,2|0,0:0|0:0,0:0:0:0:
36,244,107262,6,0,B|17:140|17:140|24:112,1,120,8|8,0:0|0:0,0:0:0:0:
104,40,108186,2,0,P|168:40|228:48,1,120,8|8,0:0|0:0,0:0:0:0:
332,104,109109,2,0,P|396:104|456:96,2,120,8|8|8,0:0|0:0|0:0,0:0:0:0:
224,48,110493,1,8,0:0:0:0:
160,148,110955,6,0,B|152:204|188:252|188:252|197:326|114:330|114:330|74:267|-20:287,2,360,8|0|8,0:0|0:0|0:0,0:0:0:0:
264,88,114186,1,8,0:0:0:0:
264,204,114647,6,0,P|337:228|392:208,2,120,2|8|2,0:0|0:0|0:0,0:0:0:0:
164,140,116032,1,8,0:0:0:0:
140,260,116493,2,0,P|105:273|80:272,1,60,2|0,0:0|0:0,0:0:0:0:
36,236,116954,2,0,P|12:179|9:118,2,120,8|2|8,0:0|0:0|0:0,0:0:0:0:
128,312,118339,6,0,P|184:324|245:323,2,120,2|8|2,0:0|0:0|0:0,0:0:0:0:
32,236,119724,2,0,P|30:176|52:92,2,120,8|2|8,0:0|0:0|0:0,0:0:0:0:
128,312,121109,1,2,0:0:0:0:
180,204,121570,1,8,0:0:0:0:
288,252,122032,6,0,P|321:235|344:216,1,60,2|0,0:0|0:0,0:0:0:0:
364,168,122493,2,0,P|387:149|414:137,1,60,8|0,0:0|0:0,0:0:0:0:
476,148,122955,2,0,B|477:254|477:254|472:276,1,120,2|8,0:0|0:0,0:0:0:0:
392,356,123878,1,2,0:0:0:0:
288,296,124339,2,0,P|232:296|168:328,1,120,8|2,0:0|0:0,0:0:0:0:
136,368,125032,2,0,L|92:300,1,60,0|8,0:0|0:0,0:0:0:0:
56,280,125493,1,0,0:0:0:0:
56,280,125724,6,0,B|24:224|23:177|23:177|40:160,2,120,2|8|2,0:0|0:0|0:0,0:0:0:0:
92,328,126878,1,0,0:0:0:0:
92,328,127108,2,0,L|156:304,1,60
192,264,127570,2,0,P|175:198|180:132,1,120,2|8,0:0|0:0,0:0:0:0:
288,100,128493,1,2,0:0:0:0:
412,108,128955,2,0,P|412:141|424:180,1,60,8|0,0:0|0:0,0:0:0:0:
464,204,129416,6,0,P|480:264|464:340,2,120,6|8|2,0:0|0:0|0:0,0:0:0:0:
368,128,130801,1,8,0:0:0:0:
284,212,131262,2,0,P|251:215|224:208,1,60,2|0,0:0|0:0,0:0:0:0:
176,172,131723,2,0,B|147:117|154:70|154:70|168:52,2,120,8|2|8,0:0|0:0|0:0,0:0:0:0:
272,244,133109,6,0,P|344:256|392:244,2,120,2|8|2,0:0|0:0|0:0,0:0:0:0:
160,200,134493,2,0,P|125:195|88:208,1,60,8|0,0:0|0:0,0:0:0:0:
56,240,134955,2,0,P|64:300|48:360,2,120,2|8|2,0:0|0:0|0:0,0:0:0:0:
0,132,136339,1,8,0:0:0:0:
96,60,136801,6,0,P|132:60|170:77,1,60,2|0,0:0|0:0,0:0:0:0:
200,104,137262,2,0,P|236:104|274:87,1,60,8|0,0:0|0:0,0:0:0:0:
304,60,137724,2,0,L|432:80,1,120,2|8,0:0|0:0,0:0:0:0:
508,162,138647,2,0,L|496:288,1,120,2|8,0:0|0:0,0:0:0:0:
440,304,139339,1,0,0:0:0:0:
400,260,139570,2,0,L|332:268,1,60
280,276,140032,1,0,0:0:0:0:
274,157,140493,6,0,P|205:173|154:165,1,120
66,89,141416,2,0,P|134:72|186:81,1,120
274,157,142339,2,0,B|271:255|271:255|282:281,1,120
382,337,143262,2,0,B|384:238|384:238|374:213,1,120
274,157,144186,5,6,0:0:0:0:
