osu file format v14

[General]
AudioFilename: RAN - Dekat di Hati (REDSHiFT Remix).mp3
AudioLeadIn: 0
PreviewTime: 67339
Countdown: 0
SampleSet: Soft
StackLeniency: 0.7
Mode: 0
LetterboxInBreaks: 0
EpilepsyWarning: 1
WidescreenStoryboard: 1

[Editor]
DistanceSpacing: 1.2
BeatDivisor: 4
GridSize: 4
TimelineZoom: 1.6

[Metadata]
Title:Dekat di Hati (REDSHiFT Remix)
TitleUnicode:Dekat di Hati (REDSHiFT Remix)
Artist:RAN
ArtistUnicode:RAN
Creator:[ A v a l o n ]
Version:Del's Hard
Source:
Tags:Del05 Mako Sakata Surono Flying_Pan Volta Genocide PatZar Hatsune Miku feat. Megurine Luka 初音ミク 巡音ルカ Vocaloid Bahasa Indonesia crashtest rikuu powerkid Kuroha AI
BeatmapID:772317
BeatmapSetID:350207

[Difficulty]
HPDrainRate:5
CircleSize:4
OverallDifficulty:6
ApproachRate:7
SliderMultiplier:1.5
SliderTickRate:1

[Events]
//Background and Video events
0,0,"Dekat di hati (REDSHiFT Remix).jpg",0,0
//Break Periods
//Storyboard Layer 0 (Background)
Sprite,Background,TopLeft,"Dekat di hati (REDSHiFT Remix).jpg",320,240 F,0,14,,0 S,0,14,151570,0.6861936
//Storyboard Layer 1 (Fail)
//Storyboard Layer 2 (Pass)
//Storyboard Layer 3 (Foreground)
Sprite,Foreground,Centre,"SB/Lyric1.png",320,240 S,0,3762,,0.6861935 F,0,3762,3993,0,1 M,0,3762,10339,927,458,100,458
Sprite,Foreground,Centre,"SB/Lyric2.png",320,240 S,0,11147,,0.6861935 F,0,11147,11378,0,1 M,0,11147,17724,921,458,94,458
Sprite,Foreground,Centre,"SB/Lyric3.png",320,240 S,0,18532,,0.6861935 F,0,18532,18762,0,1 M,0,18532,25109,900,458,27,458
Sprite,Foreground,Centre,"SB/Lyric4.png",320,240 S,0,25916,,0.6861935 F,0,25916,26147,0,1 M,0,25916,32493,875,458,48,458
Sprite,Foreground,Centre,"SB/Lyric5.png",320,240 S,0,33301,,0.6861935 F,0,33301,33532,0,1 M,0,33301,36186,807,458,350,458
Sprite,Foreground,Centre,"SB/Lyric6.png",320,240 S,0,36993,,0.6861935 F,0,36993,37224,0,1 M,0,36993,39878,810,458,345,458
Sprite,Foreground,Centre,"SB/Lyric7.png",320,240 S,0,40686,,0.6861935 F,0,40686,40916,0,1 M,0,40686,47262,927,458,100,458
Sprite,Foreground,Centre,"SB/Lyric8.png",320,240 S,0,48070,,0.6861935 F,0,48070,48301,0,1 M,0,48070,50955,805,458,348,458
Sprite,Foreground,Centre,"SB/Lyric9.png",320,240 S,0,51762,,0.6861935 F,0,51762,51993,0,1 M,0,51762,54647,850,458,310,458
Sprite,Foreground,Centre,"SB/Lyric10.png",320,240 S,0,55455,,0.6861935 F,0,55455,55686,0,1 M,0,55455,57416,787,458,380,458
Sprite,Foreground,Centre,"SB/Lyric11.png",320,240 S,0,57993,,0.6861935 F,0,57993,58224,0,1 M,0,57993,61109,744,458,300,458 S,0,67224,,0.6861935 F,0,67224,67455,0,1 M,0,67224,70339,744,458,300,458 S,0,81993,,0.6861935 F,0,81993,82224,0,1 M,0,81993,85109,744,458,300,458
Sprite,Foreground,Centre,"SB/Lyric1b.png",320,240 S,0,99762,,0.6861935 F,0,99762,99993,0,1 M,0,99762,106339,419,458,-408,458
Sprite,Foreground,Centre,"SB/Lyric4b.png",320,240 S,0,107147,,0.6861935 F,0,107147,107378,0,1 M,0,107147,113724,366,458,-461,458
Sprite,Foreground,Centre,"SB/Lyric5b.png",320,240 S,0,114532,,0.6861935 F,0,114532,114762,0,1 M,0,114532,117416,299,458,-158,458
Sprite,Foreground,Centre,"SB/Lyric6b.png",320,240 S,0,118224,,0.6861935 F,0,118224,118455,0,1 M,0,118224,121109,303,458,-162,458
Sprite,Foreground,Centre,"SB/Lyric7b.png",320,240 S,0,121916,,0.6861935 F,0,121916,122147,0,1 M,0,121916,128493,419,458,-408,458
Sprite,Foreground,Centre,"SB/Lyric8b.png",320,240 S,0,129301,,0.6861935 F,0,129301,129532,0,1 M,0,129301,132186,298,458,-159,458
Sprite,Foreground,Centre,"SB/Lyric9b.png",320,240 S,0,132993,,0.6861935 F,0,132993,133224,0,1 M,0,132993,135878,343,458,-197,458
Sprite,Foreground,Centre,"SB/Lyric10b.png",320,240 S,0,136686,,0.6861935 F,0,136686,136916,0,1 M,0,136686,138647,279,458,-128,458
Sprite,Foreground,Centre,"SB/Lyric11b.png",320,240 S,0,139224,,0.6861935 F,0,139224,139455,0,1 M,0,139224,144186,228,458,-160,458
Sprite,Foreground,Centre,"SB/Middly.jpg",320,240 F,0,2032,3878,0,1 S,0,2032,98032,0.6283873 F,0,97570,98032,1,0 F,0,99416,99878,0,1 S,0,99878,151570,0.6283873 F,0,144186,147878,1,0
Sprite,Foreground,Centre,"SB/Lyrictemplate.png",320,240 M,0,2032,,574,240 F,0,2032,3878,0,1 S,0,2032,98032,0.6283873 F,0,97570,98032,1,0 M,0,99416,,66,240 F,0,99416,99878,0,1 S,0,99416,151570,0.6283873 F,0,144186,147878,1,0
Sprite,Foreground,Centre,"SB/Lefty.jpg",320,240 M,0,2032,,66,240 F,0,2032,3878,0,1 S,0,2032,98032,0.6283873 F,0,97570,98032,1,0
Sprite,Foreground,Centre,"SB/Righty.jpg",320,240 F,0,99416,99878,0,1 M,0,99878,,574,240 S,0,99878,147878,0.6283873 F,0,144186,147878,1,0 S,0,147878,,0.6283873
Sprite,Foreground,Centre,"SB/Rain.png",320,240 F,0,98032,98262,0,1 F,0,98262,99186,1 F,0,99186,99416,1,0 S,0,99186,99416,0.6283873,1.933162
Sprite,Foreground,Centre,"SB/Lefty.jpg",320,240 M,0,33416,,66,240 F,0,33416,33878,1,0 S,0,33416,33878,0.6283873,0.6944515 F,0,48186,48647,1,0 S,0,48186,48647,0.6283873,0.6944515 F,0,49109,49570,1,0 S,0,49109,49570,0.6283873,0.6944515 F,0,50032,50493,1,0 S,0,50032,50493,0.6283873,0.6944515 F,0,50955,51416,1,0 S,0,50955,51416,0.6283873,0.6944515 F,0,51878,52339,1,0 S,0,51878,52339,0.6283873,0.6944515 F,0,52801,53262,1,0 S,0,52801,53262,0.6283873,0.6944515 F,0,53724,54186,1,0 S,0,53724,54186,0.6283873,0.6944515 F,0,54647,55109,1,0 S,0,54647,55109,0.6283873,0.6944515 F,0,55570,56032,1,0 S,0,55570,56032,0.6283873,0.6944515 F,0,56493,56955,1,0 S,0,56493,56955,0.6283873,0.6944515 F,0,57416,57878,1,0 S,0,57416,57878,0.6283873,0.6944515 F,0,58339,58801,1,0 S,0,58339,58801,0.6283873,0.6944515 F,0,59262,59724,1,0 S,0,59262,59724,0.6283873,0.6944515 F,0,68493,68955,1,0 S,0,68493,68955,0.6283873,0.6944515 F,0,69416,69878,1,0 S,0,69416,69878,0.6283873,0.6944515 F,0,70339,70801,1,0 S,0,70339,70801,0.6283873,0.6944515 F,0,71262,71724,1,0 S,0,71262,71724,0.6283873,0.6944515 F,0,72186,72647,1,0 S,0,72186,72647,0.6283873,0.6944515 F,0,73109,73570,1,0 S,0,73109,73570,0.6283873,0.6944515 F,0,74032,74493,1,0 S,0,74032,74493,0.6283873,0.6944515 F,0,74955,75416,1,0 S,0,74955,75416,0.6283873,0.6944515 F,0,75878,76339,1,0 S,0,75878,76339,0.6283873,0.6944515 F,0,76801,77262,1,0 S,0,76801,77262,0.6283873,0.6944515 F,0,77724,78186,1,0 S,0,77724,78186,0.6283873,0.6944515 F,0,78647,79109,1,0 S,0,78647,79109,0.6283873,0.6944515 F,0,79570,80032,1,0 S,0,79570,80032,0.6283873,0.6944515 F,0,80493,80955,1,0 S,0,80493,80955,0.6283873,0.6944515 F,0,81416,81878,1,0 S,0,81416,81878,0.6283873,0.6944515 F,0,83262,83724,1,0 S,0,83262,83724,0.6283873,0.6944515 F,0,84186,84647,1,0 S,0,84186,84647,0.6283873,0.6944515 F,0,85109,85570,1,0 S,0,85109,85570,0.6283873,0.6944515 F,0,86032,86493,1,0 S,0,86032,86493,0.6283873,0.6944515 F,0,86955,87416,1,0 S,0,86955,87416,0.6283873,0.6944515 F,0,87878,88339,1,0 S,0,87878,88339,0.6283873,0.6944515 F,0,88801,89262,1,0 S,0,88801,89262,0.6283873,0.6944515 F,0,89724,90186,1,0 S,0,89724,90186,0.6283873,0.6944515 F,0,90647,91109,1,0 S,0,90647,91109,0.6283873,0.6944515 F,0,91570,92032,1,0 S,0,91570,92032,0.6283873,0.6944515 F,0,92493,92955,1,0 S,0,92493,92955,0.6283873,0.6944515 F,0,93416,93878,1,0 S,0,93416,93878,0.6283873,0.6944515 F,0,94339,94801,1,0 S,0,94339,94801,0.6283873,0.6944515 F,0,95032,95493,1,0 S,0,95032,95493,0.6283873,0.6944515 F,0,95724,96186,1,0 S,0,95724,96186,0.6283873,0.6944515 F,0,96416,96878,1,0 S,0,96416,96878,0.6283873,0.6944515 F,0,97109,97570,1,0 S,0,97109,97570,0.6283873,0.6944515
Sprite,Foreground,Centre,"SB/flash.png",320,240 C,0,68493,,154,210,204 F,0,68493,68955,1,0 S,0,68493,68955,0.6283873,0.6944515 F,0,69416,69878,1,0 S,0,69416,69878,0.6283873,0.6944515 F,0,70339,70801,1,0 S,0,70339,70801,0.6283873,0.6944515 F,0,71262,71724,1,0 S,0,71262,71724,0.6283873,0.6944515 F,0,72186,72647,1,0 S,0,72186,72647,0.6283873,0.6944515 F,0,73109,73570,1,0 S,0,73109,73570,0.6283873,0.6944515 F,0,74032,74493,1,0 S,0,74032,74493,0.6283873,0.6944515 F,0,74955,75416,1,0 S,0,74955,75416,0.6283873,0.6944515 F,0,75878,76339,1,0 S,0,75878,76339,0.6283873,0.6944515 F,0,76801,77262,1,0 S,0,76801,77262,0.6283873,0.6944515 F,0,77724,78186,1,0 S,0,77724,78186,0.6283873,0.6944515 F,0,78647,79109,1,0 S,0,78647,79109,0.6283873,0.6944515 F,0,79570,80032,1,0 S,0,79570,80032,0.6283873,0.6944515 F,0,80493,80955,1,0 S,0,80493,80955,0.6283873,0.6944515 F,0,81416,81878,1,0 S,0,81416,81878,0.6283873,0.6944515 F,0,83262,83724,1,0 S,0,83262,83724,0.6283873,0.6944515 F,0,84186,84647,1,0 S,0,84186,84647,0.6283873,0.6944515 F,0,85109,85570,1,0 S,0,85109,85570,0.6283873,0.6944515 F,0,86032,86493,1,0 S,0,86032,86493,0.6283873,0.6944515 F,0,86955,87416,1,0 S,0,86955,87416,0.6283873,0.6944515 F,0,87878,88339,1,0 S,0,87878,88339,0.6283873,0.6944515 F,0,88801,89262,1,0 S,0,88801,89262,0.6283873,0.6944515 F,0,89724,90186,1,0 S,0,89724,90186,0.6283873,0.6944515 F,0,90647,91109,1,0 S,0,90647,91109,0.6283873,0.6944515 F,0,91570,92032,1,0 S,0,91570,92032,0.6283873,0.6944515 F,0,92493,92955,1,0 S,0,92493,92955,0.6283873,0.6944515 F,0,93416,93878,1,0 S,0,93416,93878,0.6283873,0.6944515 F,0,94339,94801,1,0 S,0,94339,94801,0.6283873,0.6944515 F,0,95032,95493,1,0 S,0,95032,95493,0.6283873,0.6944515 F,0,95724,96186,1,0 S,0,95724,96186,0.6283873,0.6944515 F,0,96416,96878,1,0 S,0,96416,96878,0.6283873,0.6944515 F,0,97109,97570,1,0 S,0,97109,97570,0.6283873,0.6944515
Sprite,Foreground,Centre,"SB/Righty.jpg",320,240 M,0,107262,,574,240 F,0,107262,107724,1,0 S,0,107262,107724,0.6283873,0.6944515 F,0,108186,108647,1,0 S,0,108186,108647,0.6283873,0.6944515 F,0,109109,109570,1,0 S,0,109109,109570,0.6283873,0.6944515 F,0,110032,110493,1,0 S,0,110032,110493,0.6283873,0.6944515 F,0,110955,111416,1,0 S,0,110955,111416,0.6283873,0.6944515 F,0,111878,112339,1,0 S,0,111878,112339,0.6283873,0.6944515 F,0,112801,113262,1,0 S,0,112801,113262,0.6283873,0.6944515 F,0,113724,114186,1,0 S,0,113724,114186,0.6283873,0.6944515 F,0,114647,115109,1,0 S,0,114647,115109,0.6283873,0.6944515 F,0,115570,116032,1,0 S,0,115570,116032,0.6283873,0.6944515 F,0,116493,116955,1,0 S,0,116493,116955,0.6283873,0.6944515 F,0,117416,117878,1,0 S,0,117416,117878,0.6283873,0.6944515 F,0,118339,118801,1,0 S,0,118339,118801,0.6283873,0.6944515 F,0,119262,119724,1,0 S,0,119262,119724,0.6283873,0.6944515 F,0,120186,120647,1,0 S,0,120186,120647,0.6283873,0.6944515 F,0,121109,121570,1,0 S,0,121109,121570,0.6283873,0.6944515 F,0,122032,122493,1,0 S,0,122032,122493,0.6283873,0.6944515 F,0,122955,123416,1,0 S,0,122955,123416,0.6283873,0.6944515 F,0,123878,124339,1,0 S,0,123878,124339,0.6283873,0.6944515 F,0,124801,125262,1,0 S,0,124801,125262,0.6283873,0.6944515 F,0,125724,126186,1,0 S,0,125724,126186,0.6283873,0.6944515 F,0,126647,127109,1,0 S,0,126647,127109,0.6283873,0.6944515 F,0,127570,128032,1,0 S,0,127570,128032,0.6283873,0.6944515 F,0,128493,128955,1,0 S,0,128493,128955,0.6283873,0.6944515 F,0,129416,129878,1,0 S,0,129416,129878,0.6283873,0.6944515 F,0,130339,130801,1,0 S,0,130339,130801,0.6283873,0.6944515 F,0,131262,131724,1,0 S,0,131262,131724,0.6283873,0.6944515 F,0,132186,132647,1,0 S,0,132186,132647,0.6283873,0.6944515 F,0,133109,133570,1,0 S,0,133109,133570,0.6283873,0.6944515 F,0,134032,134493,1,0 S,0,134032,134493,0.6283873,0.6944515 F,0,134955,135416,1,0 S,0,134955,135416,0.6283873,0.6944515 F,0,135878,136339,1,0 S,0,135878,136339,0.6283873,0.6944515 F,0,136801,137262,1,0 S,0,136801,137262,0.6283873,0.6944515 F,0,137724,138186,1,0 S,0,137724,138186,0.6283873,0.6944515 F,0,138647,139109,1,0 S,0,138647,139109,0.6283873,0.6944515 F,0,139570,140032,1,0 S,0,139570,140032,0.6283873,0.6944515
Sprite,Foreground,Centre,"SB/flash.png",320,240 C,0,114647,,238,185,214 F,0,114647,115109,1,0 S,0,114647,115109,0.6283873,0.6944515 F,0,115570,116032,1,0 S,0,115570,116032,0.6283873,0.6944515 F,0,116493,116955,1,0 S,0,116493,116955,0.6283873,0.6944515 F,0,117416,117878,1,0 S,0,117416,117878,0.6283873,0.6944515 F,0,118339,118801,1,0 S,0,118339,118801,0.6283873,0.6944515 F,0,119262,119724,1,0 S,0,119262,119724,0.6283873,0.6944515 F,0,120186,120647,1,0 S,0,120186,120647,0.6283873,0.6944515 F,0,121109,121570,1,0 S,0,121109,121570,0.6283873,0.6944515 F,0,122032,122493,1,0 S,0,122032,122493,0.6283873,0.6944515 F,0,122955,123416,1,0 S,0,122955,123416,0.6283873,0.6944515 F,0,123878,124339,1,0 S,0,123878,124339,0.6283873,0.6944515 F,0,124801,125262,1,0 S,0,124801,125262,0.6283873,0.6944515 F,0,125724,126186,1,0 S,0,125724,126186,0.6283873,0.6944515 F,0,126647,127109,1,0 S,0,126647,127109,0.6283873,0.6944515 F,0,127570,128032,1,0 S,0,127570,128032,0.6283873,0.6944515 F,0,128493,128955,1,0 S,0,128493,128955,0.6283873,0.6944515 F,0,129416,129878,1,0 S,0,129416,129878,0.6283873,0.6944515 F,0,130339,130801,1,0 S,0,130339,130801,0.6283873,0.6944515 F,0,131262,131724,1,0 S,0,131262,131724,0.6283873,0.6944515 F,0,132186,132647,1,0 S,0,132186,132647,0.6283873,0.6944515 F,0,133109,133570,1,0 S,0,133109,133570,0.6283873,0.6944515 F,0,134032,134493,1,0 S,0,134032,134493,0.6283873,0.6944515 F,0,134955,135416,1,0 S,0,134955,135416,0.6283873,0.6944515 F,0,135878,136339,1,0 S,0,135878,136339,0.6283873,0.6944515 F,0,136801,137262,1,0 S,0,136801,137262,0.6283873,0.6944515 F,0,137724,138186,1,0 S,0,137724,138186,0.6283873,0.6944515 F,0,138647,139109,1,0 S,0,138647,139109,0.6283873,0.6944515 F,0,139570,140032,1,0 S,0,139570,140032,0.6283873,0.6944515
//Storyboard Sound Samples

[TimingPoints]
2032,461.538461538462,4,2,1,60,1,0
3878,-125,4,2,1,60,0,0
33416,-111.111111111111,4,2,1,60,0,0
48185,-100,4,2,1,70,0,0
68493,-100,4,2,1,70,0,0
82801,-100,4,2,1,60,0,0
99878,-100,4,2,1,45,0,0
107262,-100,4,2,1,55,0,0
114647,-90.9090909090909,4,2,1,60,0,1
144185,-100,4,2,1,60,0,0

[Colours]
Combo1 : 70,247,146
Combo2 : 253,100,176
Combo3 : 255,174,136
Combo4 : 232,148,241

[HitObjects]
84,80,3878,6,0,L|76:156,1,60,6|0,0:0|0:0,0:0:0:0:
152,192,4339,2,0,L|159:117,1,60
220,68,4801,2,0,P|276:60|344:75,1,120
400,136,5493,1,0,0:0:0:0:
336,200,5724,6,0,L|260:208,1,60,4|0,0:0|0:0,0:0:0:0:
156,264,6186,2,0,L|216:272,1,60
112,188,6647,2,0,L|40:196,1,60
0,120,7109,1,0,0:0:0:0:
76,68,7339,1,0,0:0:0:0:
76,68,7570,6,0,P|136:59|208:60,1,120,4|0,0:0|0:0,0:0:0:0:
272,108,8262,2,0,P|332:106|396:92,1,120
468,48,8955,2,0,P|478:84|476:118,1,60
420,176,9416,6,0,P|426:241|444:312,2,120,4|0|0,0:0|0:0|0:0,0:0:0:0:
390,93,10570,1,0,0:0:0:0:
308,132,10801,1,0,0:0:0:0:
276,48,11032,1,0,0:0:0:0:
192,84,11262,6,0,L|120:92,1,60,4|0,0:0|0:0,0:0:0:0:
28,162,11724,2,0,L|88:168,1,60
156,224,12186,2,0,P|160:296|204:340,1,120
240,256,12878,1,0,0:0:0:0:
320,300,13109,6,0,L|396:280,1,60,4|0,0:0|0:0,0:0:0:0:
460,252,13570,1,0,0:0:0:0:
416,172,13801,1,0,0:0:0:0:
472,104,14032,2,0,P|439:86|396:88,1,60
336,128,14493,2,0,P|303:146|260:144,1,60
196,120,14955,6,0,P|126:113|60:140,1,120,4|0,0:0|0:0,0:0:0:0:
24,200,15647,2,0,P|34:266|60:340,1,120
128,360,16339,2,0,L|192:352,1,60
264,304,16801,6,0,B|240:240|252:196|252:196|264:184,1,120,4|0,0:0|0:0,0:0:0:0:
320,124,17493,1,0,0:0:0:0:
236,96,17724,2,0,B|203:90|203:90|168:108|96:108,1,120,4|0,0:0|0:0,0:0:0:0:
28,116,18416,1,0,0:0:0:0:
68,196,18647,6,0,L|64:276,1,60,4|0,0:0|0:0,0:0:0:0:
84,344,19109,1,0,0:0:0:0:
164,300,19339,1,0,0:0:0:0:
240,352,19570,2,0,P|276:352|324:344,1,60
372,296,20032,2,0,P|408:296|456:304,1,60
468,216,20493,6,0,P|432:216|384:208,1,60,4|0,0:0|0:0,0:0:0:0:
332,164,20955,2,0,P|296:164|248:172,1,60
184,192,21416,1,0,0:0:0:0:
98,164,21647,1,0,0:0:0:0:
98,74,21878,1,0,0:0:0:0:
184,46,22109,1,0,0:0:0:0:
236,119,22339,6,0,P|296:128|360:118,1,120,4|0,0:0|0:0,0:0:0:0:
432,76,23032,2,0,L|440:208,1,120
388,268,23724,2,0,L|328:274,1,60
260,332,24186,6,0,B|229:277|252:233|252:233|232:212,1,120,4|0,0:0|0:0,0:0:0:0:
160,180,24878,2,0,L|20:195,1,120
40,192,25570,1,0,0:0:0:0:
8,108,25801,1,0,0:0:0:0:
88,68,26032,6,0,L|159:61,1,60,4|0,0:0|0:0,0:0:0:0:
228,104,26493,1,0,0:0:0:0:
284,32,26724,1,0,0:0:0:0:
360,80,26955,2,0,L|380:144,1,60
324,208,27416,1,0,0:0:0:0:
240,176,27647,1,0,0:0:0:0:
188,252,27878,6,0,L|180:324,1,60,4|0,0:0|0:0,0:0:0:0:
100,348,28339,2,0,L|91:288,1,60
116,200,28801,1,0,0:0:0:0:
40,152,29032,1,0,0:0:0:0:
88,76,29262,1,0,0:0:0:0:
168,120,29493,1,0,0:0:0:0:
228,52,29724,6,0,P|288:44|359:58,1,120,4|0,0:0|0:0,0:0:0:0:
364,140,30416,2,0,P|304:148|233:134,1,120
156,128,31108,1,0,0:0:0:0:
156,128,31339,1,0,0:0:0:0:
191,203,31570,6,0,L|198:322,1,120,4|0,0:0|0:0,0:0:0:0:
111,295,32262,1,0,0:0:0:0:
283,355,32493,2,0,L|276:235,1,120,4|0,0:0|0:0,0:0:0:0:
244,148,33186,1,0,0:0:0:0:
199,323,33416,6,0,L|196:240,1,67.4999979400635,6|0,0:0|0:0,0:0:0:0:
156,176,33878,1,0,0:0:0:0:
72,204,34109,1,0,0:0:0:0:
88,116,34339,2,0,P|157:85|225:113,1,134.999995880127
280,156,35032,1,0,0:0:0:0:
348,100,35262,6,0,P|382:87|428:88,1,67.4999979400635,4|0,0:0|0:0,0:0:0:0:
488,132,35724,1,0,0:0:0:0:
440,204,35955,1,0,0:0:0:0:
492,276,36186,2,0,P|436:295|365:252,1,134.999995880127
316,196,36878,1,0,0:0:0:0:
260,264,37109,6,0,L|192:264,1,67.4999979400635,4|0,0:0|0:0,0:0:0:0:
124,176,37570,2,0,L|192:176,1,67.4999979400635
267,88,38032,2,0,L|200:88,1,67.4999979400635
112,88,38493,2,0,P|60:113|37:202,2,134.999995880127,0|4|0,0:0|0:0|0:0,0:0:0:0:
124,176,39647,5,0,0:0:0:0:
180,244,39878,2,0,P|210:249|256:248,1,67.4999979400635
324,212,40339,2,0,P|354:206|400:208,1,67.4999979400635
452,268,40801,6,0,L|456:348,2,67.4999979400635,4|0|0,0:0|0:0|0:0,0:0:0:0:
488,188,41493,1,0,0:0:0:0:
428,124,41724,2,0,P|352:112|276:128,1,134.999995880127
220,168,42416,1,0,0:0:0:0:
140,132,42647,6,0,P|103:134|64:152,1,67.4999979400635,4|0,0:0|0:0,0:0:0:0:
4,200,43108,1,0,0:0:0:0:
60,268,43339,1,0,0:0:0:0:
8,336,43570,2,0,P|45:350|92:349,1,67.4999979400635
156,320,44031,1,0,0:0:0:0:
144,232,44262,1,0,0:0:0:0:
60,268,44493,6,0,P|57:202|117:144,2,134.999995880127,4|0|0,0:0|0:0|0:0,0:0:0:0:
144,232,45647,1,0,0:0:0:0:
156,319,45878,2,0,L|223:322,1,67.4999979400635
300,284,46339,6,0,P|296:216|304:136,1,134.999995880127,4|0,0:0|0:0,0:0:0:0:
348,76,47031,1,0,0:0:0:0:
420,128,47262,2,0,L|432:208,1,67.4999979400635
444,280,47724,1,0,0:0:0:0:
380,340,47955,1,0,0:0:0:0:
300,284,48186,6,0,P|257:281|216:292,1,75,6|0,0:0|0:0,0:0:0:0:
140,336,48647,2,0,P|97:338|56:328,1,75,8|0,0:0|0:0,0:0:0:0:
4,256,49109,2,0,L|40:100,1,150,2|8,0:0|0:0,0:0:0:0:
112,48,49801,1,0,0:0:0:0:
168,128,50032,6,0,P|205:133|248:128,1,75,2|0,0:0|0:0,0:0:0:0:
316,192,50493,2,0,P|337:122|287:38,2,150,8|2|8,0:0|0:0|0:0,0:0:0:0:
248,264,51647,1,0,0:0:0:0:
160,220,51878,6,0,L|60:240,1,75,2|0,0:0|0:0,0:0:0:0:
28,312,52339,2,0,L|101:326,1,75,8|0,0:0|0:0,0:0:0:0:
196,344,52801,1,2,0:0:0:0:
248,264,53032,1,0,0:0:0:0:
340,296,53262,2,0,P|375:302|424:292,1,75,8|0,0:0|0:0,0:0:0:0:
374,203,53724,6,0,P|338:197|301:203,1,75,2|0,0:0|0:0,0:0:0:0:
456,224,54186,2,0,P|436:146|364:120,2,150,8|2|8,0:0|0:0|0:0,0:0:0:0:
396,300,55339,1,0,0:0:0:0:
316,248,55570,6,0,P|277:253|224:280,1,75,2|0,0:0|0:0,0:0:0:0:
164,328,56032,2,0,P|129:341|92:346,1,75,8|0,0:0|0:0,0:0:0:0:
8,300,56493,2,0,P|12:224|32:132,1,150,2|8,0:0|0:0,0:0:0:0:
96,84,57186,1,0,0:0:0:0:
168,148,57416,5,2,0:0:0:0:
236,76,57647,2,0,P|270:69|312:72,1,75,0|8,0:0|0:0,0:0:0:0:
392,124,58109,1,0,0:0:0:0:
340,204,58339,1,2,0:0:0:0:
384,292,58570,1,0,0:0:0:0:
308,352,58801,2,0,P|264:354|204:348,1,75,8|2,0:0|0:0,0:0:0:0:
160,322,59147,1,2,0:0:0:0:
160,322,59262,6,0,P|153:282|156:232,1,75,2|8,0:0|0:0,0:0:0:0:
228,184,59724,2,0,P|234:144|232:94,1,75,2|8,0:0|0:0,0:0:0:0:
172,32,60186,1,2,0:0:0:0:
100,96,60415,1,8,0:0:0:0:
132,188,60646,1,2,0:0:0:0:
56,248,60877,1,8,0:0:0:0:
104,336,61109,6,0,P|144:344|192:340,1,75,2|8,0:0|0:0,0:0:0:0:
264,296,61570,2,0,P|304:288|352:292,1,75,2|8,0:0|0:0,0:0:0:0:
432,162,62032,1,2,0:0:0:0:
432,320,62262,1,8,0:0:0:0:
339,192,62493,1,2,0:0:0:0:
489,241,62724,1,12,0:0:0:0:
256,192,62955,12,8,66647,0:0:0:0:
256,344,68032,6,2,P|200:304|176:248,1,112.5,8|0,0:0|0:0,0:0:0:0:
184,216,68493,6,0,L|272:168,1,75,2|0,0:0|0:0,0:0:0:0:
248,84,68955,2,0,L|167:128,1,75,8|0,0:0|0:0,0:0:0:0:
100,172,69416,1,2,0:0:0:0:
28,104,69647,2,0,P|16:64|20:12,2,75,0|8|0,0:0|0:0|0:0,0:0:0:0:
100,172,70339,6,0,P|112:248|156:304,1,150,2|8,0:0|0:0,0:0:0:0:
240,356,71032,1,0,0:0:0:0:
320,300,71262,2,0,L|332:220,1,75,2|0,0:0|0:0,0:0:0:0:
408,164,71724,2,0,L|417:238,1,75,8|0,0:0|0:0,0:0:0:0:
320,136,72186,6,0,P|368:81|466:95,2,150,2|8|2,0:0|0:0|0:0,0:0:0:0:
284,228,73339,1,0,0:0:0:0:
192,192,73570,1,8,0:0:0:0:
192,192,73801,1,0,0:0:0:0:
148,280,74032,6,0,P|98:222|117:129,1,150,2|8,0:0|0:0,0:0:0:0:
160,72,74724,1,0,0:0:0:0:
160,72,74839,1,0,0:0:0:0:
160,72,74955,1,2,0:0:0:0:
251,100,75186,2,0,P|288:91|321:74,2,75,0|8|0,0:0|0:0|0:0,0:0:0:0:
384,20,75878,6,0,P|404:91|341:157,2,150,2|8|2,0:0|0:0|0:0,0:0:0:0:
300,72,77032,1,0,0:0:0:0:
212,36,77262,2,0,P|170:42|124:64,1,75,8|0,0:0|0:0,0:0:0:0:
72,124,77724,6,0,P|63:197|68:276,2,150,2|8|2,0:0|0:0|0:0,0:0:0:0:
139,54,78878,1,0,0:0:0:0:
196,132,79109,1,8,0:0:0:0:
292,148,79339,1,0,0:0:0:0:
292,148,79455,1,0,0:0:0:0:
292,148,79570,5,2,0:0:0:0:
360,220,79801,2,0,L|368:256,2,37.5,0|0|8,0:0|0:0|0:0,0:0:0:0:
436,156,80262,2,0,L|444:116,2,37.5,0|0|2,0:0|0:0|0:0,0:0:0:0:
472,248,80724,1,0,0:0:0:0:
472,248,80839,1,0,0:0:0:0:
472,248,80955,2,0,P|463:300|423:346,1,112.5,8|0,0:0|0:0,0:0:0:0:
376,352,81416,5,2,0:0:0:0:
296,292,81647,2,0,L|188:312,1,75
222,305,82109,2,0,P|206:231|207:156,1,150
180,64,82801,6,0,P|232:64|291:110,1,112.5,8|0,0:0|0:0,0:0:0:0:
312,132,83262,6,0,L|388:116,1,75,2|0,0:0|0:0,0:0:0:0:
452,188,83724,2,0,L|375:204,1,75,8|0,0:0|0:0,0:0:0:0:
312,276,84186,2,0,L|228:256,1,75,2|0,0:0|0:0,0:0:0:0:
172,188,84647,2,0,L|99:207,1,75,8|0,0:0|0:0,0:0:0:0:
168,96,85109,6,0,L|261:119,1,75,2|0,0:0|0:0,0:0:0:0:
336,140,85570,1,8,0:0:0:0:
396,64,85801,1,0,0:0:0:0:
480,116,86032,2,0,P|485:152|484:200,1,75,2|0,0:0|0:0,0:0:0:0:
444,252,86378,1,0,0:0:0:0:
444,252,86493,2,0,L|369:248,1,75,8|0,0:0|0:0,0:0:0:0:
296,184,86955,6,0,L|221:187,1,75,2|0,0:0|0:0,0:0:0:0:
136,232,87416,2,0,P|126:187|133:147,2,75,8|0|2,0:0|0:0|0:0,0:0:0:0:
204,304,88109,2,0,L|280:300,1,75,0|8,0:0|0:0,0:0:0:0:
376,304,88570,1,0,0:0:0:0:
336,216,88801,6,0,P|336:176|344:136,1,75,2|0,0:0|0:0,0:0:0:0:
270,41,89262,2,0,P|270:79|264:116,1,75,8|0,0:0|0:0,0:0:0:0:
176,156,89724,2,0,P|152:115|119:93,2,75
84,184,90416,1,0,0:0:0:0:
84,184,90532,1,0,0:0:0:0:
84,184,90647,6,0,P|79:225|84:268,1,75,2|0,0:0|0:0,0:0:0:0:
144,336,91109,2,0,P|180:338|228:332,1,75,8|0,0:0|0:0,0:0:0:0:
304,292,91570,2,0,P|340:289|388:296,1,75,2|0,0:0|0:0,0:0:0:0:
464,340,92032,2,0,L|456:380,2,37.5
476,244,92493,6,0,P|404:204|385:129,1,150,2|8,0:0|0:0,0:0:0:0:
332,60,93186,1,0,0:0:0:0:
252,116,93416,2,0,P|210:120|160:112,1,75,2|0,0:0|0:0,0:0:0:0:
88,80,93878,1,8,0:0:0:0:
64,176,94109,1,0,0:0:0:0:
64,176,94224,1,0,0:0:0:0:
64,176,94339,6,0,P|65:216|75:266,1,75,2|0,0:0|0:0,0:0:0:0:
124,332,94801,1,8,0:0:0:0:
124,332,95032,2,0,P|199:359|283:315,1,150,2|2,0:0|0:0,0:0:0:0:
332,268,95724,2,0,P|372:268|433:287,1,75,8|0,0:0|0:0,0:0:0:0:
480,340,96186,5,0,0:0:0:0:
496,244,96416,2,0,L|492:156,1,75,2|0,0:0|0:0,0:0:0:0:
460,76,96878,1,0,0:0:0:0:
460,76,97109,2,0,P|380:60|300:76,1,150,2|2,0:0|0:0,0:0:0:0:
240,136,97801,1,12,0:0:0:0:
212,152,99416,5,0,0:0:0:0:
184,272,99647,1,0,0:0:0:0:
184,272,99878,6,0,P|224:278|264:276,1,75,6|0,0:0|0:0,0:0:0:0:
348,240,100339,2,0,P|356:200|360:160,1,75,2|0,0:0|0:0,0:0:0:0:
344,68,100801,1,2,0:0:0:0:
256,108,101032,1,0,0:0:0:0:
256,108,101262,2,0,P|216:111|176:100,1,75,2|0,0:0|0:0,0:0:0:0:
100,48,101724,6,0,P|63:39|26:43,1,75,2|0,0:0|0:0,0:0:0:0:
56,136,102186,2,0,P|64:172|88:208,1,75,2|0,0:0|0:0,0:0:0:0:
168,256,102647,2,0,L|256:252,1,75,2|0,0:0|0:0,0:0:0:0:
340,244,103109,1,2,0:0:0:0:
380,332,103339,1,0,0:0:0:0:
460,276,103570,6,0,P|464:228|405:136,2,150,2|2|2,0:0|0:0|0:0,0:0:0:0:
380,332,104724,2,0,P|336:340|284:328,2,75,0|2|0,0:0|0:0|0:0,0:0:0:0:
472,296,105416,6,0,P|476:248|417:156,1,150,2|2,0:0|0:0,0:0:0:0:
340,116,106109,1,0,0:0:0:0:
267,184,106339,2,0,P|232:195|195:197,1,75,2|0,0:0|0:0,0:0:0:0:
67,102,106801,2,0,P|104:104|140:116,1,75,2|0,0:0|0:0,0:0:0:0:
195,197,107262,6,0,P|194:237|200:276,1,75,8|0,0:0|0:0,0:0:0:0:
256,352,107724,1,8,0:0:0:0:
332,292,107955,1,0,0:0:0:0:
412,348,108186,2,0,P|430:302|428:267,1,75,8|0,0:0|0:0,0:0:0:0:
366,120,108647,2,0,P|368:158|384:192,1,75,8|0,0:0|0:0,0:0:0:0:
464,128,109109,5,8,0:0:0:0:
428,36,109339,2,0,P|381:19|332:24,1,75,0|8,0:0|0:0,0:0:0:0:
260,28,109801,1,0,0:0:0:0:
204,107,110032,2,0,P|166:105|132:90,1,75,8|0,0:0|0:0,0:0:0:0:
52,40,110493,2,0,P|40:79|44:132,1,75,8|0,0:0|0:0,0:0:0:0:
88,200,110955,6,0,L|184:216,1,75,8|0,0:0|0:0,0:0:0:0:
274,289,111416,2,0,L|200:300,1,75,8|0,0:0|0:0,0:0:0:0:
104,292,111878,1,8,0:0:0:0:
160,212,112109,1,0,0:0:0:0:
216,132,112339,1,8,0:0:0:0:
216,132,112570,1,0,0:0:0:0:
292,68,112801,6,8,L|300:8,3,37.5
364,96,113262,2,8,L|372:40,3,37.5
439,123,113724,2,0,L|444:90,6,18.75
428,168,114186,6,0,P|384:204|316:208,1,112.5,8|0,0:0|0:0,0:0:0:0:
288,188,114647,6,0,L|280:270,1,82.5000025177003,6|0,0:0|0:0,0:0:0:0:
188,304,115109,2,0,L|194:221,1,82.5000025177003,8|0,0:0|0:0,0:0:0:0:
112,168,115570,2,0,L|106:250,1,82.5000025177003,2|0,0:0|0:0,0:0:0:0:
96,348,116032,1,8,0:0:0:0:
188,304,116262,1,0,0:0:0:0:
280,270,116493,6,0,P|320:264|362:271,1,82.5000025177003,2|0,0:0|0:0,0:0:0:0:
187,303,116955,2,0,P|198:221|266:173,2,165.000005035401,8|2|8,0:0|0:0|0:0,0:0:0:0:
280,268,118109,1,0,0:0:0:0:
360,324,118339,5,2,0:0:0:0:
424,248,118570,1,0,0:0:0:0:
424,248,118801,2,0,P|416:206|416:160,1,82.5000025177003,8|0,0:0|0:0,0:0:0:0:
324,132,119262,2,0,P|331:172|332:213,1,82.5000025177003,2|0,0:0|0:0,0:0:0:0:
251,63,119724,2,0,P|326:34|400:68,2,165.000005035401,8|2|8,0:0|0:0|0:0,0:0:0:0:
180,132,120878,5,0,0:0:0:0:
100,72,121109,2,0,P|83:115|94:183,1,82.5000025177003,2|0,0:0|0:0,0:0:0:0:
132,236,121570,2,0,P|174:243|237:236,1,82.5000025177003,8|0,0:0|0:0,0:0:0:0:
308,204,122032,6,0,P|350:197|413:204,1,82.5000025177003,2|0,0:0|0:0,0:0:0:0:
428,108,122493,2,0,P|386:115|323:108,1,82.5000025177003,8|0,0:0|0:0,0:0:0:0:
260,64,122955,2,0,P|172:36|88:76,1,165.000005035401,2|8,0:0|0:0,0:0:0:0:
84,152,123647,1,0,0:0:0:0:
180,176,123878,6,0,P|186:220|200:260,1,82.5000025177003,2|0,0:0|0:0,0:0:0:0:
268,328,124339,1,8,0:0:0:0:
268,328,124570,1,0,0:0:0:0:
340,260,124801,2,0,P|352:220|358:179,1,82.5000025177003,2|0,0:0|0:0,0:0:0:0:
324,88,125262,1,8,0:0:0:0:
232,128,125493,1,0,0:0:0:0:
168,52,125724,6,0,P|133:117|175:208,2,165.000005035401,2|8|2,0:0|0:0|0:0,0:0:0:0:
232,128,126878,1,0,0:0:0:0:
324,88,127109,2,0,P|365:89|421:116,1,82.5000025177003,8|0,0:0|0:0,0:0:0:0:
464,184,127570,6,0,P|448:275|374:318,1,165.000005035401,2|8,0:0|0:0,0:0:0:0:
369,218,128262,1,0,0:0:0:0:
272,228,128493,2,0,L|256:204,6,20.6250006294251
244,180,128955,6,0,P|183:202|112:208,1,123.75000377655,8|0,0:0|0:0,0:0:0:0:
80,240,129416,6,0,P|82:200|80:152,1,82.5000025177003,6|0,0:0|0:0,0:0:0:0:
170,32,129878,2,0,P|167:73|169:114,1,82.5000025177003,8|0,0:0|0:0,0:0:0:0:
244,180,130339,1,2,0:0:0:0:
328,128,130570,1,0,0:0:0:0:
395,200,130801,2,0,P|421:167|430:127,1,82.5000025177003,8|0,0:0|0:0,0:0:0:0:
311,251,131262,6,0,P|340:281|377:299,1,82.5000025177003,2|0,0:0|0:0,0:0:0:0:
244,180,131724,2,0,P|217:223|212:271,1,82.5000025177003,8|0,0:0|0:0,0:0:0:0:
244,348,132186,1,2,0:0:0:0:
244,348,132416,1,0,0:0:0:0:
336,308,132647,2,0,L|416:291,1,82.5000025177003,8|0,0:0|0:0,0:0:0:0:
500,207,133109,6,0,L|420:192,1,82.5000025177003,2|0,0:0|0:0,0:0:0:0:
324,160,133570,1,8,0:0:0:0:
276,72,133801,1,0,0:0:0:0:
192,124,134032,2,0,P|150:131|96:124,1,82.5000025177003,2|0,0:0|0:0,0:0:0:0:
276,72,134493,2,0,P|288:147|201:221,2,165.000005035401,8|2|8,0:0|0:0|0:0,0:0:0:0:
192,124,135647,5,0,0:0:0:0:
112,180,135878,2,0,P|108:224|96:268,1,82.5000025177003,2|0,0:0|0:0,0:0:0:0:
32,336,136339,2,0,L|136:344,1,82.5000025177003,8|0,0:0|0:0,0:0:0:0:
200,292,136801,6,0,L|304:284,1,82.5000025177003,2|0,0:0|0:0,0:0:0:0:
426,214,137262,2,0,L|344:208,1,82.5000025177003,8|0,0:0|0:0,0:0:0:0:
244,200,137724,1,2,0:0:0:0:
220,104,137955,1,0,0:0:0:0:
128,140,138186,2,0,P|51:117|15:45,2,165.000005035401,8|2|8,0:0|0:0|0:0,0:0:0:0:
116,44,139339,5,0,0:0:0:0:
216,36,139570,2,0,L|304:56,1,82.5000025177003,2|0,0:0|0:0,0:0:0:0:
340,144,140032,2,0,L|444:120,1,82.5000025177003,8|0,0:0|0:0,0:0:0:0:
508,172,140493,5,0,0:0:0:0:
452,252,140724,2,0,L|368:229,1,82.5000025177003
276,208,141186,2,0,L|188:232,1,82.5000025177003
88,302,141647,2,0,L|168:324,1,82.5000025177003
264,348,142109,1,0,0:0:0:0:
316,264,142339,6,0,L|328:172,1,82.5000025177003
244,128,142801,2,0,L|234:210,1,82.5000025177003
140,236,143262,2,0,L|150:143,1,82.5000025177003
72,88,143724,2,0,L|63:170,1,82.5000025177003
43,285,144186,5,6,0:0:0:0:
