osu file format v14

[General]
AudioFilename: RAN - Dekat di Hati (REDSHiFT Remix).mp3
AudioLeadIn: 0
PreviewTime: 67339
Countdown: 0
SampleSet: Soft
StackLeniency: 0.7
Mode: 3
LetterboxInBreaks: 0
EpilepsyWarning: 1
SpecialStyle: 0
WidescreenStoryboard: 1

[Editor]
DistanceSpacing: 1
BeatDivisor: 8
GridSize: 4
TimelineZoom: 1.8

[Metadata]
Title:Dekat di Hati (REDSHiFT Remix)
TitleUnicode:Dekat di Hati (REDSHiFT Remix)
Artist:RAN
ArtistUnicode:RAN
Creator:[ A v a l o n ]
Version:Maximum
Source:
Tags:Del05 Mako Sakata Surono Flying_Pan Volta Genocide PatZar Hatsune Miku feat. Megurine Luka 初音ミク 巡音ルカ Vocaloid Bahasa Indonesia crashtest rikuu powerkid Kuroha AI
BeatmapID:772148
BeatmapSetID:350207

[Difficulty]
HPDrainRate:8
CircleSize:4
OverallDifficulty:7
ApproachRate:5
SliderMultiplier:1.4
SliderTickRate:1

[Events]
//Background and Video events
0,0,"Dekat di hati (REDSHiFT Remix).jpg",0,0
//Break Periods
//Storyboard Layer 0 (Background)
Sprite,Background,TopLeft,"Dekat di hati (REDSHiFT Remix).jpg",320,240 F,0,14,,0 S,0,14,151570,0.6861936
//Storyboard Layer 1 (Fail)
//Storyboard Layer 2 (Pass)
//Storyboard Layer 3 (Foreground)
Sprite,Foreground,Centre,"SB/Lyric1.png",320,240 S,0,3762,,0.6861935 F,0,3762,3993,0,1 M,0,3762,10339,927,458,100,458
Sprite,Foreground,Centre,"SB/Lyric2.png",320,240 S,0,11147,,0.6861935 F,0,11147,11378,0,1 M,0,11147,17724,921,458,94,458
Sprite,Foreground,Centre,"SB/Lyric3.png",320,240 S,0,18532,,0.6861935 F,0,18532,18762,0,1 M,0,18532,25109,900,458,27,458
Sprite,Foreground,Centre,"SB/Lyric4.png",320,240 S,0,25916,,0.6861935 F,0,25916,26147,0,1 M,0,25916,32493,875,458,48,458
Sprite,Foreground,Centre,"SB/Lyric5.png",320,240 S,0,33301,,0.6861935 F,0,33301,33532,0,1 M,0,33301,36186,807,458,350,458
Sprite,Foreground,Centre,"SB/Lyric6.png",320,240 S,0,36993,,0.6861935 F,0,36993,37224,0,1 M,0,36993,39878,810,458,345,458
Sprite,Foreground,Centre,"SB/Lyric7.png",320,240 S,0,40686,,0.6861935 F,0,40686,40916,0,1 M,0,40686,47262,927,458,100,458
Sprite,Foreground,Centre,"SB/Lyric8.png",320,240 S,0,48070,,0.6861935 F,0,48070,48301,0,1 M,0,48070,50955,805,458,348,458
Sprite,Foreground,Centre,"SB/Lyric9.png",320,240 S,0,51762,,0.6861935 F,0,51762,51993,0,1 M,0,51762,54647,850,458,310,458
Sprite,Foreground,Centre,"SB/Lyric10.png",320,240 S,0,55455,,0.6861935 F,0,55455,55686,0,1 M,0,55455,57416,787,458,380,458
Sprite,Foreground,Centre,"SB/Lyric11.png",320,240 S,0,57993,,0.6861935 F,0,57993,58224,0,1 M,0,57993,61109,744,458,300,458 S,0,67224,,0.6861935 F,0,67224,67455,0,1 M,0,67224,70339,744,458,300,458 S,0,81993,,0.6861935 F,0,81993,82224,0,1 M,0,81993,85109,744,458,300,458
Sprite,Foreground,Centre,"SB/Lyric1b.png",320,240 S,0,99762,,0.6861935 F,0,99762,99993,0,1 M,0,99762,106339,419,458,-408,458
Sprite,Foreground,Centre,"SB/Lyric4b.png",320,240 S,0,107147,,0.6861935 F,0,107147,107378,0,1 M,0,107147,113724,366,458,-461,458
Sprite,Foreground,Centre,"SB/Lyric5b.png",320,240 S,0,114532,,0.6861935 F,0,114532,114762,0,1 M,0,114532,117416,299,458,-158,458
Sprite,Foreground,Centre,"SB/Lyric6b.png",320,240 S,0,118224,,0.6861935 F,0,118224,118455,0,1 M,0,118224,121109,303,458,-162,458
Sprite,Foreground,Centre,"SB/Lyric7b.png",320,240 S,0,121916,,0.6861935 F,0,121916,122147,0,1 M,0,121916,128493,419,458,-408,458
Sprite,Foreground,Centre,"SB/Lyric8b.png",320,240 S,0,129301,,0.6861935 F,0,129301,129532,0,1 M,0,129301,132186,298,458,-159,458
Sprite,Foreground,Centre,"SB/Lyric9b.png",320,240 S,0,132993,,0.6861935 F,0,132993,133224,0,1 M,0,132993,135878,343,458,-197,458
Sprite,Foreground,Centre,"SB/Lyric10b.png",320,240 S,0,136686,,0.6861935 F,0,136686,136916,0,1 M,0,136686,138647,279,458,-128,458
Sprite,Foreground,Centre,"SB/Lyric11b.png",320,240 S,0,139224,,0.6861935 F,0,139224,139455,0,1 M,0,139224,144186,228,458,-160,458
Sprite,Foreground,Centre,"SB/Middly.jpg",320,240 F,0,2032,3878,0,1 S,0,2032,98032,0.6283873 F,0,97570,98032,1,0 F,0,99416,99878,0,1 S,0,99878,151570,0.6283873 F,0,144186,147878,1,0
Sprite,Foreground,Centre,"SB/Lyrictemplate.png",320,240 M,0,2032,,574,240 F,0,2032,3878,0,1 S,0,2032,98032,0.6283873 F,0,97570,98032,1,0 M,0,99416,,66,240 F,0,99416,99878,0,1 S,0,99416,151570,0.6283873 F,0,144186,147878,1,0
Sprite,Foreground,Centre,"SB/Lefty.jpg",320,240 M,0,2032,,66,240 F,0,2032,3878,0,1 S,0,2032,98032,0.6283873 F,0,97570,98032,1,0
Sprite,Foreground,Centre,"SB/Righty.jpg",320,240 F,0,99416,99878,0,1 M,0,99878,,574,240 S,0,99878,147878,0.6283873 F,0,144186,147878,1,0 S,0,147878,,0.6283873
Sprite,Foreground,Centre,"SB/Rain.png",320,240 F,0,98032,98262,0,1 F,0,98262,99186,1 F,0,99186,99416,1,0 S,0,99186,99416,0.6283873,1.933162
Sprite,Foreground,Centre,"SB/Lefty.jpg",320,240 M,0,33416,,66,240 F,0,33416,33878,1,0 S,0,33416,33878,0.6283873,0.6944515 F,0,48186,48647,1,0 S,0,48186,48647,0.6283873,0.6944515 F,0,49109,49570,1,0 S,0,49109,49570,0.6283873,0.6944515 F,0,50032,50493,1,0 S,0,50032,50493,0.6283873,0.6944515 F,0,50955,51416,1,0 S,0,50955,51416,0.6283873,0.6944515 F,0,51878,52339,1,0 S,0,51878,52339,0.6283873,0.6944515 F,0,52801,53262,1,0 S,0,52801,53262,0.6283873,0.6944515 F,0,53724,54186,1,0 S,0,53724,54186,0.6283873,0.6944515 F,0,54647,55109,1,0 S,0,54647,55109,0.6283873,0.6944515 F,0,55570,56032,1,0 S,0,55570,56032,0.6283873,0.6944515 F,0,56493,56955,1,0 S,0,56493,56955,0.6283873,0.6944515 F,0,57416,57878,1,0 S,0,57416,57878,0.6283873,0.6944515 F,0,58339,58801,1,0 S,0,58339,58801,0.6283873,0.6944515 F,0,59262,59724,1,0 S,0,59262,59724,0.6283873,0.6944515 F,0,68493,68955,1,0 S,0,68493,68955,0.6283873,0.6944515 F,0,69416,69878,1,0 S,0,69416,69878,0.6283873,0.6944515 F,0,70339,70801,1,0 S,0,70339,70801,0.6283873,0.6944515 F,0,71262,71724,1,0 S,0,71262,71724,0.6283873,0.6944515 F,0,72186,72647,1,0 S,0,72186,72647,0.6283873,0.6944515 F,0,73109,73570,1,0 S,0,73109,73570,0.6283873,0.6944515 F,0,74032,74493,1,0 S,0,74032,74493,0.6283873,0.6944515 F,0,74955,75416,1,0 S,0,74955,75416,0.6283873,0.6944515 F,0,75878,76339,1,0 S,0,75878,76339,0.6283873,0.6944515 F,0,76801,77262,1,0 S,0,76801,77262,0.6283873,0.6944515 F,0,77724,78186,1,0 S,0,77724,78186,0.6283873,0.6944515 F,0,78647,79109,1,0 S,0,78647,79109,0.6283873,0.6944515 F,0,79570,80032,1,0 S,0,79570,80032,0.6283873,0.6944515 F,0,80493,80955,1,0 S,0,80493,80955,0.6283873,0.6944515 F,0,81416,81878,1,0 S,0,81416,81878,0.6283873,0.6944515 F,0,83262,83724,1,0 S,0,83262,83724,0.6283873,0.6944515 F,0,84186,84647,1,0 S,0,84186,84647,0.6283873,0.6944515 F,0,85109,85570,1,0 S,0,85109,85570,0.6283873,0.6944515 F,0,86032,86493,1,0 S,0,86032,86493,0.6283873,0.6944515 F,0,86955,87416,1,0 S,0,86955,87416,0.6283873,0.6944515 F,0,87878,88339,1,0 S,0,87878,88339,0.6283873,0.6944515 F,0,88801,89262,1,0 S,0,88801,89262,0.6283873,0.6944515 F,0,89724,90186,1,0 S,0,89724,90186,0.6283873,0.6944515 F,0,90647,91109,1,0 S,0,90647,91109,0.6283873,0.6944515 F,0,91570,92032,1,0 S,0,91570,92032,0.6283873,0.6944515 F,0,92493,92955,1,0 S,0,92493,92955,0.6283873,0.6944515 F,0,93416,93878,1,0 S,0,93416,93878,0.6283873,0.6944515 F,0,94339,94801,1,0 S,0,94339,94801,0.6283873,0.6944515 F,0,95032,95493,1,0 S,0,95032,95493,0.6283873,0.6944515 F,0,95724,96186,1,0 S,0,95724,96186,0.6283873,0.6944515 F,0,96416,96878,1,0 S,0,96416,96878,0.6283873,0.6944515 F,0,97109,97570,1,0 S,0,97109,97570,0.6283873,0.6944515
Sprite,Foreground,Centre,"SB/flash.png",320,240 C,0,68493,,154,210,204 F,0,68493,68955,1,0 S,0,68493,68955,0.6283873,0.6944515 F,0,69416,69878,1,0 S,0,69416,69878,0.6283873,0.6944515 F,0,70339,70801,1,0 S,0,70339,70801,0.6283873,0.6944515 F,0,71262,71724,1,0 S,0,71262,71724,0.6283873,0.6944515 F,0,72186,72647,1,0 S,0,72186,72647,0.6283873,0.6944515 F,0,73109,73570,1,0 S,0,73109,73570,0.6283873,0.6944515 F,0,74032,74493,1,0 S,0,74032,74493,0.6283873,0.6944515 F,0,74955,75416,1,0 S,0,74955,75416,0.6283873,0.6944515 F,0,75878,76339,1,0 S,0,75878,76339,0.6283873,0.6944515 F,0,76801,77262,1,0 S,0,76801,77262,0.6283873,0.6944515 F,0,77724,78186,1,0 S,0,77724,78186,0.6283873,0.6944515 F,0,78647,79109,1,0 S,0,78647,79109,0.6283873,0.6944515 F,0,79570,80032,1,0 S,0,79570,80032,0.6283873,0.6944515 F,0,80493,80955,1,0 S,0,80493,80955,0.6283873,0.6944515 F,0,81416,81878,1,0 S,0,81416,81878,0.6283873,0.6944515 F,0,83262,83724,1,0 S,0,83262,83724,0.6283873,0.6944515 F,0,84186,84647,1,0 S,0,84186,84647,0.6283873,0.6944515 F,0,85109,85570,1,0 S,0,85109,85570,0.6283873,0.6944515 F,0,86032,86493,1,0 S,0,86032,86493,0.6283873,0.6944515 F,0,86955,87416,1,0 S,0,86955,87416,0.6283873,0.6944515 F,0,87878,88339,1,0 S,0,87878,88339,0.6283873,0.6944515 F,0,88801,89262,1,0 S,0,88801,89262,0.6283873,0.6944515 F,0,89724,90186,1,0 S,0,89724,90186,0.6283873,0.6944515 F,0,90647,91109,1,0 S,0,90647,91109,0.6283873,0.6944515 F,0,91570,92032,1,0 S,0,91570,92032,0.6283873,0.6944515 F,0,92493,92955,1,0 S,0,92493,92955,0.6283873,0.6944515 F,0,93416,93878,1,0 S,0,93416,93878,0.6283873,0.6944515 F,0,94339,94801,1,0 S,0,94339,94801,0.6283873,0.6944515 F,0,95032,95493,1,0 S,0,95032,95493,0.6283873,0.6944515 F,0,95724,96186,1,0 S,0,95724,96186,0.6283873,0.6944515 F,0,96416,96878,1,0 S,0,96416,96878,0.6283873,0.6944515 F,0,97109,97570,1,0 S,0,97109,97570,0.6283873,0.6944515
Sprite,Foreground,Centre,"SB/Righty.jpg",320,240 M,0,107262,,574,240 F,0,107262,107724,1,0 S,0,107262,107724,0.6283873,0.6944515 F,0,108186,108647,1,0 S,0,108186,108647,0.6283873,0.6944515 F,0,109109,109570,1,0 S,0,109109,109570,0.6283873,0.6944515 F,0,110032,110493,1,0 S,0,110032,110493,0.6283873,0.6944515 F,0,110955,111416,1,0 S,0,110955,111416,0.6283873,0.6944515 F,0,111878,112339,1,0 S,0,111878,112339,0.6283873,0.6944515 F,0,112801,113262,1,0 S,0,112801,113262,0.6283873,0.6944515 F,0,113724,114186,1,0 S,0,113724,114186,0.6283873,0.6944515 F,0,114647,115109,1,0 S,0,114647,115109,0.6283873,0.6944515 F,0,115570,116032,1,0 S,0,115570,116032,0.6283873,0.6944515 F,0,116493,116955,1,0 S,0,116493,116955,0.6283873,0.6944515 F,0,117416,117878,1,0 S,0,117416,117878,0.6283873,0.6944515 F,0,118339,118801,1,0 S,0,118339,118801,0.6283873,0.6944515 F,0,119262,119724,1,0 S,0,119262,119724,0.6283873,0.6944515 F,0,120186,120647,1,0 S,0,120186,120647,0.6283873,0.6944515 F,0,121109,121570,1,0 S,0,121109,121570,0.6283873,0.6944515 F,0,122032,122493,1,0 S,0,122032,122493,0.6283873,0.6944515 F,0,122955,123416,1,0 S,0,122955,123416,0.6283873,0.6944515 F,0,123878,124339,1,0 S,0,123878,124339,0.6283873,0.6944515 F,0,124801,125262,1,0 S,0,124801,125262,0.6283873,0.6944515 F,0,125724,126186,1,0 S,0,125724,126186,0.6283873,0.6944515 F,0,126647,127109,1,0 S,0,126647,127109,0.6283873,0.6944515 F,0,127570,128032,1,0 S,0,127570,128032,0.6283873,0.6944515 F,0,128493,128955,1,0 S,0,128493,128955,0.6283873,0.6944515 F,0,129416,129878,1,0 S,0,129416,129878,0.6283873,0.6944515 F,0,130339,130801,1,0 S,0,130339,130801,0.6283873,0.6944515 F,0,131262,131724,1,0 S,0,131262,131724,0.6283873,0.6944515 F,0,132186,132647,1,0 S,0,132186,132647,0.6283873,0.6944515 F,0,133109,133570,1,0 S,0,133109,133570,0.6283873,0.6944515 F,0,134032,134493,1,0 S,0,134032,134493,0.6283873,0.6944515 F,0,134955,135416,1,0 S,0,134955,135416,0.6283873,0.6944515 F,0,135878,136339,1,0 S,0,135878,136339,0.6283873,0.6944515 F,0,136801,137262,1,0 S,0,136801,137262,0.6283873,0.6944515 F,0,137724,138186,1,0 S,0,137724,138186,0.6283873,0.6944515 F,0,138647,139109,1,0 S,0,138647,139109,0.6283873,0.6944515 F,0,139570,140032,1,0 S,0,139570,140032,0.6283873,0.6944515
Sprite,Foreground,Centre,"SB/flash.png",320,240 C,0,114647,,238,185,214 F,0,114647,115109,1,0 S,0,114647,115109,0.6283873,0.6944515 F,0,115570,116032,1,0 S,0,115570,116032,0.6283873,0.6944515 F,0,116493,116955,1,0 S,0,116493,116955,0.6283873,0.6944515 F,0,117416,117878,1,0 S,0,117416,117878,0.6283873,0.6944515 F,0,118339,118801,1,0 S,0,118339,118801,0.6283873,0.6944515 F,0,119262,119724,1,0 S,0,119262,119724,0.6283873,0.6944515 F,0,120186,120647,1,0 S,0,120186,120647,0.6283873,0.6944515 F,0,121109,121570,1,0 S,0,121109,121570,0.6283873,0.6944515 F,0,122032,122493,1,0 S,0,122032,122493,0.6283873,0.6944515 F,0,122955,123416,1,0 S,0,122955,123416,0.6283873,0.6944515 F,0,123878,124339,1,0 S,0,123878,124339,0.6283873,0.6944515 F,0,124801,125262,1,0 S,0,124801,125262,0.6283873,0.6944515 F,0,125724,126186,1,0 S,0,125724,126186,0.6283873,0.6944515 F,0,126647,127109,1,0 S,0,126647,127109,0.6283873,0.6944515 F,0,127570,128032,1,0 S,0,127570,128032,0.6283873,0.6944515 F,0,128493,128955,1,0 S,0,128493,128955,0.6283873,0.6944515 F,0,129416,129878,1,0 S,0,129416,129878,0.6283873,0.6944515 F,0,130339,130801,1,0 S,0,130339,130801,0.6283873,0.6944515 F,0,131262,131724,1,0 S,0,131262,131724,0.6283873,0.6944515 F,0,132186,132647,1,0 S,0,132186,132647,0.6283873,0.6944515 F,0,133109,133570,1,0 S,0,133109,133570,0.6283873,0.6944515 F,0,134032,134493,1,0 S,0,134032,134493,0.6283873,0.6944515 F,0,134955,135416,1,0 S,0,134955,135416,0.6283873,0.6944515 F,0,135878,136339,1,0 S,0,135878,136339,0.6283873,0.6944515 F,0,136801,137262,1,0 S,0,136801,137262,0.6283873,0.6944515 F,0,137724,138186,1,0 S,0,137724,138186,0.6283873,0.6944515 F,0,138647,139109,1,0 S,0,138647,139109,0.6283873,0.6944515 F,0,139570,140032,1,0 S,0,139570,140032,0.6283873,0.6944515
//Storyboard Sound Samples
Sample,143955,0,"Hat.wav",70

[TimingPoints]
2032,461.538461538462,4,2,1,50,1,0
2032,-111.111111111111,4,2,1,50,0,0
33416,-100,4,2,1,50,0,0
68032,-50,4,2,1,50,0,0
68147,-142.857142857143,4,2,1,50,0,0
68493,-100,4,2,1,50,0,1
81416,-100,4,2,1,50,0,0
82801,-50,4,2,1,50,0,0
82916,-142.857142857143,4,2,1,50,0,0
83262,-100,4,2,1,50,0,1
94339,-100,4,2,1,50,0,0
114186,-50,4,2,1,50,0,0
114301,-142.857142857143,4,2,1,50,0,0
114647,-100,4,2,1,50,0,1
128955,-50,4,2,1,50,0,1
129070,-142.857142857143,4,2,1,50,0,1
129416,-100,4,2,1,50,0,1
144185,-100,4,2,1,50,0,0

[HitObjects]
448,192,2493,128,0,3878:0:0:0:0:
192,192,3878,1,2,0:0:0:0:
64,192,3878,1,4,0:0:0:0:
320,192,3878,1,0,0:0:0:0:
192,192,4108,1,0,0:0:0:0:
320,192,4339,1,0,0:0:0:0:
448,192,4570,1,0,0:0:0:0:
320,192,4801,1,0,0:0:0:0:
192,192,5032,1,0,0:0:0:0:
64,192,5262,1,0,0:0:0:0:
192,192,5493,1,0,0:0:0:0:
320,192,5724,1,0,0:0:0:0:
448,192,5724,1,0,0:0:0:0:
64,192,5955,1,0,0:0:0:0:
192,192,6185,1,0,0:0:0:0:
320,192,6416,1,0,0:0:0:0:
448,192,6647,1,0,0:0:0:0:
320,192,6878,1,0,0:0:0:0:
192,192,7108,1,0,0:0:0:0:
64,192,7339,1,0,0:0:0:0:
192,192,7570,1,0,0:0:0:0:
448,192,7570,1,0,0:0:0:0:
320,192,7801,1,0,0:0:0:0:
448,192,8032,1,0,0:0:0:0:
320,192,8262,1,0,0:0:0:0:
192,192,8493,1,0,0:0:0:0:
320,192,8724,1,0,0:0:0:0:
192,192,8955,1,0,0:0:0:0:
64,192,9185,1,0,0:0:0:0:
320,192,9416,1,0,0:0:0:0:
192,192,9416,1,0,0:0:0:0:
448,192,9647,1,0,0:0:0:0:
320,192,9878,1,0,0:0:0:0:
192,192,10108,1,0,0:0:0:0:
320,192,10339,1,0,0:0:0:0:
192,192,10570,1,0,0:0:0:0:
64,192,10801,1,0,0:0:0:0:
192,192,11032,1,0,0:0:0:0:
320,192,11262,1,0,0:0:0:0:
448,192,11262,1,0,0:0:0:0:
64,192,11493,1,0,0:0:0:0:
192,192,11724,1,0,0:0:0:0:
320,192,11955,1,0,0:0:0:0:
448,192,12185,1,0,0:0:0:0:
320,192,12416,1,0,0:0:0:0:
192,192,12647,1,0,0:0:0:0:
64,192,12878,1,0,0:0:0:0:
320,192,13108,1,0,0:0:0:0:
448,192,13108,1,0,0:0:0:0:
192,192,13339,1,0,0:0:0:0:
320,192,13570,1,0,0:0:0:0:
448,192,13801,1,0,0:0:0:0:
320,192,14032,1,0,0:0:0:0:
192,192,14262,1,0,0:0:0:0:
320,192,14493,1,0,0:0:0:0:
192,192,14724,1,0,0:0:0:0:
64,192,14955,1,0,0:0:0:0:
448,192,14955,1,0,0:0:0:0:
320,192,15185,1,0,0:0:0:0:
192,192,15416,1,0,0:0:0:0:
320,192,15647,1,0,0:0:0:0:
192,192,15878,1,0,0:0:0:0:
64,192,16108,1,0,0:0:0:0:
192,192,16339,1,0,0:0:0:0:
320,192,16570,1,0,0:0:0:0:
64,192,16801,1,0,0:0:0:0:
448,192,16801,1,0,0:0:0:0:
192,192,17032,1,0,0:0:0:0:
320,192,17262,1,0,0:0:0:0:
448,192,17493,1,0,0:0:0:0:
64,192,17724,1,0,0:0:0:0:
192,192,17724,1,0,0:0:0:0:
320,192,17955,1,0,0:0:0:0:
64,192,18185,1,0,0:0:0:0:
192,192,18416,1,0,0:0:0:0:
320,192,18647,1,0,0:0:0:0:
448,192,18647,128,0,20493:0:0:0:0:
64,192,18878,1,0,0:0:0:0:
320,192,19108,1,0,0:0:0:0:
64,192,19339,1,0,0:0:0:0:
192,192,19339,1,0,0:0:0:0:
320,192,19570,1,0,0:0:0:0:
64,192,19801,1,0,0:0:0:0:
320,192,20032,1,0,0:0:0:0:
192,192,20032,1,0,0:0:0:0:
64,192,20262,1,0,0:0:0:0:
192,192,20493,1,0,0:0:0:0:
320,192,20493,128,0,22339:0:0:0:0:
64,192,20724,1,0,0:0:0:0:
448,192,20955,1,0,0:0:0:0:
64,192,21185,1,0,0:0:0:0:
192,192,21185,1,0,0:0:0:0:
448,192,21416,1,0,0:0:0:0:
64,192,21647,1,0,0:0:0:0:
192,192,21878,1,0,0:0:0:0:
448,192,21878,1,0,0:0:0:0:
64,192,22108,1,0,0:0:0:0:
448,192,22339,1,0,0:0:0:0:
192,192,22339,128,0,24185:0:0:0:0:
320,192,22570,1,0,0:0:0:0:
64,192,22801,1,0,0:0:0:0:
448,192,23032,1,0,0:0:0:0:
320,192,23032,1,0,0:0:0:0:
64,192,23262,1,0,0:0:0:0:
448,192,23493,1,0,0:0:0:0:
320,192,23724,1,0,0:0:0:0:
64,192,23724,1,0,0:0:0:0:
448,192,23955,1,0,0:0:0:0:
320,192,24185,1,0,0:0:0:0:
64,192,24185,128,0,26032:0:0:0:0:
192,192,24416,1,0,0:0:0:0:
448,192,24647,1,0,0:0:0:0:
192,192,24878,1,0,0:0:0:0:
320,192,24878,1,0,0:0:0:0:
448,192,25108,1,0,0:0:0:0:
192,192,25339,1,0,0:0:0:0:
320,192,25570,1,0,0:0:0:0:
448,192,25570,1,0,0:0:0:0:
192,192,25801,1,0,0:0:0:0:
320,192,26032,1,0,0:0:0:0:
448,192,26032,128,0,27878:0:0:0:0:
64,192,26262,1,0,0:0:0:0:
320,192,26493,1,0,0:0:0:0:
64,192,26724,1,0,0:0:0:0:
192,192,26724,1,0,0:0:0:0:
320,192,26955,1,0,0:0:0:0:
64,192,27185,1,0,0:0:0:0:
192,192,27416,1,0,0:0:0:0:
320,192,27416,1,0,0:0:0:0:
64,192,27647,1,0,0:0:0:0:
192,192,27878,1,0,0:0:0:0:
320,192,27878,128,0,29724:0:0:0:0:
448,192,28108,1,0,0:0:0:0:
64,192,28339,1,0,0:0:0:0:
448,192,28570,1,0,0:0:0:0:
192,192,28570,1,0,0:0:0:0:
64,192,28801,1,0,0:0:0:0:
448,192,29032,1,0,0:0:0:0:
64,192,29262,1,0,0:0:0:0:
192,192,29262,1,0,0:0:0:0:
448,192,29493,1,0,0:0:0:0:
64,192,29724,1,0,0:0:0:0:
192,192,29724,128,0,31570:0:0:0:0:
320,192,29955,1,0,0:0:0:0:
64,192,30185,1,0,0:0:0:0:
448,192,30416,1,0,0:0:0:0:
320,192,30416,1,0,0:0:0:0:
64,192,30647,1,0,0:0:0:0:
448,192,30878,1,0,0:0:0:0:
64,192,31108,1,0,0:0:0:0:
320,192,31108,1,0,0:0:0:0:
448,192,31339,1,0,0:0:0:0:
320,192,31570,1,0,0:0:0:0:
64,192,31570,128,0,32493:0:0:0:0:
192,192,31801,1,0,0:0:0:0:
448,192,32032,1,0,0:0:0:0:
320,192,32262,1,0,0:0:0:0:
192,192,32262,1,0,0:0:0:0:
448,192,32493,128,0,33416:0:0:0:0:
320,192,32493,1,0,0:0:0:0:
64,192,32724,1,0,0:0:0:0:
192,192,32955,1,0,0:0:0:0:
320,192,32955,1,0,0:0:0:0:
192,192,33416,1,2,0:0:0:0:
320,192,33416,1,4,0:0:0:0:
64,192,33416,1,0,0:0:0:0:
192,192,33647,1,0,0:0:0:0:
448,192,33878,1,0,0:0:0:0:
64,192,33878,1,0,0:0:0:0:
320,192,34108,1,0,0:0:0:0:
448,192,34339,1,0,0:0:0:0:
192,192,34339,1,0,0:0:0:0:
320,192,34570,1,0,0:0:0:0:
192,192,34801,1,0,0:0:0:0:
64,192,34801,1,0,0:0:0:0:
448,192,35032,1,0,0:0:0:0:
64,192,35262,1,0,0:0:0:0:
320,192,35262,1,0,0:0:0:0:
192,192,35262,1,0,0:0:0:0:
448,192,35493,1,0,0:0:0:0:
64,192,35724,1,0,0:0:0:0:
192,192,35724,1,0,0:0:0:0:
320,192,35955,1,0,0:0:0:0:
64,192,36185,1,0,0:0:0:0:
448,192,36185,1,0,0:0:0:0:
192,192,36416,1,0,0:0:0:0:
448,192,36647,1,0,0:0:0:0:
320,192,36647,1,0,0:0:0:0:
192,192,36878,1,0,0:0:0:0:
64,192,37108,1,0,0:0:0:0:
320,192,37108,1,0,0:0:0:0:
448,192,37108,1,0,0:0:0:0:
192,192,37339,1,0,0:0:0:0:
64,192,37570,1,0,0:0:0:0:
448,192,37570,1,0,0:0:0:0:
320,192,37801,1,0,0:0:0:0:
192,192,38032,1,0,0:0:0:0:
448,192,38032,1,0,0:0:0:0:
320,192,38262,1,0,0:0:0:0:
192,192,38493,1,0,0:0:0:0:
64,192,38493,1,0,0:0:0:0:
448,192,38724,1,0,0:0:0:0:
320,192,38955,1,0,0:0:0:0:
192,192,38955,1,0,0:0:0:0:
64,192,38955,1,0,0:0:0:0:
448,192,39185,1,0,0:0:0:0:
64,192,39416,1,0,0:0:0:0:
192,192,39416,1,0,0:0:0:0:
320,192,39647,1,0,0:0:0:0:
448,192,39878,1,0,0:0:0:0:
192,192,39878,1,0,0:0:0:0:
320,192,40108,1,0,0:0:0:0:
64,192,40339,1,0,0:0:0:0:
448,192,40339,1,0,0:0:0:0:
192,192,40570,1,0,0:0:0:0:
320,192,40801,1,0,0:0:0:0:
448,192,40801,1,0,0:0:0:0:
64,192,40801,1,0,0:0:0:0:
192,192,41032,1,0,0:0:0:0:
448,192,41262,1,0,0:0:0:0:
320,192,41262,1,0,0:0:0:0:
64,192,41493,1,0,0:0:0:0:
320,192,41724,1,0,0:0:0:0:
192,192,41724,1,0,0:0:0:0:
448,192,41955,1,0,0:0:0:0:
192,192,42185,1,0,0:0:0:0:
64,192,42185,1,0,0:0:0:0:
320,192,42416,1,0,0:0:0:0:
448,192,42647,1,0,0:0:0:0:
192,192,42647,1,0,0:0:0:0:
64,192,42647,1,0,0:0:0:0:
320,192,42878,1,0,0:0:0:0:
64,192,43108,1,0,0:0:0:0:
448,192,43108,1,0,0:0:0:0:
192,192,43339,1,0,0:0:0:0:
320,192,43570,1,0,0:0:0:0:
448,192,43570,1,0,0:0:0:0:
64,192,43801,1,0,0:0:0:0:
192,192,44032,1,0,0:0:0:0:
320,192,44032,1,0,0:0:0:0:
448,192,44262,1,0,0:0:0:0:
448,192,44493,1,0,0:0:0:0:
64,192,44493,1,0,0:0:0:0:
320,192,44493,1,0,0:0:0:0:
192,192,44724,1,0,0:0:0:0:
448,192,44955,1,0,0:0:0:0:
64,192,44955,1,0,0:0:0:0:
192,192,45185,1,0,0:0:0:0:
320,192,45416,1,0,0:0:0:0:
64,192,45416,1,0,0:0:0:0:
448,192,45647,1,0,0:0:0:0:
192,192,45878,1,0,0:0:0:0:
320,192,45878,1,0,0:0:0:0:
64,192,46108,1,0,0:0:0:0:
192,192,46339,1,0,0:0:0:0:
448,192,46339,1,0,0:0:0:0:
64,192,46339,1,0,0:0:0:0:
320,192,46570,1,0,0:0:0:0:
64,192,46801,1,0,0:0:0:0:
448,192,46801,1,0,0:0:0:0:
192,192,47032,1,0,0:0:0:0:
64,192,47262,1,0,0:0:0:0:
448,192,47262,128,0,47493:0:0:0:0:
320,192,47493,128,0,47724:0:0:0:0:
192,192,47493,1,0,0:0:0:0:
448,192,47724,1,0,0:0:0:0:
192,192,47724,128,0,47955:0:0:0:0:
64,192,47955,128,0,48185:0:0:0:0:
320,192,47955,1,0,0:0:0:0:
192,192,48185,1,0,0:0:0:0:
320,192,48185,1,8,0:0:0:0:
448,192,48185,1,2,0:0:0:0:
448,192,48416,1,0,0:0:0:0:
320,192,48647,1,0,0:0:0:0:
192,192,48647,1,8,0:0:0:0:
64,192,48647,1,2,0:0:0:0:
320,192,48878,1,0,0:0:0:0:
192,192,49108,1,8,0:0:0:0:
448,192,49108,1,0,0:0:0:0:
64,192,49108,1,2,0:0:0:0:
192,192,49339,1,0,0:0:0:0:
320,192,49570,1,2,0:0:0:0:
448,192,49570,1,8,0:0:0:0:
64,192,49570,1,0,0:0:0:0:
64,192,49801,1,0,0:0:0:0:
192,192,50032,1,0,0:0:0:0:
448,192,50032,1,8,0:0:0:0:
320,192,50032,1,2,0:0:0:0:
320,192,50262,1,0,0:0:0:0:
192,192,50493,1,8,0:0:0:0:
64,192,50493,1,2,0:0:0:0:
448,192,50493,1,0,0:0:0:0:
64,192,50724,1,0,0:0:0:0:
192,192,50955,1,8,0:0:0:0:
320,192,50955,1,2,0:0:0:0:
448,192,50955,1,0,0:0:0:0:
448,192,51185,1,0,0:0:0:0:
320,192,51416,1,8,0:0:0:0:
192,192,51416,1,0,0:0:0:0:
64,192,51416,1,2,0:0:0:0:
192,192,51647,1,0,0:0:0:0:
320,192,51878,1,0,0:0:0:0:
448,192,51878,1,2,0:0:0:0:
64,192,51878,1,8,0:0:0:0:
448,192,52108,1,0,0:0:0:0:
64,192,52339,1,2,0:0:0:0:
320,192,52339,1,8,0:0:0:0:
192,192,52339,1,0,0:0:0:0:
320,192,52570,1,0,0:0:0:0:
192,192,52801,1,8,0:0:0:0:
64,192,52801,1,2,0:0:0:0:
448,192,52801,1,0,0:0:0:0:
192,192,53032,1,0,0:0:0:0:
320,192,53262,1,8,0:0:0:0:
448,192,53262,1,2,0:0:0:0:
64,192,53262,1,0,0:0:0:0:
64,192,53493,1,0,0:0:0:0:
448,192,53724,1,2,0:0:0:0:
192,192,53724,1,0,0:0:0:0:
320,192,53724,1,8,0:0:0:0:
320,192,53955,1,0,0:0:0:0:
192,192,54185,1,8,0:0:0:0:
448,192,54185,1,0,0:0:0:0:
64,192,54185,1,2,0:0:0:0:
64,192,54416,1,0,0:0:0:0:
320,192,54647,1,2,0:0:0:0:
192,192,54647,1,8,0:0:0:0:
448,192,54647,1,0,0:0:0:0:
448,192,54878,1,0,0:0:0:0:
192,192,55108,1,2,0:0:0:0:
320,192,55108,1,8,0:0:0:0:
64,192,55108,1,0,0:0:0:0:
192,192,55339,1,0,0:0:0:0:
64,192,55570,1,0,0:0:0:0:
320,192,55570,1,8,0:0:0:0:
448,192,55570,1,2,0:0:0:0:
320,192,55801,1,0,0:0:0:0:
448,192,56032,1,0,0:0:0:0:
192,192,56032,1,2,0:0:0:0:
64,192,56032,1,8,0:0:0:0:
192,192,56262,1,0,0:0:0:0:
320,192,56493,1,8,0:0:0:0:
448,192,56493,1,2,0:0:0:0:
64,192,56493,1,0,0:0:0:0:
192,192,56724,1,0,0:0:0:0:
448,192,56955,1,2,0:0:0:0:
320,192,56955,1,8,0:0:0:0:
64,192,56955,1,0,0:0:0:0:
448,192,57185,1,0,0:0:0:0:
64,192,57416,1,0,0:0:0:0:
192,192,57416,1,8,0:0:0:0:
320,192,57416,1,2,0:0:0:0:
192,192,57647,1,0,0:0:0:0:
320,192,57878,1,2,0:0:0:0:
64,192,57878,1,0,0:0:0:0:
448,192,57878,1,8,0:0:0:0:
320,192,58108,1,0,0:0:0:0:
64,192,58339,1,2,0:0:0:0:
448,192,58339,1,0,0:0:0:0:
192,192,58339,1,8,0:0:0:0:
320,192,58570,1,0,0:0:0:0:
448,192,58801,1,0,0:0:0:0:
192,192,58801,1,2,0:0:0:0:
64,192,58801,1,8,0:0:0:0:
448,192,59032,1,0,0:0:0:0:
320,192,59032,1,8,0:0:0:0:
64,192,59147,1,8,0:0:0:0:
192,192,59262,1,8,0:0:0:0:
448,192,59262,1,2,0:0:0:0:
320,192,59262,1,0,0:0:0:0:
448,192,59493,1,0,0:0:0:0:
192,192,59493,1,2,0:0:0:0:
320,192,59493,1,8,0:0:0:0:
320,192,59724,1,2,0:0:0:0:
192,192,59724,1,8,0:0:0:0:
64,192,59724,1,0,0:0:0:0:
320,192,59955,1,2,0:0:0:0:
192,192,59955,1,0,0:0:0:0:
64,192,59955,1,8,0:0:0:0:
192,192,60185,1,0,0:0:0:0:
448,192,60185,1,2,0:0:0:0:
320,192,60185,1,8,0:0:0:0:
320,192,60416,1,0,0:0:0:0:
448,192,60416,1,8,0:0:0:0:
192,192,60416,1,2,0:0:0:0:
320,192,60647,1,2,0:0:0:0:
192,192,60647,1,8,0:0:0:0:
64,192,60647,1,0,0:0:0:0:
320,192,60878,1,0,0:0:0:0:
64,192,60878,1,8,0:0:0:0:
192,192,60878,1,2,0:0:0:0:
320,192,61108,1,8,0:0:0:0:
64,192,61108,1,2,0:0:0:0:
448,192,61108,1,0,0:0:0:0:
192,192,61339,1,8,0:0:0:0:
64,192,61339,1,2,0:0:0:0:
448,192,61339,1,0,0:0:0:0:
320,192,61570,1,0,0:0:0:0:
448,192,61570,1,2,0:0:0:0:
64,192,61570,1,8,0:0:0:0:
448,192,61801,1,2,0:0:0:0:
192,192,61801,1,0,0:0:0:0:
64,192,61801,1,8,0:0:0:0:
64,192,62032,1,0,0:0:0:0:
320,192,62032,1,2,0:0:0:0:
448,192,62032,1,8,0:0:0:0:
64,192,62262,1,8,0:0:0:0:
192,192,62262,1,2,0:0:0:0:
448,192,62262,1,0,0:0:0:0:
448,192,62493,1,0,0:0:0:0:
64,192,62493,1,2,0:0:0:0:
320,192,62493,1,8,0:0:0:0:
64,192,62724,1,8,0:0:0:0:
448,192,62724,1,0,0:0:0:0:
192,192,62724,1,2,0:0:0:0:
320,192,62955,1,0,0:0:0:0:
448,192,62955,1,2,0:0:0:0:
192,192,63070,1,0,0:0:0:0:
64,192,63070,1,2,0:0:0:0:
320,192,63185,1,0,0:0:0:0:
448,192,63185,1,2,0:0:0:0:
192,192,63301,1,0,0:0:0:0:
64,192,63301,1,2,0:0:0:0:
320,192,63416,1,0,0:0:0:0:
448,192,63416,1,2,0:0:0:0:
192,192,63532,1,0,0:0:0:0:
64,192,63532,1,2,0:0:0:0:
320,192,63647,1,0,0:0:0:0:
448,192,63647,1,2,0:0:0:0:
192,192,63762,1,0,0:0:0:0:
64,192,63762,1,2,0:0:0:0:
320,192,63878,1,0,0:0:0:0:
448,192,63878,1,2,0:0:0:0:
192,192,63993,1,0,0:0:0:0:
64,192,63993,1,2,0:0:0:0:
320,192,64108,1,0,0:0:0:0:
448,192,64108,1,2,0:0:0:0:
192,192,64224,1,0,0:0:0:0:
64,192,64224,1,2,0:0:0:0:
320,192,64339,1,0,0:0:0:0:
448,192,64339,1,2,0:0:0:0:
192,192,64455,1,0,0:0:0:0:
64,192,64455,1,2,0:0:0:0:
320,192,64570,1,0,0:0:0:0:
448,192,64570,1,2,0:0:0:0:
192,192,64685,1,0,0:0:0:0:
64,192,64685,1,2,0:0:0:0:
448,192,64801,1,2,0:0:0:0:
320,192,64858,1,2,0:0:0:0:
192,192,64916,1,2,0:0:0:0:
64,192,64974,1,2,0:0:0:0:
448,192,65032,1,2,0:0:0:0:
320,192,65089,1,2,0:0:0:0:
192,192,65147,1,2,0:0:0:0:
64,192,65205,1,2,0:0:0:0:
448,192,65262,1,2,0:0:0:0:
320,192,65320,1,2,0:0:0:0:
192,192,65378,1,2,0:0:0:0:
64,192,65435,1,2,0:0:0:0:
448,192,65493,1,2,0:0:0:0:
320,192,65551,1,2,0:0:0:0:
192,192,65608,1,2,0:0:0:0:
64,192,65666,1,2,0:0:0:0:
448,192,65724,1,2,0:0:0:0:
320,192,65782,1,2,0:0:0:0:
192,192,65839,1,2,0:0:0:0:
64,192,65897,1,2,0:0:0:0:
448,192,65955,1,2,0:0:0:0:
320,192,66012,1,2,0:0:0:0:
192,192,66070,1,2,0:0:0:0:
64,192,66128,1,2,0:0:0:0:
448,192,66185,128,0,66647:0:0:0:0:
320,192,66416,128,0,66647:0:0:0:0:
64,192,66647,1,8,0:0:0:0:
192,192,66647,1,2,0:0:0:0:
64,192,66878,128,0,67108:0:0:0:0:
448,192,67108,1,0,0:0:0:0:
320,192,67224,1,0,0:0:0:0:
192,192,67339,1,0,0:0:0:0:
448,192,67455,1,0,0:0:0:0:
320,192,67570,1,0,0:0:0:0:
192,192,68032,1,0,0:0:0:0:
320,192,68032,1,4,0:0:0:0:
64,192,68032,1,0,0:0:0:0:
448,192,68032,1,0,0:0:0:40:Crash.wav
448,192,68493,1,8,0:0:0:0:
320,192,68493,1,2,0:0:0:0:
64,192,68493,128,0,69416:0:0:0:0:
192,192,68493,1,0,0:0:0:0:
192,192,68955,1,8,0:0:0:0:
448,192,68955,1,2,0:0:0:0:
320,192,68955,1,0,0:0:0:0:
448,192,69416,1,2,0:0:0:0:
320,192,69416,128,8,69532:0:0:0:0:
192,192,69532,128,0,69647:0:0:0:0:
448,192,69647,128,0,69762:0:0:0:0:
320,192,69762,128,0,69878:0:0:0:0:
64,192,69878,1,0,0:0:0:0:
192,192,69878,1,2,0:0:0:0:
448,192,69878,1,8,0:0:0:0:
64,192,70108,128,0,71262:0:0:0:0:
320,192,70108,1,0,0:0:0:0:
320,192,70339,1,2,0:0:0:0:
448,192,70339,1,8,0:0:0:0:
192,192,70339,1,0,0:0:0:0:
192,192,70801,1,0,0:0:0:0:
448,192,70801,1,8,0:0:0:0:
320,192,70801,1,2,0:0:0:0:
448,192,71262,128,8,71378:0:0:0:0:
192,192,71262,1,2,0:0:0:0:
320,192,71378,128,0,71493:0:0:0:0:
64,192,71493,128,0,71608:0:0:0:0:
192,192,71608,128,0,71724:0:0:0:0:
448,192,71724,1,2,0:0:0:0:
320,192,71724,128,8,71839:0:0:0:0:
64,192,71839,128,0,71955:0:0:0:0:
192,192,71955,128,0,72185:0:0:0:0:
448,192,72185,128,0,73108:0:0:0:0:
64,192,72185,1,2,0:0:0:0:
320,192,72185,1,8,0:0:0:0:
192,192,72647,1,2,0:0:0:0:
320,192,72647,1,8,0:0:0:0:
64,192,72647,1,0,0:0:0:0:
64,192,73108,1,2,0:0:0:0:
192,192,73108,128,8,73224:0:0:0:0:
320,192,73224,128,0,73339:0:0:0:0:
64,192,73339,128,0,73455:0:0:0:0:
192,192,73455,128,0,73570:0:0:0:0:
448,192,73570,1,0,0:0:0:0:
64,192,73570,1,8,0:0:0:0:
320,192,73570,1,2,0:0:0:0:
448,192,73801,128,0,74955:0:0:0:0:
192,192,73801,1,0,0:0:0:0:
64,192,74032,1,8,0:0:0:0:
192,192,74032,1,2,0:0:0:0:
320,192,74032,1,0,0:0:0:0:
320,192,74262,1,0,0:0:0:0:
64,192,74262,1,0,0:0:0:0:
64,192,74493,1,8,0:0:0:0:
192,192,74493,1,2,0:0:0:0:
320,192,74493,1,0,0:0:0:0:
192,192,74724,1,0,0:0:0:0:
64,192,74839,1,0,0:0:0:0:
320,192,74955,1,2,0:0:0:0:
192,192,74955,128,8,75185:0:0:0:0:
64,192,75185,128,0,75416:0:0:0:0:
448,192,75185,1,0,0:0:0:0:
320,192,75416,1,8,0:0:0:0:
448,192,75416,1,2,0:0:0:0:
192,192,75416,128,0,75647:0:0:0:0:
320,192,75647,128,0,75878:0:0:0:0:
64,192,75647,1,0,0:0:0:0:
192,192,75878,1,0,0:0:0:0:
64,192,75878,1,8,0:0:0:0:
448,192,75878,128,2,76801:0:0:0:0:
64,192,76339,1,8,0:0:0:0:
192,192,76339,1,2,0:0:0:0:
320,192,76339,1,0,0:0:0:0:
192,192,76801,1,2,0:0:0:0:
64,192,76801,1,8,0:0:0:0:
320,192,76801,128,0,77032:0:0:0:0:
64,192,77032,128,0,77262:0:0:0:0:
448,192,77032,1,0,0:0:0:0:
320,192,77262,1,8,0:0:0:0:
192,192,77262,128,0,77493:0:0:0:0:
448,192,77262,1,2,0:0:0:0:
448,192,77493,128,0,78647:0:0:0:0:
64,192,77493,1,0,0:0:0:0:
320,192,77724,1,8,0:0:0:0:
192,192,77724,1,2,0:0:0:0:
64,192,77724,1,0,0:0:0:0:
320,192,78185,1,8,0:0:0:0:
192,192,78185,1,2,0:0:0:0:
64,192,78185,1,0,0:0:0:0:
64,192,78647,1,0,0:0:0:0:
192,192,78647,1,2,0:0:0:0:
320,192,78647,1,8,0:0:0:0:
320,192,78878,1,0,0:0:0:0:
192,192,79108,1,8,0:0:0:0:
64,192,79108,1,2,0:0:0:0:
448,192,79108,1,0,0:0:0:0:
320,192,79339,128,0,79455:0:0:0:0:
192,192,79455,128,0,79570:0:0:0:0:
448,192,79570,1,8,0:0:0:0:
320,192,79570,1,2,0:0:0:0:
64,192,79570,1,0,0:0:0:0:
192,192,79685,1,0,0:0:0:0:
448,192,79801,1,0,0:0:0:0:
64,192,79801,1,0,0:0:0:0:
192,192,79916,1,0,0:0:0:0:
320,192,79916,1,0,0:0:0:0:
448,192,80032,1,2,0:0:0:0:
64,192,80032,1,0,0:0:0:0:
320,192,80147,1,0,0:0:0:0:
192,192,80262,1,0,0:0:0:0:
64,192,80262,1,0,0:0:0:0:
448,192,80378,1,0,0:0:0:0:
320,192,80378,1,0,0:0:0:0:
64,192,80493,1,2,0:0:0:0:
192,192,80493,1,8,0:0:0:0:
320,192,80724,128,0,80839:0:0:0:0:
192,192,80839,128,0,80955:0:0:0:0:
320,192,80955,1,2,0:0:0:0:
448,192,80955,1,8,0:0:0:0:
64,192,80955,128,0,81416:0:0:0:0:
448,192,81416,1,2,0:0:0:0:
192,192,81416,128,8,81532:0:0:0:0:
320,192,81532,128,0,81647:0:0:0:0:
64,192,81647,1,0,0:0:0:0:
448,192,81647,128,0,81878:0:0:0:0:
192,192,81878,1,0,0:0:0:0:
64,192,82108,128,0,82339:0:0:0:0:
448,192,82339,128,0,82455:0:0:0:0:
320,192,82455,128,0,82570:0:0:0:0:
192,192,82570,128,0,82685:0:0:0:0:
64,192,82685,128,0,82801:0:0:0:0:
448,192,82801,1,4,0:0:0:0:
320,192,82801,1,0,0:0:0:40:Crash.wav
192,192,82801,1,0,0:0:0:0:
192,192,83262,1,0,0:0:0:0:
448,192,83262,128,0,84185:0:0:0:0:
64,192,83262,1,2,0:0:0:0:
320,192,83493,1,0,0:0:0:60:Hat.wav
64,192,83724,1,8,0:0:0:0:
192,192,83724,1,0,0:0:0:0:
320,192,83724,1,0,0:0:0:0:
192,192,83955,1,0,0:0:0:70:Hat.wav
64,192,84185,1,0,0:0:0:0:
320,192,84185,1,2,0:0:0:0:
192,192,84416,1,0,0:0:0:70:Hat.wav
448,192,84647,1,8,0:0:0:0:
320,192,84647,1,0,0:0:0:0:
64,192,84647,128,0,84762:0:0:0:0:
192,192,84762,128,0,84878:0:0:0:0:
320,192,84878,128,0,84993:0:0:0:70:Hat.wav
448,192,84993,128,0,85108:0:0:0:0:
192,192,85108,1,2,0:0:0:0:
64,192,85108,1,0,0:0:0:0:
320,192,85224,1,0,0:0:0:0:
64,192,85339,1,0,0:0:0:70:Hat.wav
192,192,85455,1,0,0:0:0:0:
64,192,85570,1,0,0:0:0:0:
320,192,85570,1,8,0:0:0:0:
448,192,85570,1,0,0:0:0:0:
192,192,85685,1,0,0:0:0:0:
320,192,85801,1,0,0:0:0:70:Hat.wav
448,192,85801,128,0,86032:0:0:0:0:
64,192,86032,1,2,0:0:0:0:
192,192,86032,128,0,86147:0:0:0:0:
320,192,86147,128,0,86262:0:0:0:0:
64,192,86262,128,0,86378:0:0:0:70:Hat.wav
192,192,86378,128,0,86493:0:0:0:0:
448,192,86493,1,0,0:0:0:0:
64,192,86493,1,8,0:0:0:0:
320,192,86493,1,0,0:0:0:0:
448,192,86724,128,0,86955:0:0:0:0:
192,192,86724,1,0,0:0:0:70:Hat.wav
320,192,86955,1,2,0:0:0:0:
64,192,86955,128,0,87416:0:0:0:0:
192,192,87185,1,0,0:0:0:70:Hat.wav
448,192,87416,1,0,0:0:0:0:
320,192,87416,1,8,0:0:0:0:
192,192,87532,1,0,0:0:0:0:
64,192,87532,1,0,0:0:0:0:
320,192,87647,1,0,0:0:0:70:Hat.wav
448,192,87647,1,0,0:0:0:0:
192,192,87762,1,0,0:0:0:0:
64,192,87762,1,0,0:0:0:0:
320,192,87878,1,2,0:0:0:0:
448,192,87878,1,0,0:0:0:0:
192,192,88108,1,0,0:0:0:70:Hat.wav
64,192,88339,1,0,0:0:0:0:
448,192,88339,1,8,0:0:0:0:
320,192,88339,1,0,0:0:0:0:
64,192,88570,128,0,88801:0:0:0:0:
192,192,88570,1,0,0:0:0:70:Hat.wav
320,192,88801,1,2,0:0:0:0:
448,192,88801,1,0,0:0:0:0:
448,192,89032,128,0,89262:0:0:0:0:
64,192,89032,1,0,0:0:0:70:Hat.wav
64,192,89262,1,8,0:0:0:0:
192,192,89262,1,0,0:0:0:0:
320,192,89262,1,0,0:0:0:0:
320,192,89493,1,0,0:0:0:70:Hat.wav
192,192,89724,1,2,0:0:0:0:
64,192,89724,1,0,0:0:0:0:
448,192,89839,1,0,0:0:0:0:
320,192,89897,1,0,0:0:0:0:
64,192,89955,1,0,0:0:0:70:Hat.wav
192,192,90012,1,0,0:0:0:0:
448,192,90070,1,0,0:0:0:0:
320,192,90128,1,0,0:0:0:0:
192,192,90185,1,0,0:0:0:0:
64,192,90185,1,8,0:0:0:0:
448,192,90301,1,0,0:0:0:0:
192,192,90416,1,0,0:0:0:0:
320,192,90416,1,0,0:0:0:70:Hat.wav
448,192,90532,1,0,0:0:0:0:
64,192,90532,1,0,0:0:0:0:
320,192,90647,1,2,0:0:0:0:
192,192,90647,128,0,91570:0:0:0:0:
448,192,90878,1,0,0:0:0:70:Hat.wav
320,192,91108,1,8,0:0:0:0:
64,192,91108,1,0,0:0:0:0:
448,192,91108,1,0,0:0:0:0:
320,192,91339,1,0,0:0:0:70:Hat.wav
64,192,91570,1,2,0:0:0:0:
448,192,91570,1,0,0:0:0:0:
192,192,91801,1,0,0:0:0:70:Hat.wav
320,192,92032,1,0,0:0:0:0:
448,192,92032,1,8,0:0:0:0:
64,192,92147,1,0,0:0:0:0:
192,192,92205,1,0,0:0:0:0:
320,192,92262,1,0,0:0:0:70:Hat.wav
448,192,92320,1,0,0:0:0:0:
64,192,92378,1,0,0:0:0:0:
192,192,92435,1,0,0:0:0:0:
448,192,92493,128,0,92955:0:0:0:0:
320,192,92493,1,2,0:0:0:0:
192,192,92724,1,0,0:0:0:70:Hat.wav
64,192,92724,1,0,0:0:0:0:
320,192,92839,1,0,0:0:0:0:
64,192,92955,1,0,0:0:0:0:
192,192,92955,1,8,0:0:0:0:
448,192,93185,1,0,0:0:0:70:Hat.wav
64,192,93416,1,2,0:0:0:0:
192,192,93416,1,0,0:0:0:0:
320,192,93416,1,0,0:0:0:0:
448,192,93647,1,0,0:0:0:70:Hat.wav
320,192,93705,1,0,0:0:0:0:
64,192,93762,1,0,0:0:0:0:
192,192,93820,1,0,0:0:0:0:
448,192,93878,1,8,0:0:0:0:
320,192,93878,1,0,0:0:0:0:
192,192,93993,1,0,0:0:0:0:
64,192,93993,1,0,0:0:0:0:
448,192,94108,1,0,0:0:0:0:
320,192,94108,1,0,0:0:0:70:Hat.wav
192,192,94224,1,0,0:0:0:0:
64,192,94224,1,0,0:0:0:0:
448,192,94339,128,0,94801:0:0:0:0:
320,192,94339,128,2,94801:0:0:0:0:
64,192,94801,1,0,0:0:0:0:
192,192,94801,1,8,0:0:0:0:
448,192,95032,128,0,95493:0:0:0:0:
320,192,95032,128,2,95493:0:0:0:0:
64,192,95262,1,0,0:0:0:0:
64,192,95493,1,0,0:0:0:0:
192,192,95493,1,8,0:0:0:0:
448,192,95724,128,0,96185:0:0:0:0:
320,192,95724,128,2,96185:0:0:0:0:
192,192,96185,1,8,0:0:0:0:
64,192,96185,1,0,0:0:0:0:
448,192,96416,128,2,96878:0:0:0:0:
320,192,96416,128,0,96878:0:0:0:0:
64,192,96532,1,0,0:0:0:0:
192,192,96647,128,0,97108:0:0:0:0:
64,192,96878,128,0,97108:0:0:0:0:
320,192,97108,128,0,97570:0:0:0:0:
448,192,97108,128,2,97570:0:0:0:0:
64,192,97570,128,0,98032:0:0:0:0:
64,192,99416,1,0,0:0:0:0:
320,192,99474,1,0,0:0:0:0:
448,192,99685,1,0,0:0:0:0:
64,192,99878,1,4,0:0:0:0:
192,192,99878,1,0,0:0:0:0:
320,192,99878,1,2,0:0:0:0:
192,192,100108,1,0,0:0:0:0:
320,192,100339,1,2,0:0:0:0:
448,192,100339,1,0,0:0:0:0:
64,192,100570,1,0,0:0:0:0:
192,192,100801,1,2,0:0:0:0:
320,192,100801,128,0,101262:0:0:0:0:
64,192,101262,1,0,0:0:0:0:
448,192,101262,1,2,0:0:0:0:
192,192,101493,128,0,101955:0:0:0:0:
320,192,101724,1,2,0:0:0:0:
448,192,101724,1,0,0:0:0:0:
64,192,101955,1,0,0:0:0:0:
320,192,102185,1,2,0:0:0:0:
192,192,102185,1,0,0:0:0:0:
448,192,102416,1,0,0:0:0:0:
192,192,102647,1,2,0:0:0:0:
64,192,102647,1,0,0:0:0:0:
320,192,102878,1,0,0:0:0:0:
448,192,103108,1,2,0:0:0:0:
64,192,103108,1,0,0:0:0:0:
192,192,103339,1,0,0:0:0:0:
448,192,103570,1,2,0:0:0:0:
320,192,103570,128,0,104493:0:0:0:0:
64,192,103801,1,0,0:0:0:0:
448,192,104032,1,2,0:0:0:0:
192,192,104032,1,0,0:0:0:0:
64,192,104262,1,0,0:0:0:0:
448,192,104493,1,2,0:0:0:0:
192,192,104493,1,0,0:0:0:0:
64,192,104724,128,0,105185:0:0:0:0:
448,192,104955,1,0,0:0:0:0:
192,192,104955,1,2,0:0:0:0:
320,192,105185,128,0,105878:0:0:0:0:
448,192,105416,1,2,0:0:0:0:
64,192,105416,1,0,0:0:0:0:
192,192,105647,1,0,0:0:0:0:
64,192,105878,1,0,0:0:0:0:
448,192,105878,1,2,0:0:0:0:
192,192,106108,1,0,0:0:0:0:
64,192,106339,1,0,0:0:0:0:
320,192,106339,1,2,0:0:0:0:
192,192,106570,1,0,0:0:0:0:
320,192,106801,1,0,0:0:0:0:
448,192,106801,1,2,0:0:0:0:
64,192,107032,1,0,0:0:0:0:
320,192,107262,1,0,0:0:0:0:
192,192,107262,1,2,0:0:0:0:
448,192,107262,1,8,0:0:0:0:
192,192,107493,1,0,0:0:0:0:
448,192,107724,1,8,0:0:0:0:
64,192,107724,1,2,0:0:0:0:
320,192,107724,1,0,0:0:0:0:
320,192,107955,1,0,0:0:0:0:
192,192,108185,1,2,0:0:0:0:
448,192,108185,1,0,0:0:0:0:
64,192,108185,1,8,0:0:0:0:
448,192,108416,1,0,0:0:0:0:
192,192,108647,1,2,0:0:0:0:
320,192,108647,1,0,0:0:0:0:
64,192,108647,1,8,0:0:0:0:
320,192,108878,1,0,0:0:0:0:
448,192,109108,1,8,0:0:0:0:
192,192,109108,1,2,0:0:0:0:
64,192,109108,1,0,0:0:0:0:
192,192,109339,1,0,0:0:0:0:
448,192,109570,1,8,0:0:0:0:
320,192,109570,1,2,0:0:0:0:
64,192,109570,1,0,0:0:0:0:
64,192,109801,1,0,0:0:0:0:
192,192,110032,1,2,0:0:0:0:
320,192,110032,1,0,0:0:0:0:
448,192,110032,1,8,0:0:0:0:
192,192,110262,1,0,0:0:0:0:
320,192,110493,1,0,0:0:0:0:
448,192,110493,1,2,0:0:0:0:
64,192,110493,1,8,0:0:0:0:
320,192,110724,1,0,0:0:0:0:
192,192,110955,1,2,0:0:0:0:
448,192,110955,1,0,0:0:0:0:
64,192,110955,1,8,0:0:0:0:
320,192,111070,1,0,0:0:0:0:
448,192,111185,1,0,0:0:0:0:
64,192,111185,1,8,0:0:0:0:
192,192,111301,1,0,0:0:0:0:
64,192,111416,1,8,0:0:0:0:
320,192,111416,1,2,0:0:0:0:
192,192,111532,1,0,0:0:0:0:
320,192,111647,1,8,0:0:0:0:
448,192,111647,1,0,0:0:0:0:
64,192,111762,1,0,0:0:0:0:
192,192,111878,1,8,0:0:0:0:
320,192,111878,1,2,0:0:0:0:
448,192,111993,1,0,0:0:0:0:
64,192,112108,1,8,0:0:0:0:
192,192,112108,1,0,0:0:0:0:
320,192,112224,1,0,0:0:0:0:
64,192,112339,1,2,0:0:0:0:
448,192,112339,1,8,0:0:0:0:
192,192,112455,1,0,0:0:0:0:
64,192,112570,1,8,0:0:0:0:
320,192,112570,1,0,0:0:0:0:
192,192,112685,1,0,0:0:0:0:
320,192,112801,1,8,0:0:0:0:
448,192,112801,1,2,0:0:0:0:
192,192,112916,1,8,0:0:0:0:
64,192,112916,1,0,0:0:0:0:
320,192,113032,1,8,0:0:0:0:
448,192,113032,1,0,0:0:0:0:
192,192,113147,1,8,0:0:0:0:
64,192,113147,1,0,0:0:0:0:
320,192,113262,1,8,0:0:0:0:
448,192,113262,1,2,0:0:0:0:
192,192,113378,1,8,0:0:0:0:
64,192,113378,1,0,0:0:0:0:
320,192,113493,1,8,0:0:0:0:
448,192,113493,1,0,0:0:0:0:
192,192,113608,1,8,0:0:0:0:
64,192,113608,1,0,0:0:0:0:
320,192,113724,1,8,0:0:0:0:
448,192,113724,1,2,0:0:0:0:
192,192,113839,1,8,0:0:0:0:
64,192,113839,1,0,0:0:0:0:
320,192,113955,1,8,0:0:0:0:
448,192,113955,1,0,0:0:0:0:
64,192,114070,1,8,0:0:0:0:
192,192,114185,1,4,0:0:0:0:
448,192,114185,1,0,0:0:0:40:Crash.wav
320,192,114185,1,0,0:0:0:0:
64,192,114647,1,4,0:0:0:0:
192,192,114647,1,2,0:0:0:0:
448,192,114647,128,0,116493:0:0:0:0:
320,192,114878,1,0,0:0:0:70:Hat.wav
320,192,115108,1,0,0:0:0:0:
192,192,115108,1,0,0:0:0:0:
64,192,115108,1,8,0:0:0:0:
64,192,115339,1,0,0:0:0:70:Hat.wav
320,192,115570,1,0,0:0:0:0:
192,192,115570,1,2,0:0:0:0:
64,192,115801,1,0,0:0:0:70:Hat.wav
64,192,116032,1,8,0:0:0:0:
192,192,116032,1,0,0:0:0:0:
320,192,116032,1,0,0:0:0:0:
320,192,116262,1,0,0:0:0:70:Hat.wav
192,192,116493,1,2,0:0:0:0:
64,192,116493,128,0,118339:0:0:0:0:
448,192,116724,1,0,0:0:0:70:Hat.wav
192,192,116955,1,0,0:0:0:0:
320,192,116955,1,8,0:0:0:0:
448,192,116955,1,0,0:0:0:0:
320,192,117185,1,0,0:0:0:70:Hat.wav
448,192,117416,1,2,0:0:0:0:
192,192,117416,1,0,0:0:0:0:
320,192,117647,1,0,0:0:0:70:Hat.wav
192,192,117878,1,0,0:0:0:0:
320,192,117878,1,0,0:0:0:0:
448,192,117878,1,8,0:0:0:0:
192,192,118108,1,0,0:0:0:70:Hat.wav
320,192,118339,1,2,0:0:0:0:
448,192,118339,128,0,120185:0:0:0:0:
64,192,118570,1,0,0:0:0:70:Hat.wav
320,192,118801,1,0,0:0:0:0:
192,192,118801,1,0,0:0:0:0:
64,192,118801,1,8,0:0:0:0:
320,192,119032,1,0,0:0:0:70:Hat.wav
64,192,119262,1,2,0:0:0:0:
192,192,119262,1,0,0:0:0:0:
320,192,119493,1,0,0:0:0:70:Hat.wav
64,192,119724,1,8,0:0:0:0:
192,192,119724,1,0,0:0:0:0:
320,192,119724,1,0,0:0:0:0:
192,192,119955,1,0,0:0:0:70:Hat.wav
320,192,120185,1,2,0:0:0:0:
64,192,120185,128,0,122032:0:0:0:0:
192,192,120416,1,0,0:0:0:70:Hat.wav
192,192,120647,1,0,0:0:0:0:
320,192,120647,1,8,0:0:0:0:
448,192,120647,1,0,0:0:0:0:
448,192,120878,1,0,0:0:0:70:Hat.wav
320,192,121108,1,2,0:0:0:0:
192,192,121108,1,0,0:0:0:0:
448,192,121339,1,0,0:0:0:70:Hat.wav
448,192,121570,1,8,0:0:0:0:
320,192,121570,1,0,0:0:0:0:
192,192,121570,1,0,0:0:0:0:
320,192,121801,1,0,0:0:0:70:Hat.wav
192,192,122032,1,0,0:0:0:0:
448,192,122032,1,2,0:0:0:0:
320,192,122262,1,0,0:0:0:70:Hat.wav
64,192,122493,1,8,0:0:0:0:
192,192,122493,1,0,0:0:0:0:
448,192,122493,1,0,0:0:0:0:
64,192,122724,1,0,0:0:0:70:Hat.wav
192,192,122955,1,2,0:0:0:0:
320,192,122955,1,0,0:0:0:0:
448,192,123185,1,0,0:0:0:70:Hat.wav
64,192,123416,1,8,0:0:0:0:
320,192,123416,1,0,0:0:0:0:
448,192,123416,1,0,0:0:0:0:
192,192,123647,1,0,0:0:0:70:Hat.wav
64,192,123878,1,2,0:0:0:0:
448,192,123878,1,0,0:0:0:0:
320,192,124108,1,0,0:0:0:70:Hat.wav
192,192,124339,1,0,0:0:0:0:
64,192,124339,1,8,0:0:0:0:
448,192,124339,1,0,0:0:0:0:
64,192,124570,1,0,0:0:0:70:Hat.wav
320,192,124801,1,0,0:0:0:0:
192,192,124801,1,2,0:0:0:0:
448,192,125032,1,0,0:0:0:70:Hat.wav
64,192,125262,1,0,0:0:0:0:
320,192,125262,1,0,0:0:0:0:
448,192,125262,1,8,0:0:0:0:
192,192,125493,1,0,0:0:0:70:Hat.wav
448,192,125724,1,2,0:0:0:0:
320,192,125724,128,0,126878:0:0:0:0:
64,192,125955,1,0,0:0:0:70:Hat.wav
64,192,126185,1,8,0:0:0:0:
192,192,126185,1,0,0:0:0:0:
448,192,126185,1,0,0:0:0:0:
448,192,126416,1,0,0:0:0:70:Hat.wav
192,192,126647,1,0,0:0:0:0:
64,192,126647,1,2,0:0:0:0:
64,192,126878,128,0,127339:0:0:0:70:Hat.wav
192,192,127108,1,8,0:0:0:0:
320,192,127108,1,0,0:0:0:0:
448,192,127108,1,0,0:0:0:0:
448,192,127339,128,0,128493:0:0:0:70:Hat.wav
192,192,127570,1,0,0:0:0:0:
64,192,127570,1,2,0:0:0:0:
320,192,127801,1,0,0:0:0:70:Hat.wav
64,192,128032,1,8,0:0:0:0:
192,192,128032,1,0,0:0:0:0:
320,192,128032,1,0,0:0:0:0:
64,192,128262,1,0,0:0:0:70:Hat.wav
192,192,128493,1,2,0:0:0:0:
320,192,128493,1,0,0:0:0:0:
64,192,128724,1,0,0:0:0:70:Hat.wav
64,192,128955,1,0,0:0:0:0:
192,192,128955,1,0,0:0:0:0:
448,192,128955,1,4,0:0:0:0:
320,192,128955,1,0,0:0:0:40:Crash.wav
448,192,129416,1,2,0:0:0:0:
192,192,129416,128,0,129647:0:0:0:0:
64,192,129416,1,4,0:0:0:0:
64,192,129647,1,0,0:0:0:70:Hat.wav
320,192,129647,128,0,129878:0:0:0:0:
192,192,129878,1,8,0:0:0:0:
448,192,129878,128,0,130108:0:0:0:0:
64,192,130108,1,0,0:0:0:70:Hat.wav
320,192,130108,128,0,130339:0:0:0:0:
64,192,130339,1,2,0:0:0:0:
192,192,130339,128,0,130801:0:0:0:0:
448,192,130570,1,0,0:0:0:70:Hat.wav
64,192,130801,128,0,131262:0:0:0:0:
448,192,130801,1,8,0:0:0:0:
320,192,130801,1,0,0:0:0:0:
192,192,131032,128,0,131262:0:0:0:70:Hat.wav
448,192,131262,1,0,0:0:0:0:
320,192,131262,1,2,0:0:0:0:
192,192,131493,1,0,0:0:0:70:Hat.wav
320,192,131493,128,0,131724:0:0:0:0:
448,192,131724,1,0,0:0:0:0:
64,192,131724,1,8,0:0:0:0:
192,192,131955,1,0,0:0:0:70:Hat.wav
448,192,131955,128,0,132647:0:0:0:0:
64,192,132185,1,2,0:0:0:0:
320,192,132185,1,0,0:0:0:0:
192,192,132416,1,0,0:0:0:70:Hat.wav
192,192,132647,1,8,0:0:0:0:
320,192,132647,1,0,0:0:0:0:
64,192,132647,1,0,0:0:0:0:
448,192,132878,1,0,0:0:0:70:Hat.wav
192,192,133108,128,0,133339:0:0:0:0:
320,192,133108,1,2,0:0:0:0:
448,192,133339,1,0,0:0:0:70:Hat.wav
64,192,133339,128,0,133570:0:0:0:0:
320,192,133570,128,0,133801:0:0:0:0:
192,192,133570,1,8,0:0:0:0:
64,192,133801,1,0,0:0:0:70:Hat.wav
448,192,133801,128,0,134032:0:0:0:0:
64,192,134032,1,2,0:0:0:0:
192,192,134032,1,0,0:0:0:0:
320,192,134262,1,0,0:0:0:70:Hat.wav
64,192,134493,1,0,0:0:0:0:
448,192,134493,128,0,134955:0:0:0:0:
192,192,134493,1,8,0:0:0:0:
320,192,134724,128,0,134955:0:0:0:70:Hat.wav
64,192,134955,1,0,0:0:0:0:
192,192,134955,1,2,0:0:0:0:
448,192,135185,1,0,0:0:0:70:Hat.wav
64,192,135185,128,0,135416:0:0:0:0:
192,192,135416,1,8,0:0:0:0:
320,192,135416,1,0,0:0:0:0:
448,192,135416,1,0,0:0:0:0:
448,192,135647,128,0,136339:0:0:0:0:
64,192,135647,1,0,0:0:0:70:Hat.wav
320,192,135878,1,0,0:0:0:0:
192,192,135878,1,2,0:0:0:0:
64,192,136108,1,0,0:0:0:70:Hat.wav
192,192,136339,1,0,0:0:0:0:
320,192,136339,1,8,0:0:0:0:
64,192,136339,1,0,0:0:0:0:
320,192,136570,1,0,0:0:0:70:Hat.wav
64,192,136801,128,0,137032:0:0:0:0:
448,192,136801,1,2,0:0:0:0:
320,192,137032,1,0,0:0:0:70:Hat.wav
192,192,137032,128,0,137262:0:0:0:0:
64,192,137262,1,8,0:0:0:0:
320,192,137262,128,0,137493:0:0:0:0:
192,192,137493,1,0,0:0:0:70:Hat.wav
448,192,137493,128,0,137724:0:0:0:0:
320,192,137724,1,2,0:0:0:0:
64,192,137724,128,0,138185:0:0:0:0:
192,192,137955,1,0,0:0:0:70:Hat.wav
320,192,138185,1,0,0:0:0:0:
192,192,138185,1,0,0:0:0:0:
448,192,138185,1,8,0:0:0:0:
320,192,138416,128,0,138878:0:0:0:70:Hat.wav
64,192,138647,1,0,0:0:0:0:
448,192,138647,1,2,0:0:0:0:
192,192,138878,1,0,0:0:0:70:Hat.wav
448,192,139108,1,8,0:0:0:0:
64,192,139108,1,0,0:0:0:0:
320,192,139108,1,0,0:0:0:0:
320,192,139339,1,0,0:0:0:70:Hat.wav
192,192,139339,128,0,139570:0:0:0:0:
448,192,139570,128,0,139801:0:0:0:0:
64,192,139570,1,2,0:0:0:0:
320,192,139801,1,0,0:0:0:70:Hat.wav
192,192,139801,128,0,140032:0:0:0:0:
64,192,140032,1,8,0:0:0:0:
448,192,140032,128,0,140262:0:0:0:0:
192,192,140262,1,0,0:0:0:70:Hat.wav
64,192,140262,128,0,140493:0:0:0:0:
320,192,140493,128,0,142339:0:0:0:0:
448,192,140493,1,0,0:0:0:0:
64,192,140724,1,0,0:0:0:70:Hat.wav
448,192,140955,1,0,0:0:0:0:
192,192,140955,1,8,0:0:0:0:
64,192,141185,1,0,0:0:0:70:Hat.wav
448,192,141416,1,0,0:0:0:0:
192,192,141647,1,0,0:0:0:70:Hat.wav
64,192,141878,1,0,0:0:0:0:
448,192,141878,1,8,0:0:0:0:
192,192,142108,128,0,142339:0:0:0:70:Hat.wav
448,192,142339,1,0,0:0:0:0:
64,192,142339,128,0,144185:0:0:0:0:
320,192,142570,128,0,142801:0:0:0:70:Hat.wav
192,192,142801,1,0,0:0:0:0:
448,192,142801,1,8,0:0:0:0:
448,192,143032,128,0,143262:0:0:0:70:Hat.wav
192,192,143262,1,0,0:0:0:0:
320,192,143262,1,0,0:0:0:0:
320,192,143493,128,0,143724:0:0:0:70:Hat.wav
448,192,143724,1,8,0:0:0:0:
192,192,143724,128,0,144185:0:0:0:0:
320,192,144185,1,4,0:0:0:0:
448,192,144185,1,2,0:0:0:0:
