osu file format v9

[General]
AudioFilename: Zutto Be with you (TV Size).mp3
AudioLeadIn: 1500
PreviewTime: 59426
Countdown: 0
SampleSet: Soft
StackLeniency: 0.7
Mode: 0
LetterboxInBreaks: 0

[Editor]
DistanceSpacing: 0.8
BeatDivisor: 4
GridSize: 8

[Metadata]
Title:Zutto Be with you (TV Size)
Artist:RAMM ni Haiyoru Nyaruko-san
Creator:wcx19911123
Version:Normal
Source:Haiyore! Nyaruko-san
Tags:ending Nyarlathotep Nyaruratohotepu Nyaruko Yasaka Mahiro Cthugha Kutugaa Kuko Hastur Hasuta Asumi Kana Kitamura Eri Matsuki Miyu Kugimiya Rie Otsubo Yuka STUDIO MAUSU MONACA DIVEII entertainment XEBEC

[Difficulty]
HPDrainRate:3
CircleSize:3
OverallDifficulty:4
ApproachRate:5
SliderMultiplier:1.12
SliderTickRate:1

[Events]
//Background and Video events
0,0,"BG.jpg"
Video,-70,"Zutto Be with you (TV Size).avi"
//Break Periods
//Storyboard Layer 0 (Background)
//Storyboard Layer 1 (Fail)
//Storyboard Layer 2 (Pass)
//Storyboard Layer 3 (Foreground)
//Storyboard Sound Samples
//Background Colour Transformations
3,100,163,162,255

[TimingPoints]
465,461.538461538462,4,2,2,65,1,0
14541,-100,4,2,1,65,0,0
15234,-100,4,2,1,70,0,0
28618,-100,4,2,1,55,0,0
29080,-100,4,2,1,50,0,0
30003,-100,4,2,1,70,0,0
42926,-100,4,2,1,60,0,0
43388,-100,4,2,1,55,0,0
44080,-100,4,2,1,50,0,0
44772,-100,4,2,1,70,0,0
51465,-100,4,2,0,70,0,0
52157,-100,4,2,1,70,0,0
58618,-100,4,2,1,50,0,0
59080,-100,4,2,1,45,0,0
59311,-100,4,2,1,70,0,0
59541,-100,4,2,1,75,0,1
74195,-100,4,2,1,75,0,0
74311,-100,4,2,1,75,0,1
87926,-100,4,2,1,75,0,0

[Colours]
Combo1 : 240,104,255
Combo2 : 0,236,249
Combo3 : 255,194,68
Combo4 : 47,255,47

[HitObjects]
208,328,465,2,0,B|144:336|104:288,1,112,2|0
80,256,1157,2,0,B|56:208|72:144,1,112,2|0
88,104,1849,1,0
120,72,2080,2,0,B|168:40|232:56,1,112,2|0
328,104,3003,1,2
440,88,3465,1,0
440,88,3695,2,0,B|440:152|400:192,1,112,0|2
296,224,4618,6,0,B|240:224,1,56,0|2
144,168,5311,2,0,B|88:168,2,56,0|0|2
240,112,6234,2,0,B|296:112,2,56,0|0|2
144,56,7157,1,0
144,56,7388,2,0,B|80:40|32:72,1,112,2|4
104,160,8311,5,8
104,160,8541,2,0,B|136:208|120:272,1,112
96,304,9234,2,0,B|64:352,1,56,8|0
176,368,9926,2,0,B|232:368,1,56,0|8
276,368,10388,2,0,B|336:368|376:320,1,112
392,280,11080,1,8
384,168,11541,5,0
328,72,12003,2,0,B|328:16,1,56,8|0
224,56,12695,2,0,B|224:112,1,56,0|8
224,156,13157,1,0
320,216,13618,2,0,B|320:272,1,56,0|8
300,312,14080,2,0,B|260:360|204:360,1,112,0|8
160,352,14772,1,8
80,272,15234,5,4
188,244,15695,1,8
188,244,15926,2,0,B|240:216|256:152,1,112
256,112,16618,2,0,B|256:56,1,56,8|0
160,112,17311,2,0,B|160:56,2,56,0|8|0
164,156,18003,2,0,B|176:216|232:248,1,112,0|8
336,264,18926,5,0
448,248,19388,1,8
448,248,19618,2,0,B|496:216|496:152,1,112
496,108,20311,2,0,B|496:52,1,56,8|0
400,112,21003,2,0,B|400:176,2,56,0|8|0
384,72,21695,2,0,B|352:24|288:24,1,112,0|8
176,40,22618,5,4
248,128,23080,1,8
248,128,23311,2,0,B|280:176|272:240,1,112
264,280,24003,2,0,B|248:336,1,56,8|0
160,264,24695,2,0,B|176:208,2,56,0|8|0
144,304,25388,2,0,B|112:360|48:360,1,112,0|8
48,248,26311,5,0
48,136,26772,1,8
48,136,27003,2,0,B|48:80|96:40,1,112
140,28,27695,2,0,B|196:28,1,56,8|0
240,28,28157,1,4
344,72,28618,1,8
256,144,29080,2,0,B|232:160|216:192,1,56,8|8
196,224,29541,2,0,B|188:252|192:284,1,56,8|8
208,320,30003,6,0,B|248:368|304:368,1,112,4|8
348,364,30695,1,0
440,304,31157,2,0,B|440:240,1,56,0|8
440,204,31618,1,0
344,144,32080,2,0,B|344:208,1,56,0|8
344,244,32541,1,0
240,288,33003,2,0,B|240:232,2,56,0|8|0
216,328,33695,6,0,B|168:368|112:352,1,112,0|8
72,328,34388,1,0
32,224,34849,2,0,B|32:168,1,56,0|8
32,124,35311,1,0
128,64,35772,2,0,B|128:120,1,56,0|8
128,164,36234,1,0
160,272,36695,1,0
200,296,36926,2,0,B|256:296,1,56,8|0
296,272,37388,6,0,B|344:240|408:256,1,112,4|8
440,280,38080,1,0
480,176,38541,2,0,B|480:120,1,56,0|8
480,76,39003,1,0
376,32,39465,2,0,B|376:88,1,56,0|8
376,132,39927,1,0
352,240,40388,1,0
312,264,40618,2,0,B|256:264,1,56,8|0
216,240,41080,6,0,B|168:208|104:224,1,112,0|8
68,240,41772,1,0
112,344,42234,2,0,B|168:344,2,56,0|8|0
68,344,42926,1,8
8,248,43388,2,0,B|-8:208|8:160,2,84,8|8|8
36,284,44311,2,0,B|84:316|148:300,1,112,8|4
240,248,45234,5,8
240,248,45465,2,0,B|288:216|352:232,1,112
392,240,46157,2,0,B|448:256,1,56,8|0
408,360,46849,2,0,B|352:344,1,56,0|8
312,328,47311,2,0,B|264:296|256:232,1,112
256,192,48003,1,8
296,88,48465,6,0,B|240:64|184:104,1,112,0|8
160,136,49157,1,0
144,248,49618,2,0,B|144:304,2,56,0|8|0
40,208,50541,2,0,B|40:264,1,56,0|8
48,308,51003,2,0,B|80:360|144:360,1,112,0|8
184,352,51695,1,8
256,264,52157,6,0,B|296:216|352:216,1,112,0|8
396,224,52849,2,0,B|448:244|468:304,1,112
472,348,53541,1,8
360,328,54003,1,0
264,272,54465,1,8
280,160,54926,1,0
392,144,55388,1,8
440,248,55849,1,4
256,192,56080,12,4,57465
256,192,58618,6,0,B|208:160|144:176,1,112,8|8
112,200,59311,1,0
88,236,59541,6,0,B|32:236,2,56,4|0|8
112,272,60234,2,0,B|144:328|208:328,1,112
248,328,60926,2,0,B|304:328,1,56,8|0
384,248,61618,2,0,B|440:248,1,56,0|8
472,216,62080,2,0,B|504:168|488:104,1,112
472,68,62772,1,8
368,24,63234,5,0
384,136,63695,1,8
384,136,63926,2,0,B|392:192|352:240,1,112
320,272,64618,2,0,B|272:312,1,56,8|0
168,336,65311,2,0,B|112:336,1,56,0|8
68,324,65772,2,0,B|16:296|8:232,1,112,0|8
4,188,66465,1,8
56,88,66926,6,0,B|56:32,2,56,4|0|8
68,132,67618,2,0,B|100:188|164:188,1,112
204,188,68311,2,0,B|260:188,1,56,8|0
312,88,69003,2,0,B|368:88,1,56,0|8
412,96,69465,2,0,B|464:112|488:176,1,112
496,216,70157,1,8
480,328,70618,5,0
392,256,71080,1,8
392,256,71311,2,0,B|336:224|280:240,1,112
248,264,72003,2,0,B|200:296,1,56,8|0
288,368,72695,2,0,B|336:336,1,56,0|8
368,308,73157,2,0,B|416:272|416:208,1,112,0|8
416,168,73849,1,8
376,64,74311,6,0,B|432:64,2,56,4|0|8
336,44,75003,2,0,B|280:24|224:56,1,112
200,88,75695,2,0,B|160:136,1,56,8|0
88,48,76388,2,0,B|48:96,1,56,0|8
36,132,76849,2,0,B|16:184|40:240,1,112
64,280,77541,2,0,B|96:328,2,56,8|0|0
132,192,78465,5,8
132,192,78695,2,0,B|176:152|240:160,1,112
280,168,79388,2,0,B|336:180,1,56,8|0
368,72,80080,2,0,B|424:84,1,56,0|8
464,104,80541,2,0,B|504:144|504:208,1,112,0|8
500,252,81234,1,8
424,336,81695,6,0,B|480:336,2,56,4|0|8
380,336,82388,1,0
320,240,82849,2,0,B|264:240,1,56,0|8
220,240,83311,1,0
152,152,83772,1,0
192,48,84234,2,0,B|248:48,1,56,0|8
360,48,84926,1,0
416,144,85388,6,0,B|440:200|416:256,1,112,4|8
380,276,86080,2,0,B|320:284|280:236,1,112
256,200,86772,1,8
248,156,87003,2,0,B|244:96|292:48,2,112,4|4|4
