osu file format v9

[General]
AudioFilename: Zutto Be with you (TV Size).mp3
AudioLeadIn: 1500
PreviewTime: 59426
Countdown: 0
SampleSet: Soft
StackLeniency: 0.7
Mode: 0
LetterboxInBreaks: 0

[Editor]
DistanceSpacing: 1.2
BeatDivisor: 4
GridSize: 8

[Metadata]
Title:Zutto Be with you (TV Size)
Artist:RAMM ni Haiyoru Nyaruko-san
Creator:wcx19911123
Version:Hard
Source:Haiyore! Nyaruko-san
Tags:ending Nyarlathotep Nyaruratohotepu Nyaruko Yasaka Mahiro Cthugha Kutugaa Kuko Hastur Hasuta Asumi Kana Kitamura Eri Matsuki Miyu Kugimiya Rie Otsubo Yuka STUDIO MAUSU MONACA DIVEII entertainment XEBEC

[Difficulty]
HPDrainRate:5
CircleSize:4
OverallDifficulty:6
ApproachRate:7
SliderMultiplier:1.6
SliderTickRate:1

[Events]
//Background and Video events
0,0,"BG.jpg"
Video,-70,"Zutto Be with you (TV Size).avi"
//Break Periods
//Storyboard Layer 0 (Background)
//Storyboard Layer 1 (Fail)
//Storyboard Layer 2 (Pass)
//Storyboard Layer 3 (Foreground)
//Storyboard Sound Samples
//Background Colour Transformations
3,100,163,162,255

[TimingPoints]
465,461.538461538462,4,2,2,65,1,0
14541,-100,4,2,1,60,0,0
15234,-100,4,2,1,70,0,0
28388,-100,4,2,1,65,0,0
28618,-100,4,2,1,50,0,0
29080,-100,4,2,1,45,0,0
29541,-100,4,2,1,40,0,0
30003,-100,4,2,1,70,0,0
42926,-100,4,2,1,60,0,0
43388,-100,4,2,1,55,0,0
43849,-100,4,2,1,50,0,0
44311,-100,4,2,1,45,0,0
44772,-100,4,2,1,70,0,0
51465,-100,4,2,0,70,0,0
51926,-100,4,2,1,70,0,0
57695,-100,4,2,1,50,0,0
58157,-100,4,2,1,60,0,0
58618,-100,4,2,1,50,0,0
59080,-100,4,2,1,45,0,0
59541,-100,4,2,1,75,0,1
74195,-100,4,2,1,75,0,0
74311,-100,4,2,1,75,0,1
87926,-100,4,2,1,75,0,0

[Colours]
Combo1 : 240,104,255
Combo2 : 0,236,249
Combo3 : 255,194,68
Combo4 : 47,255,47

[HitObjects]
448,160,465,1,2
456,240,695,1,0
384,208,926,1,0
376,128,1157,2,0,B|344:40|264:24,1,160,2|0
184,24,1849,1,0
192,104,2080,6,0,B|224:192|304:208,1,160,2|0
384,208,2772,1,0
368,288,3003,2,0,B|320:368|232:368,1,160,2|0
160,352,3695,1,0
96,304,3926,1,0
64,232,4157,6,0,B|48:192|56:152,2,80,2|0|0
128,120,4849,2,0,B|108:64|28:56|-4:100,1,160,2|0
55,153,5541,1,0
176,184,5772,6,0,B|264:192|320:128,1,160,2|0
352,56,6465,1,0
424,88,6695,2,0,B|488:136|488:232,1,160,2|0
476,308,7388,1,2
416,360,7618,1,0
336,368,7849,5,4
256,368,8080,2,0,B|216:368,2,40,0|0|8
296,300,8541,2,0,B|296:256,1,40
256,120,9003,2,0,B|256:80,2,40,0|0|8
216,192,9465,2,0,B|216:232,1,40
120,336,9926,6,0,B|160:336,2,40,0|0|8
72,272,10388,2,0,B|32:272,1,40
72,136,10849,2,0,B|32:136,2,40,0|0|8
128,192,11311,2,0,B|168:192,1,40
256,80,11772,6,0,B|256:32,2,40,0|0|8
256,160,12234,1,0
256,160,12349,1,0
392,112,12695,2,0,B|392:72,2,40,0|0|8
392,192,13157,1,0
392,192,13272,1,0
456,320,13618,6,0,B|496:320,2,40,0|0|8
384,360,14080,1,0
384,360,14195,1,0
256,192,14541,1,8
248,288,14772,2,0,B|208:368|120:376,1,160,8|4
40,328,15465,6,0,B|0:328,2,40,0|0|8
120,272,15926,2,0,B|152:240|152:200,1,80
152,104,16388,1,0
112,16,16618,1,8
40,80,16849,2,0,B|16:112|16:160,1,80
40,248,17311,6,0,B|40:288,2,40,0|0|8
104,176,17772,1,0
192,136,18003,2,0,B|280:112|344:160,1,160,0|8
480,352,18926,5,0
440,264,19157,2,0,B|440:224,2,40,0|0|8
384,344,19618,2,0,B|352:368|304:360,1,80
216,328,20080,1,0
152,256,20311,1,8
136,160,20541,6,0,B|136:120,2,40
78,237,21003,2,0,B|110:264|152:256,1,80,0|8
224,192,21465,1,0
312,152,21695,2,0,B|392:136|464:184,1,160,0|8
352,352,22618,5,4
288,280,22849,2,0,B|288:240,2,40,0|0|8
224,352,23311,2,0,B|184:368|144:352,1,80
64,304,23772,1,0
24,216,24003,1,8
24,120,24234,6,0,B|24:80|56:48,1,80
120,120,24695,2,0,B|120:160,2,40,0|0|8
176,40,25157,1,0
272,24,25388,2,0,B|352:16|424:72,1,160,0|8
488,264,26311,5,0
424,336,26541,2,0,B|424:376,2,40,0|0|8
396,244,27003,2,0,B|384:200|344:184,1,80
256,152,27465,1,0
168,192,27695,1,8
24,104,27926,6,0,B|64:120|80:168,1,80,0|4
96,256,28388,1,8
136,344,28618,2,0,B|168:376,3,40,8|8|8|8
192,336,29080,2,0,B|232:352,3,40,8|8|8|8
248,312,29541,2,0,B|288:312,3,40,8|8|8|8
288,264,30003,5,4
328,176,30234,1,0
312,80,30465,1,8
240,16,30695,1,0
240,16,30811,2,0,B|176:0|120:32,1,120
72,112,31388,1,8
168,120,31618,5,0
168,120,31734,2,0,B|232:144|256:200,1,120
288,288,32311,1,8
224,360,32541,2,0,B|184:360,2,40
352,360,33003,1,0
432,304,33234,1,8
472,216,33465,6,0,B|512:216,2,40
456,120,33926,1,0
400,40,34157,1,8
304,24,34388,1,0
304,24,34503,2,0,B|240:8|184:40,1,120
128,112,35080,1,8
48,192,35311,5,0
48,192,35426,2,0,B|112:192|160:240,1,120
208,320,36003,1,8
296,360,36234,2,0,B|336:360,2,40
288,264,36695,1,0
200,224,36926,2,0,B|160:224,2,40,8|0|0
352,192,37388,6,0,B|400:176|416:136,1,80,4|0
432,48,37849,1,8
504,112,38080,1,0
504,112,38195,2,0,B|528:168|504:232,1,120
456,312,38772,1,8
376,256,39003,5,0
376,256,39118,2,0,B|320:232|256:256,1,120
176,304,39695,1,8
64,328,39926,1,0
64,328,40041,2,0,B|96:272|80:208,1,120
40,128,40618,1,8
104,56,40849,6,0,B|144:56,2,40
132,148,41311,1,0
208,208,41541,1,8
304,224,41772,2,0,B|344:224,2,40
268,136,42234,1,0
304,48,42465,1,8
392,16,42695,6,0,B|432:16,2,40,0|0|8
376,112,43157,1,8
416,200,43388,1,8
416,200,43503,1,8
504,240,43734,1,8
504,240,43849,2,0,B|504:280,3,40,8|8|8|8
456,280,44311,2,0,B|448:320,3,40,8|8|8|8
400,304,44772,6,0,B|344:368|256:352,1,160,4|8
216,208,45465,2,0,B|272:144|360:160,1,160
440,216,46157,1,8
400,304,46388,2,0,B|440:324|480:304,1,80
344,228,46849,5,0
256,192,47080,1,8
160,192,47311,2,0,B|72:200|32:280,1,160
0,368,48003,1,8
128,312,48234,5,0
128,312,48349,1,0
128,312,48465,2,0,B|192:368|280:344,1,160,0|8
304,208,49157,2,0,B|240:152|152:176,1,160
72,224,49849,1,8
40,312,50080,6,0,B|24:360,2,40,0|0|0
136,296,50541,2,0,B|168:336,2,40,0|0|8
168,204,51003,2,0,B|220:192,2,40
72,224,51465,1,8
72,224,51695,1,8
8,136,51926,5,0
8,136,52041,1,0
8,136,52157,2,0,B|24:48|104:16,1,160,0|8
192,56,52849,2,0,B|232:80,1,40
360,128,53311,2,0,B|384:88,2,40,0|0|8
400,216,53772,2,0,B|376:256,1,40
392,296,54003,6,0,B|336:368|248:360,1,160,0|8
168,320,54695,2,0,B|120:296,1,40
16,216,55157,2,0,B|16:256,2,40,0|0|8
24,120,55618,1,0
88,48,55849,1,4
256,192,55965,12,0,57234
256,192,57465,5,4
312,272,57695,2,0,B|344:304|384:304,2,80,8|0|8
268,292,58272,2,0,B|228:308|188:292,1,80
144,272,58618,2,0,B|112:304,3,40,8|8|8|8
88,264,59080,2,0,B|48:264,3,40,8|8|8|8
56,216,59541,6,0,B|16:196|12:152,2,80,4|0|8
108,136,60234,1,0
108,136,60349,2,0,B|144:80|208:72,1,120
300,72,60926,1,8
432,40,61157,5,0
432,40,61272,2,0,B|440:112|400:160,1,120
376,192,61734,1,0
376,192,61849,1,8
456,304,62080,1,0
456,304,62195,2,0,B|416:360|352:360,1,120
264,328,62772,1,8
272,232,63003,5,0
272,232,63118,1,0
272,232,63234,2,0,B|272:192|240:160,1,80
160,112,63695,1,8
64,40,63926,1,0
64,40,64041,2,0,B|80:104|56:160,1,120
32,200,64503,1,0
32,200,64618,1,8
64,328,64849,5,0
64,328,64965,2,0,B|80:264|136:232,1,120
176,216,65426,1,0
176,216,65541,1,8
224,88,65772,1,0
224,88,65888,2,0,B|224:152|272:200,1,120,0|8
256,352,66465,2,0,B|280:272|368:240,1,160,8|4
456,216,67157,6,0,B|496:216,2,40,0|0|8
392,144,67618,1,0
392,144,67734,2,0,B|352:96|352:32,1,120
296,144,68311,1,8
208,184,68541,5,0
208,184,68657,2,0,B|152:208|128:272,1,120
122,317,69118,1,0
122,317,69234,1,8
40,224,69465,2,0,B|8:144|40:64,1,160
56,24,70041,1,0
56,24,70157,1,8
120,96,70388,6,0,B|120:136,2,40
208,136,70849,2,0,B|208:176,2,40,0|0|8
272,48,71311,2,0,B|336:0|424:16,1,160
468,36,71888,1,0
468,36,72003,1,8
368,120,72234,5,0
368,120,72349,2,0,B|320:168|320:232,1,120
320,276,72811,1,0
320,276,72926,1,8
248,360,73157,1,0
248,360,73272,2,0,B|192:336|168:272,1,120,0|8
32,240,73849,2,0,B|112:224|152:144,1,160,8|4
96,64,74541,6,0,B|56:64,2,40,0|0|8
192,48,75003,1,0
192,48,75118,2,0,B|256:32|312:56,1,120
384,112,75695,1,8
456,208,75926,5,0
456,208,76041,2,0,B|504:168|504:96,1,120
503,53,76503,1,0
503,53,76618,1,8
368,24,76849,2,0,B|280:8|216:64,1,160
192,104,77426,1,0
192,104,77541,1,8
104,144,77772,6,0,B|56:168,2,40
184,200,78234,2,0,B|180:248,2,40,0|0|8
280,136,78695,2,0,B|360:104|440:136,1,160
476,164,79272,1,0
476,164,79388,1,8
376,224,79618,5,0
376,224,79734,2,0,B|320:256|296:312,1,120
280,356,80195,1,0
280,356,80311,1,8
192,320,80541,2,0,B|152:320,2,40
248,240,81003,1,8
256,144,81234,2,0,B|240:56|160:24,1,160,8|4
32,24,81926,5,0
40,120,82157,1,8
96,200,82388,1,0
96,200,82503,2,0,B|144:240|208:232,1,120
256,224,82965,1,0
256,224,83080,1,8
392,200,83311,5,0
392,200,83426,2,0,B|328:192|296:128,1,120,0|0
456,24,84234,1,0
456,24,84349,1,0
456,24,84465,1,8
416,112,84695,2,0,B|456:128|496:112,2,80
392,104,85272,1,0
368,96,85388,6,0,B|328:80|288:96,1,80,4|0
208,144,85849,1,8
104,56,86080,2,0,B|136:128|112:216,1,160
72,312,86772,1,8
72,312,87003,1,4
256,368,87465,1,4
440,312,87926,1,4
