osu file format v9

[General]
AudioFilename: Zutto Be with you (TV Size).mp3
AudioLeadIn: 1500
PreviewTime: 59426
Countdown: 0
SampleSet: Soft
StackLeniency: 0.7
Mode: 0
LetterboxInBreaks: 0

[Editor]
DistanceSpacing: 1
BeatDivisor: 4
GridSize: 8

[Metadata]
Title:Zutto Be with you (TV Size)
Artist:RAMM ni Haiyoru Nyaruko-san
Creator:wcx19911123
Version:Easy
Source:Haiyore! Nyaruko-san
Tags:ending Nyarlathotep Nyaruratohotepu Nyaruko Yasaka Mahiro Cthugha Kutugaa Kuko Hastur Hasuta Asumi Kana Kitamura Eri Matsuki Miyu Kugimiya Rie Otsubo Yuka STUDIO MAUSU MONACA DIVEII entertainment XEBEC

[Difficulty]
HPDrainRate:1
CircleSize:3
OverallDifficulty:2
ApproachRate:3
SliderMultiplier:0.8
SliderTickRate:1

[Events]
//Background and Video events
0,0,"BG.jpg"
Video,-70,"Zutto Be with you (TV Size).avi"
//Break Periods
//Storyboard Layer 0 (Background)
//Storyboard Layer 1 (Fail)
//Storyboard Layer 2 (Pass)
//Storyboard Layer 3 (Foreground)
//Storyboard Sound Samples
//Background Colour Transformations
3,100,163,162,255

[TimingPoints]
465,461.538461538462,4,2,2,65,1,0
8311,-100,4,1,2,65,0,0
8541,-100,4,2,2,65,0,0
10157,-100,4,1,2,65,0,0
10388,-100,4,2,2,65,0,0
12003,-100,4,1,2,65,0,0
12234,-100,4,2,2,65,0,0
13849,-100,4,1,2,65,0,0
14080,-100,4,2,2,65,0,0
14541,-100,4,2,1,60,0,0
15234,-100,4,2,1,70,0,0
23080,-100,4,1,1,70,0,0
23311,-100,4,2,1,70,0,0
26772,-100,4,1,1,70,0,0
27003,-100,4,2,1,70,0,0
27695,-100,4,1,1,70,0,0
27926,-100,4,2,1,70,0,0
28618,-100,4,2,1,65,0,0
29080,-100,4,2,1,55,0,0
30003,-100,4,2,1,70,0,0
30465,-100,4,1,1,70,0,0
30695,-100,4,2,1,70,0,0
34157,-100,4,1,1,70,0,0
34388,-100,4,2,1,70,0,0
37849,-100,4,1,1,70,0,0
38080,-100,4,2,1,70,0,0
41541,-100,4,1,1,70,0,0
41772,-100,4,2,1,70,0,0
43388,-100,4,2,1,65,0,0
43618,-100,4,2,1,70,0,0
44311,-100,4,2,1,65,0,0
44772,-100,4,2,1,70,0,0
50772,-100,4,1,1,70,0,0
51003,-100,4,2,0,70,0,0
52157,-100,4,2,1,70,0,0
52618,-100,4,1,1,70,0,0
52849,-100,4,2,1,70,0,0
58618,-100,4,2,1,50,0,0
59080,-100,4,2,1,45,0,0
59541,-100,4,2,1,75,0,1
60003,-100,4,1,1,75,0,1
60234,-100,4,2,1,75,0,1
65541,-100,4,1,1,75,0,1
65772,-100,4,2,1,75,0,1
69234,-100,4,1,1,75,0,1
69465,-100,4,2,1,75,0,1
72926,-100,4,1,1,75,0,1
73157,-100,4,2,1,75,0,1
74195,-100,4,2,1,75,0,0
74311,-100,4,2,1,75,0,1
78465,-100,4,1,1,75,0,1
78695,-100,4,2,1,75,0,1
80311,-100,4,1,1,75,0,1
80541,-100,4,2,1,75,0,1
82157,-100,4,1,1,75,0,1
82388,-100,4,2,1,75,0,1
85849,-100,4,1,1,75,0,1
86080,-100,4,2,1,75,0,1
87926,-100,4,2,1,75,0,0

[Colours]
Combo1 : 240,104,255
Combo2 : 0,236,249
Combo3 : 255,194,68
Combo4 : 47,255,47

[HitObjects]
184,256,465,2,0,B|152:312|88:320,2,120,2|2|0
192,216,2080,2,0,B|208:128|288:88,1,160,2|0
400,64,3695,1,0
464,112,4157,6,0,B|504:168|488:232,2,120,2|2|0
432,88,5772,2,0,B|360:40|272:72,1,160,2|0
184,144,7388,1,2
104,136,7849,6,0,B|104:208|176:224,2,120,4|0|8
117,98,9465,2,0,B|152:52|224:52|256:108,1,160
264,224,11080,1,8
296,296,11541,6,0,B|336:352|400:352,2,120,0|0|8
272,264,13157,2,0,B|240:192|272:104,1,160
312,40,14541,2,0,B|352:40,1,40,8|8
432,40,15234,6,0,B|472:56|488:96,1,80,4|8
496,132,15926,2,0,B|496:200|448:240,1,120,0|8
416,260,16849,2,0,B|352:280|296:240,1,120,0|8
256,176,18003,1,0
256,96,18465,1,8
208,32,18926,6,0,B|176:8|128:16,1,80,0|8
96,32,19618,2,0,B|40:64|32:128,1,120,0|8
32,168,20541,2,0,B|40:232|96:264,1,120,0|8
176,272,21695,1,0
256,272,22157,1,8
336,272,22618,6,0,B|400:272|432:336,2,120,4|0|8
296,264,24234,2,0,B|232:256|200:200,1,120,0|8
192,120,25388,1,0
224,48,25849,1,8
304,32,26311,6,0,B|368:32|408:88,1,120
480,120,27465,2,0,B|444:180|376:160,1,120,0|4
312,112,28618,1,8
232,96,29080,2,0,B|192:96|160:128,1,80,8|8
128,200,30003,6,0,B|68:168|86:96,2,120,4|0|8
168,208,31618,2,0,B|232:224|288:192,1,120,0|8
344,140,32772,1,0
368,64,33234,1,8
421,123,33695,6,0,B|429:191|365:217,2,120,0|0|8
404,88,35311,2,0,B|356:42|295:76,1,120,0|8
264,152,36465,1,0
264,232,36926,1,8
232,304,37388,6,0,B|192:360|128:360,2,120,4|0|8
240,264,39003,2,0,B|248:200|200:152,1,120,0|8
136,112,40157,1,0
56,120,40618,1,8
8,184,41080,6,0,B|-16:240|8:304,2,120,0|0|8
32,152,42695,2,0,B|72:104|144:104,1,120,0|8
176,116,43618,2,0,B|240:144|256:208,1,120,0|8
240,280,44772,6,0,B|240:328|272:352,1,80,4|8
308,364,45465,2,0,B|368:376|424:344,1,120,0|8
448,312,46388,2,0,B|488:264|480:200,1,120,0|8
472,160,47311,2,0,B|448:96|392:72,1,120,0|8
336,16,48465,6,0,B|306:51|316:92,1,80,0|8
328,128,49157,2,0,B|352:184|328:248,1,120,0|8
308,280,50080,2,0,B|284:320|292:360,2,80
344,208,51465,2,0,B|344:168,1,40,8|8
344,88,52157,6,0,B|304:32|240:32,2,120,0|0|8
352,168,54003,2,0,B|352:216|320:240,1,80,0|8
240,248,54926,2,0,B|240:200|272:176,2,80,0|8|4
256,192,56080,12,4,57465
256,192,58618,5,8
248,112,59080,1,8
192,56,59541,6,0,B|136:24|72:56,2,120,4|0|8
224,80,61157,2,0,B|288:104|344:80,1,120,0|8
376,60,62080,2,0,B|432:32|496:56,1,120,0|8
504,136,63234,6,0,B|504:176|472:208,1,80,0|8
440,232,63926,2,0,B|384:264|320:240,1,120,0|8
288,224,64849,1,0
232,168,65311,2,0,B|200:144|152:152,1,80
80,176,66234,2,0,B|32:192,1,40,8|8
0,256,66926,6,0,B|-8:296|16:336,1,80,4|8
48,356,67618,2,0,B|104:384|168:352,1,120,0|8
184,320,68541,2,0,B|208:280|248:272,2,80
304,328,70157,1,8
384,336,70618,6,0,B|424:336|456:304,1,80,0|8
480,272,71311,2,0,B|512:216|488:152,1,120,0|8
472,120,72234,1,0
416,64,72695,2,0,B|386:96|395:139,1,80
416,216,73618,2,0,B|432:272,1,40,8|8
392,328,74311,6,0,B|368:360|320:360,1,80,4|8
284,348,75003,2,0,B|232:304|240:240,1,120,0|8
252,204,75926,2,0,B|272:144|240:88,1,120,0|8
208,64,76849,2,0,B|144:40|88:80,1,120,0|8
64,152,78003,6,0,B|4:120|16:52,2,120,0|0|8
104,156,79618,1,0
176,192,80080,2,0,B|216:216|224:256,1,80
192,328,81003,2,0,B|152:328,1,40,8|8
88,280,81695,6,0,B|56:224|80:160,1,120,4|0
120,96,82849,2,0,B|120:56,2,40,0|8|0
158,166,83772,2,0,B|192:216|264:216,1,120,0|8
336,184,84926,1,0
384,120,85388,6,0,B|434:169|402:228,2,120,4|0|8
352,96,87003,2,0,B|280:64,2,80,4|4|4
