osu file format v9

[General]
AudioFilename: 01 - Zutto Be with you ~TV size~.mp3
AudioLeadIn: 1500
PreviewTime: 58393
Countdown: 0
SampleSet: Normal
StackLeniency: 0.7
Mode: 0
LetterboxInBreaks: 0

[Editor]
DistanceSpacing: 1.2
BeatDivisor: 4
GridSize: 4

[Metadata]
Title:Zutto Be with you (TV Size)
Artist:RAMM ni Haiyoru Nyaruko-san
Creator:cRyo[iceeicee]
Version:Normal
Source:Haiyore! Nyaruko-san
Tags:ending Nyarlathotep Nyaruratohotepu Nyaruko Yasaka Mahiro Cthugha Kutugaa Kuko Hastur Hasuta Asumi Kana Kitamura Eri Matsuki Miyu Kugimiya Rie Otsubo Yuka STUDIO MAUSU MONACA DIVEII entertainment XEBEC Fujibayashi Shoko KayeSara

[Difficulty]
HPDrainRate:3
CircleSize:3
OverallDifficulty:3
ApproachRate:4
SliderMultiplier:1.4
SliderTickRate:2

[Events]
//Background and Video events
Video,-500,"video.AVI"
0,0,"c3d133ae83d9e0d680e93ec19b4ee156.jpg"
//Break Periods
//Storyboard Layer 0 (Background)
//Storyboard Layer 1 (Fail)
//Storyboard Layer 2 (Pass)
//Storyboard Layer 3 (Foreground)
//Storyboard Sound Samples
//Background Colour Transformations
3,100,163,162,255

[TimingPoints]
500,461.538461538462,4,1,0,35,1,0
500,-133.333333333333,4,2,1,35,0,0
2923,-133.333333333333,4,2,1,5,0,0
6384,-133.333333333333,4,2,1,45,0,0
8288,-133.333333333333,4,1,1,45,0,0
8403,-133.333333333333,4,2,1,45,0,0
9211,-133.333333333333,4,1,1,45,0,0
9326,-133.333333333333,4,2,1,45,0,0
10134,-133.333333333333,4,1,1,45,0,0
10250,-133.333333333333,4,2,1,45,0,0
11057,-133.333333333333,4,1,1,45,0,0
11173,-133.333333333333,4,2,1,45,0,0
11980,-133.333333333333,4,1,1,45,0,0
12096,-133.333333333333,4,2,1,45,0,0
12903,-133.333333333333,4,1,1,45,0,0
13019,-133.333333333333,4,2,1,45,0,0
13826,-133.333333333333,4,1,1,45,0,0
13942,-133.333333333333,4,2,1,45,0,0
14519,-100,4,1,1,45,0,0
15038,-100,4,1,2,40,0,0
15384,-100,4,1,1,40,0,0
29923,-100,4,1,2,40,0,0
30153,-100,4,2,1,50,0,0
30442,-100,4,1,2,40,0,0
30557,-100,4,2,1,50,0,0
31365,-100,4,1,2,40,0,0
31480,-100,4,2,1,50,0,0
32288,-100,4,1,2,40,0,0
32403,-100,4,2,1,50,0,0
33211,-100,4,1,2,40,0,0
33326,-100,4,2,1,50,0,0
34134,-100,4,1,2,40,0,0
34250,-100,4,2,1,50,0,0
35057,-100,4,1,2,40,0,0
35173,-100,4,2,1,50,0,0
35980,-100,4,1,2,40,0,0
36096,-100,4,2,1,50,0,0
36615,-100,4,2,1,40,0,0
36903,-100,4,1,1,30,0,0
37307,-100,4,1,2,40,0,0
37538,-100,4,2,1,50,0,0
37826,-100,4,1,2,40,0,0
37942,-100,4,2,1,50,0,0
38750,-100,4,1,2,40,0,0
38865,-100,4,2,1,50,0,0
39673,-100,4,1,2,40,0,0
39788,-100,4,2,1,50,0,0
40596,-100,4,1,2,40,0,0
40711,-100,4,2,1,50,0,0
41519,-100,4,1,2,40,0,0
41634,-100,4,2,1,50,0,0
42903,-100,4,1,2,40,0,0
44750,-133.333333333333,4,1,2,35,0,0
45211,-133.333333333333,4,1,2,45,0,0
45326,-133.333333333333,4,2,1,45,0,0
46134,-133.333333333333,4,1,2,45,0,0
46480,-133.333333333333,4,2,1,45,0,0
47346,-133.333333333333,4,1,1,45,0,0
49076,-133.333333333333,4,2,1,35,0,0
49826,-133.333333333333,4,1,2,45,0,0
50461,-133.333333333333,4,2,1,45,0,0
50692,-133.333333333333,4,1,1,45,0,0
51442,-100,4,1,1,45,0,0
55653,-100,4,1,2,45,0,0
58423,-133.333333333333,4,2,1,45,0,0
59519,-100,4,1,2,45,0,0
59634,-100,4,1,1,45,0,0
66903,-100,4,1,2,45,0,0
67307,-100,4,1,1,45,0,0
74288,-100,4,1,2,45,0,0
74461,-100,4,1,1,45,0,0
81673,-100,4,1,2,45,0,0
81846,-100,4,1,1,45,0,0
85365,-100,4,1,2,45,0,0
85480,-100,4,1,1,45,0,0
87961,-100,4,1,2,45,0,0

[Colours]
Combo1 : 0,240,61
Combo2 : 255,70,163
Combo3 : 255,53,53

[HitObjects]
52,192,500,2,0,B|104:200|164:180,1,104.999996870756,2|0
212,120,1192,2,0,B|263:102|315:110,1,104.999996870756,2|0
460,196,2115,1,2
352,324,2576,1,2
256,192,3038,12,0,6269
56,276,7884,5,4
48,108,8346,2,0,B|92:76|152:72,1,104.999996870756,0|0
256,200,9269,2,0,B|212:232|152:236,1,104.999996870756
248,92,10192,6,0,B|292:60|352:56,1,104.999996870756
456,184,11115,2,0,B|412:216|352:220,1,104.999996870756
192,252,12038,6,0,B|172:200|192:148,1,104.999996870756
320,44,12961,2,0,B|340:96|320:148,1,104.999996870756
308,316,13884,6,0,B|256:336|204:316,1,104.999996870756
132,272,14576,2,0,B|132:196,1,70
256,88,15269,6,0,B|256:16,2,70,6|0|8
268,172,15961,2,0,B|314:204|361:196|390:150,1,140,6|2
476,296,16884,2,0,B|430:264|383:272|354:318,1,140,6|2
188,340,17807,2,0,B|168:264,1,70,2|6
88,260,18269,2,0,B|68:184,1,70,0|2
192,76,18961,6,0,B|100:56,2,70,6|0|8
272,96,19653,2,0,B|302:141|294:188|249:217,1,140,6|2
104,304,20576,2,0,B|133:349|180:357|225:326,1,140,6|2
384,268,21500,2,0,B|376:348,2,70,2|4|2
440,204,22192,2,2,B|416:108,1,70,0|2
396,56,22653,6,0,B|476:32,2,70,6|0|8
316,84,23346,2,0,B|168:68,1,140,6|2
40,168,24269,2,0,B|9:212|17:259|63:288,1,140,6|2
228,316,25192,2,0,B|312:304,1,70,2|6
380,292,25653,1,0
464,280,25884,1,2
408,116,26346,6,0,B|476:102,2,70,6|0|8
336,160,27038,2,0,B|290:190|243:182|214:137,1,140,6|2
60,76,27961,2,0,B|89:31|136:23|181:53,1,140,6|2
140,216,28884,1,2
64,248,29115,2,0,B|-12:280,2,70,6|0|6
228,288,30038,6,0,B|273:318|320:310|349:265,1,140,4|0
400,196,30730,1,2
256,108,31192,2,0,B|256:36,2,70,0|0|2
112,192,32115,2,0,B|70:133,2,70,0|0|2
256,280,33038,5,0
332,320,33269,1,0
416,312,33500,1,0
468,248,33730,2,0,B|476:168,1,70,2|0
392,168,34192,2,0,B|400:88,1,70,0|2
240,48,34884,6,0,B|233:117,1,70
220,200,35346,1,2
112,332,35807,2,0,B|105:262,1,70
40,208,36269,2,0,B|9:162|17:115|62:86,1,140,2|4
140,56,36961,2,0,B|136:4,2,35
220,84,37423,6,0,B|360:72,1,140,4|0
444,64,38115,1,2
460,232,38576,5,0
424,308,38807,1,0
340,292,39038,1,2
172,292,39500,5,0
88,308,39731,1,0
52,232,39962,1,2
144,92,40423,6,0,B|68:56,2,70,0|0|0
188,164,41115,1,2
256,216,41346,1,0
324,164,41576,1,0
396,120,41807,6,0,B|441:149|449:196|418:241,2,140,2|0|2
328,276,43192,2,0,B|340:344,2,70,0|0|0
112,84,44807,6,0,B|164:92|216:68,1,104.999996870756,4|0
297,68,45500,2,0,B|348:92|400:84,1,104.999996870756,4|0
464,140,46192,1,0
428,216,46423,2,0,B|452:336,2,104.999996870756,0|2|0
256,112,48038,1,0
92,84,48500,6,0,B|116:208,1,104.999996870756,0|0
144,264,49192,2,0,B|192:288|248:270,1,104.999996870756,4|0
316,228,49884,1,0
396,208,50115,2,0,B|444:324,2,104.999996870756,0|2|0
256,112,51500,5,8
172,120,51730,2,0,B|127:149|119:196|149:241,1,140,8|4
256,372,52653,1,8
362,241,53115,2,0,B|393:196|385:149|340:120,1,140,0|8
176,80,54038,5,0
52,192,54500,1,8
176,304,54961,1,0
304,192,55423,1,8
256,192,55884,12,4,57500
40,76,58653,6,0,B|36:132|49:180,1,104.999996870756,2|4
128,328,59576,6,0,B|288:312,1,140,6|4
352,300,60269,2,0,B|382:254|374:207|329:178,1,140,2|0
268,120,60961,1,4
188,100,61192,6,0,B|108:88,1,70,2|0
68,156,61653,2,0,B|4:188,2,70,2|4|2
192,268,62576,2,0,B|112:256,2,70,0|6|0
276,268,63269,6,0,B|321:239|329:192|298:146,1,140,2|4
248,80,63961,2,0,B|184:24|104:60,1,140,2|2
92,220,64884,2,0,B|121:265|168:273|213:243,2,140,2|2|2
216,332,66269,1,4
296,332,66500,1,4
444,252,66961,6,0,B|474:206|466:159|421:130,1,140,6|4
336,120,67653,2,0,B|172:112,1,140,2|0
112,112,68346,1,4
32,132,68576,2,0,B|2:177|9:224|54:253,2,140,2|2|2
148,232,69961,5,0
184,308,70192,1,6
256,352,70423,1,0
328,308,70653,2,0,B|373:279|381:232|350:186,1,140,2|4
272,160,71346,2,0,B|241:114|249:67|294:38,1,140,2|2
164,144,72269,5,2
256,284,72730,1,2
348,144,73192,1,2
484,244,73653,2,0,B|408:256,1,70,4|4
256,192,74346,6,0,B|211:163|203:116|234:70,1,140,6|4
316,60,75038,2,0,B|460:76,1,140,2|0
480,156,75730,1,4
484,240,75961,6,0,B|455:285|408:293|362:262,1,140,2|2
316,192,76653,1,4
252,136,76884,2,2,B|204:160|164:112|108:144,1,140,2|0
44,184,77576,2,0,B|36:276,1,70,6|0
44,340,78038,6,0,B|87:374|135:369|167:326,1,140,2|4
224,264,78730,2,0,B|253:219|300:211|346:242,1,140,2|0
444,104,79653,6,0,B|364:80,1,70,2|0
308,132,80115,2,0,B|228:108,1,70,2|0
160,96,80576,2,0,B|115:125|107:172|138:218,1,140,2|4
208,264,81269,1,4
376,268,81730,6,0,B|404:344,2,70,6|0|4
340,192,82423,2,0,B|309:146|317:99|362:70,1,140,2|0
444,56,83115,1,4
480,132,83346,2,0,B|511:178|503:225|458:254,2,140,2|2|2
332,56,84730,5,0
256,92,84961,1,6
180,56,85192,1,0
120,112,85423,6,0,B|89:158|97:205|142:234,1,140,6|4
196,296,86115,2,0,B|232:332|288:332|320:296,1,140,2|6
400,148,87038,5,6
256,60,87500,1,6
112,148,87961,1,12
