osu file format v9

[General]
AudioFilename: 01 - Zutto Be with you ~TV size~.mp3
AudioLeadIn: 1500
PreviewTime: 58393
Countdown: 0
SampleSet: Normal
StackLeniency: 0.7
Mode: 0
LetterboxInBreaks: 0

[Editor]
DistanceSpacing: 1.4
BeatDivisor: 4
GridSize: 4

[Metadata]
Title:Zutto Be with you (TV Size)
Artist:RAMM ni Haiyoru Nyaruko-san
Creator:cRyo[iceeicee]
Version:Hard
Source:Haiyore! Nyaruko-san
Tags:ending Nyarlathotep Nyaruratohotepu Nyaruko Yasaka Mahiro Cthugha Kutugaa Kuko Hastur Hasuta Asumi Kana Kitamura Eri Matsuki Miyu Kugimiya Rie Otsubo Yuka STUDIO MAUSU MONACA DIVEII entertainment XEBEC Fujibayashi Shoko KayeSara

[Difficulty]
HPDrainRate:6
CircleSize:4
OverallDifficulty:6
ApproachRate:8
SliderMultiplier:1.6
SliderTickRate:2

[Events]
//Background and Video events
Video,-500,"video.AVI"
0,0,"c3d133ae83d9e0d680e93ec19b4ee156.jpg"
//Break Periods
//Storyboard Layer 0 (Background)
//Storyboard Layer 1 (Fail)
//Storyboard Layer 2 (Pass)
//Storyboard Layer 3 (Foreground)
//Storyboard Sound Samples
//Background Colour Transformations
3,100,163,162,255

[TimingPoints]
500,461.538461538462,4,1,0,35,1,0
500,-133.333333333333,4,2,1,35,0,0
2923,-133.333333333333,4,2,1,5,0,0
6384,-133.333333333333,4,2,1,45,0,0
8288,-133.333333333333,4,1,1,45,0,0
8403,-133.333333333333,4,2,1,45,0,0
9211,-133.333333333333,4,1,1,45,0,0
9326,-133.333333333333,4,2,1,45,0,0
10134,-133.333333333333,4,1,1,45,0,0
10250,-133.333333333333,4,2,1,45,0,0
11057,-133.333333333333,4,1,1,45,0,0
11173,-133.333333333333,4,2,1,45,0,0
11980,-133.333333333333,4,1,1,45,0,0
12096,-133.333333333333,4,2,1,45,0,0
12903,-133.333333333333,4,1,1,45,0,0
13019,-133.333333333333,4,2,1,45,0,0
13826,-133.333333333333,4,1,1,45,0,0
13942,-133.333333333333,4,2,1,45,0,0
14519,-133.333333333333,4,1,1,45,0,0
15038,-100,4,1,2,40,0,0
15384,-100,4,1,1,40,0,0
29923,-100,4,1,2,40,0,0
30153,-100,4,2,1,50,0,0
30442,-100,4,1,2,40,0,0
30557,-100,4,2,1,50,0,0
31365,-100,4,1,2,40,0,0
31480,-100,4,2,1,50,0,0
32288,-100,4,1,2,40,0,0
32403,-100,4,2,1,50,0,0
33211,-100,4,1,2,40,0,0
33326,-100,4,2,1,50,0,0
34134,-100,4,1,2,40,0,0
34250,-100,4,2,1,50,0,0
35057,-100,4,1,2,40,0,0
35173,-100,4,2,1,50,0,0
35750,-100,4,1,2,30,0,0
36211,-100,4,2,1,50,0,0
36615,-100,4,2,1,40,0,0
36903,-100,4,1,1,30,0,0
37307,-100,4,1,2,40,0,0
37538,-100,4,2,1,50,0,0
37826,-100,4,1,2,40,0,0
37942,-100,4,2,1,50,0,0
38750,-100,4,1,2,40,0,0
38865,-100,4,2,1,50,0,0
39673,-100,4,1,2,40,0,0
39788,-100,4,2,1,50,0,0
40596,-100,4,1,2,40,0,0
40711,-100,4,2,1,50,0,0
41519,-100,4,1,2,40,0,0
41634,-100,4,2,1,50,0,0
42442,-100,4,1,2,40,0,0
42557,-100,4,2,1,50,0,0
42903,-100,4,1,2,40,0,0
44750,-133.333333333333,4,1,1,35,0,0
44865,-133.333333333333,4,1,1,45,0,0
45326,-133.333333333333,4,2,1,45,0,0
46134,-133.333333333333,4,1,1,45,0,0
46250,-133.333333333333,4,2,1,45,0,0
47057,-133.333333333333,4,1,1,45,0,0
47173,-133.333333333333,4,2,1,45,0,0
47980,-133.333333333333,4,1,1,45,0,0
49076,-133.333333333333,4,2,1,40,0,0
49826,-133.333333333333,4,1,1,45,0,0
50461,-133.333333333333,4,2,1,45,0,0
50692,-133.333333333333,4,1,1,45,0,0
51442,-133.333333333333,4,1,1,40,0,0
51846,-100,4,1,1,45,0,0
52365,-100,4,2,1,55,0,0
52480,-100,4,1,1,40,0,0
52826,-100,4,2,1,55,0,0
52942,-100,4,1,1,45,0,0
53288,-100,4,2,1,55,0,0
53403,-100,4,1,1,40,0,0
53750,-100,4,2,1,55,0,0
53865,-100,4,1,1,45,0,0
54211,-100,4,2,1,55,0,0
54326,-100,4,1,1,40,0,0
54673,-100,4,2,1,55,0,0
54788,-100,4,1,1,45,0,0
55134,-100,4,2,1,55,0,0
55250,-100,4,1,1,40,0,0
55596,-100,4,2,1,55,0,0
55711,-200,4,1,2,45,0,0
57038,-200,4,2,1,5,0,0
57153,-100,4,1,2,45,0,0
59519,-90.9090909090909,4,1,2,45,0,0
59634,-90.9090909090909,4,1,1,45,0,0
66903,-90.9090909090909,4,1,2,45,0,0
67307,-90.9090909090909,4,1,1,45,0,0
74288,-90.9090909090909,4,1,2,45,0,0
74461,-90.9090909090909,4,1,1,45,0,0
81673,-90.9090909090909,4,1,2,45,0,0
81846,-90.9090909090909,4,1,1,45,0,0
85365,-90.9090909090909,4,1,2,45,0,0
85480,-90.9090909090909,4,1,1,45,0,0
87961,-90.9090909090909,4,1,2,45,0,0

[Colours]
Combo1 : 0,240,61
Combo2 : 255,70,163
Combo3 : 255,53,53

[HitObjects]
128,128,500,2,0,B|124:68,2,59.9999982118607,2|0|0
136,212,1192,2,0,B|196:232|260:204,1,119.999996423721,2|0
300,136,1884,1,0
304,52,2115,2,0,B|348:40|386:75|385:116,1,119.999996423721,2|0
256,192,3038,12,0,6269
256,192,6499,12,4,7884
72,240,8346,5,0
72,240,8576,2,0,B|132:264|192:232,1,119.999996423721,2|0
232,160,9269,5,0
300,112,9500,2,0,B|360:88|420:120,1,119.999996423721,2|0
480,176,10192,5,0
412,224,10423,2,0,B|352:248|292:216,1,119.999996423721,2|0
220,252,11115,5,0
172,184,11346,2,0,B|148:124|180:64,1,119.999996423721,2|0
256,36,12038,5,0
304,104,12269,2,0,B|328:164|296:224,1,119.999996423721,2|0
220,252,12961,5,0
284,304,13192,2,0,B|348:320|403:290,1,119.999996423721,2|0
424,212,13884,5,0
388,136,14115,2,0,B|336:132|292:152,1,89.9999973177911,4|0
256,172,14576,1,0
128,92,14807,1,0
128,92,15269,5,14
204,148,15500,1,0
216,52,15730,1,8
132,168,15961,2,2,B|137:226|219:249|264:200,1,160,6|2
284,108,16653,1,8
372,72,16884,2,0,B|376:112|364:164,1,80,6|0
444,212,17346,2,0,B|430:249|397:291,1,80,2|8
304,276,17807,5,2
160,208,18038,1,6
316,184,18269,1,0
204,288,18500,1,10
224,128,18730,1,0
240,212,18961,5,6
260,344,19192,1,0
128,300,19423,1,8
160,208,19653,2,2,B|184:132|148:51,1,160,6|2
256,52,20346,1,8
364,51,20576,2,2,B|328:132|352:208,1,160,6|2
440,248,21269,1,8
432,152,21500,5,2
432,152,21615,1,0
432,152,21730,1,4
352,207,21961,1,2
368,304,22192,2,2,B|328:316|276:320,1,80,8|2
175,340,22653,5,6
82,315,22884,1,0
107,223,23115,1,8
200,248,23346,2,2,B|240:236|280:232,1,80,6|0
416,172,23807,2,2,B|376:160|336:156,1,80,2|8
180,128,24269,2,2,B|220:116|260:112,1,80,6|0
392,52,24730,2,2,B|352:40|312:36,1,80,2|8
200,44,25192,5,2
244,196,25423,1,6
92,144,25653,1,0
152,216,25884,5,10
116,64,26115,1,0
180,128,26346,5,6
272,108,26576,1,0
368,88,26807,1,8
460,68,27038,2,2,B|488:152|460:228,1,160,6|2
412,308,27730,1,8
316,296,27961,2,0,B|276:296|228:312,1,80,6|0
128,332,28423,5,6
128,332,28538,1,0
128,332,28653,1,8
64,240,28884,1,2
64,240,29000,1,0
64,240,29115,2,0,B|52:200|52:156,2,80,6|0|6
120,80,30038,6,0,B|28:68,2,80,4|0|0
172,160,30730,2,0,B|248:192|340:160,1,160,2|0
400,216,31423,1,0
416,304,31653,2,0,B|340:272|248:304,1,160,2|0
172,304,32346,1,0
96,260,32576,2,0,B|80:80,1,160,2|0
152,48,33269,5,0
240,48,33500,1,0
320,80,33730,2,0,B|360:80|408:64,1,80,2|0
460,128,34192,1,0
460,216,34423,2,0,B|389:262|305:238,1,160,2|0
232,188,35115,5,0
156,144,35346,2,0,B|116:144|60:164,1,80,2|0
40,240,35807,1,0
40,240,35923,1,0
40,240,36038,1,0
164,320,36269,1,2
164,320,36730,5,4
252,332,36961,1,0
275,325,37076,1,0
299,319,37192,1,0
416,280,37423,6,0,B|424:236|416:168,1,80,4|0
412,112,37884,1,0
324,100,38115,2,0,B|240:128|164:92,1,160,2|0
88,56,38807,1,0
56,140,39038,2,0,B|76:308,1,160,2|0
156,336,39730,1,0
284,264,39961,1,2
284,264,40423,6,0,B|324:256|376:256,2,80,0|0|0
200,240,41115,1,2
324,340,41346,1,0
328,180,41576,1,0
240,164,41807,2,0,B|152:180|80:140,1,160,2|0
44,64,42499,1,0
32,200,42730,1,2
68,280,42961,6,0,B|108:292|160:292,1,80
252,296,43423,1,0
252,296,43538,1,0
356,284,43769,1,0
356,284,43884,2,0,B|412:260,3,40
408,240,44346,2,0,B|420:176,3,40
416,156,44807,6,0,B|360:132|292:144,1,119.999996423721,4|0
244,200,45499,2,0,B|182:210|126:186,1,119.999996423721,4|0
76,128,46192,1,0
24,188,46423,2,0,B|44:316,1,119.999996423721,2|0
116,336,47115,1,0
192,328,47346,2,0,B|248:299|308:315,1,119.999996423721,4|0
396,236,48038,1,0
416,336,48269,1,0
396,236,48499,6,0,B|412:176|400:104,1,119.999996423721,0|0
280,48,49192,2,0,B|264:108|276:180,1,119.999996423721,4|0
312,236,49884,1,0
272,304,50115,2,0,B|216:324|144:316,2,119.999996423721,0|2|0
32,224,51499,1,8
72,148,51730,1,8
144,196,51961,5,0
144,196,52076,1,0
144,196,52192,2,0,B|184:188|224:184,1,80,0|2
300,224,52653,2,0,B|340:220|380:212,1,80,8|2
384,336,53115,2,0,B|344:328|304:324,1,80,0|2
228,364,53576,2,0,B|188:360|148:352,1,80,8|2
72,256,54038,6,0,B|60:160,1,80,0|2
152,72,54499,2,0,B|164:168,1,80,8|2
172,180,54846,1,0
196,196,54961,2,0,B|236:200|308:180,1,80,0|2
276,276,55423,2,0,B|315:269|380:231,1,80,8|2
448,116,55884,6,0,B|448:316,1,200,4|0
364,344,57269,5,0
276,336,57499,1,4
196,296,57730,2,0,B|156:288|116:296,1,80
52,236,58192,1,0
52,236,58307,1,0
88,144,58538,5,0
88,144,58653,2,0,B|132:144,1,40
140,196,58884,2,0,B|184:180,1,40
212,224,59115,2,0,B|245:190,1,40
284,224,59346,2,0,B|300:180,1,40
316,148,59576,6,0,B|360:136|408:140,1,87.9999973773957,6|0
464,204,60038,1,4
428,284,60269,2,0,B|384:296|336:292,1,87.9999973773957,2|0
256,320,60730,1,0
172,292,60961,1,4
136,212,61192,6,0,B|120:168|124:124,1,87.9999973773957,2|0
256,48,61653,2,0,B|256:144,1,87.9999973773957,2|4
376,212,62115,2,0,B|392:168|388:124,1,87.9999973773957,2|0
448,40,62576,1,0
448,40,62692,1,0
448,40,62807,2,0,B|400:40|356:56,1,87.9999973773957,6|0
304,120,63269,5,2
220,148,63499,1,0
132,132,63730,1,4
68,72,63961,2,0,B|48:116|52:184,1,87.9999973773957,2|0
203,233,64423,2,0,B|223:189|220:148,1,87.9999973773957,2|4
304,44,64884,6,0,B|408:32,1,87.9999973773957,2|0
304,120,65346,2,0,B|408:108,1,87.9999973773957,2|4
300,196,65807,2,2,B|484:172,1,175.999994754791,2|4
472,260,66499,1,4
424,332,66730,5,0
424,332,66846,1,0
424,332,66961,2,0,B|376:344|324:332,1,87.9999973773957,6|0
256,304,67423,1,4
181,164,67653,2,0,B|188:252,1,87.9999973773957,2|0
320,196,68115,1,0
296,112,68346,1,4
212,84,68576,6,0,B|168:80|108:100,1,87.9999973773957,2|0
60,256,69038,2,0,B|104:260|164:240,1,87.9999973773957,2|4
344,276,69499,2,2,B|272:300|236:257|236:257|220:316|172:344|122:332,1,263.999992132187,2|6
144,244,70423,1,0
88,176,70653,6,0,B|76:132|80:84,1,87.9999973773957,2|0
152,40,71115,1,4
228,80,71346,2,0,B|320:112|400:56,1,175.999994754791,2|2
464,116,72038,1,4
424,196,72269,6,0,B|420:296,1,87.9999973773957,2|0
340,160,72730,2,0,B|336:260,1,87.9999973773957,2|4
256,120,73192,2,0,B|252:220,1,87.9999973773957,2|0
248,316,73653,1,4
248,316,73884,1,4
112,336,74115,5,0
112,336,74230,1,0
112,336,74346,2,0,B|96:296|92:232,1,87.9999973773957,6|0
88,160,74807,1,4
128,80,75038,2,0,B|168:64|244:60,1,87.9999973773957,2|0
300,72,75499,1,0
376,120,75730,1,4
396,208,75961,6,0,B|484:184,1,87.9999973773957,2|0
232,200,76423,2,0,B|316:176,1,87.9999973773957,2|4
124,292,76884,2,2,B|144:260|144:260|132:232|132:232|156:220|156:220|132:180|132:180|160:168|160:168|144:128|144:128|152:76,1,263.999992132187,2|6
68,56,77807,1,0
40,140,78038,6,0,B|28:180|28:236,2,87.9999973773957,2|0|4
156,80,78730,2,0,B|200:80|244:72,1,87.9999973773957,2|0
364,92,79192,1,0
364,92,79307,1,0
364,92,79423,1,4
316,204,79653,6,0,B|272:204|228:196,1,87.9999973773957,2|0
108,216,80115,1,2
108,216,80230,1,0
108,216,80346,1,4
152,332,80576,6,0,B|196:340|240:324,1,87.9999973773957,2|0
352,272,81038,1,4
388,152,81269,1,0
388,152,81730,6,0,B|428:136|476:132,2,87.9999973773957,6|0|4
300,164,82423,2,0,B|284:120|284:64,1,87.9999973773957,2|0
208,32,82884,1,0
128,68,83115,1,4
84,144,83346,6,0,B|100:188|164:228,1,87.9999973773957,2|0
32,248,83807,2,0,B|65:281|140:290,1,87.9999973773957,2|0
24,360,84269,2,0,B|67:376|139:352,1,87.9999973773957,2|0
208,348,84730,1,0
308,300,84961,1,6
256,208,85192,5,0
256,208,85307,1,0
256,208,85423,2,0,B|256:96,1,87.9999973773957,6|0
256,32,85884,1,0
340,120,86115,2,0,B|352:164|340:208,1,87.9999973773957,6|0
172,208,86576,2,0,B|160:164|172:120,1,87.9999973773957,2|0
256,80,87038,5,6
256,312,87500,1,6
256,192,87961,1,12
