osu file format v9

[General]
AudioFilename: 01 - Zutto Be with you ~TV size~.mp3
AudioLeadIn: 1500
PreviewTime: 58393
Countdown: 0
SampleSet: Normal
StackLeniency: 0.7
Mode: 0
LetterboxInBreaks: 0

[Editor]
DistanceSpacing: 1.2
BeatDivisor: 2
GridSize: 4

[Metadata]
Title:Zutto Be with you (TV Size)
Artist:RAMM ni Haiyoru Nyaruko-san
Creator:cRyo[iceeicee]
Version:Easy
Source:Haiyore! Nyaruko-san
Tags:ending Nyarlathotep Nyaruratohotepu Nyaruko Yasaka Mahiro Cthugha Kutugaa Kuko Hastur Hasuta Asumi Kana Kitamura Eri Matsuki Miyu Kugimiya Rie Otsubo Yuka STUDIO MAUSU MONACA DIVEII entertainment XEBEC Fujibayashi Shoko KayeSara

[Difficulty]
HPDrainRate:1
CircleSize:3
OverallDifficulty:1
ApproachRate:2
SliderMultiplier:1.3
SliderTickRate:2

[Events]
//Background and Video events
Video,-500,"video.AVI"
0,0,"c3d133ae83d9e0d680e93ec19b4ee156.jpg"
//Break Periods
//Storyboard Layer 0 (Background)
//Storyboard Layer 1 (Fail)
//Storyboard Layer 2 (Pass)
//Storyboard Layer 3 (Foreground)
//Storyboard Sound Samples
//Background Colour Transformations
3,100,163,162,255

[TimingPoints]
500,461.538461538462,4,1,0,35,1,0
500,-133.333333333333,4,2,1,35,0,0
3153,-133.333333333333,4,2,1,5,0,0
6384,-133.333333333333,4,2,1,45,0,0
8288,-133.333333333333,4,1,1,45,0,0
8403,-133.333333333333,4,2,1,45,0,0
9211,-133.333333333333,4,1,1,45,0,0
9326,-133.333333333333,4,2,1,45,0,0
10134,-133.333333333333,4,1,1,45,0,0
10250,-133.333333333333,4,2,1,45,0,0
11057,-133.333333333333,4,1,1,45,0,0
11173,-133.333333333333,4,2,1,45,0,0
11980,-133.333333333333,4,1,0,45,0,0
12096,-133.333333333333,4,2,1,45,0,0
12903,-133.333333333333,4,1,1,45,0,0
13019,-133.333333333333,4,2,1,45,0,0
13826,-133.333333333333,4,1,1,45,0,0
13942,-133.333333333333,4,2,1,45,0,0
14519,-100,4,1,1,45,0,0
15038,-100,4,1,2,40,0,0
15384,-100,4,1,1,40,0,0
29923,-100,4,1,2,40,0,0
30153,-100,4,2,1,50,0,0
30442,-100,4,1,2,40,0,0
30557,-100,4,2,1,50,0,0
31365,-100,4,1,2,40,0,0
31480,-100,4,2,1,50,0,0
32288,-100,4,1,2,40,0,0
32403,-100,4,2,1,50,0,0
33211,-100,4,1,2,40,0,0
33326,-100,4,2,1,50,0,0
34134,-100,4,1,2,40,0,0
36096,-100,4,2,1,50,0,0
36615,-100,4,2,1,40,0,0
36903,-100,4,1,1,30,0,0
37307,-100,4,1,2,40,0,0
37538,-100,4,2,1,50,0,0
37826,-100,4,1,2,40,0,0
37942,-100,4,2,1,50,0,0
38750,-100,4,1,2,40,0,0
38865,-100,4,2,1,50,0,0
39673,-100,4,1,2,40,0,0
39788,-100,4,2,1,50,0,0
40596,-100,4,1,2,40,0,0
40711,-100,4,2,1,50,0,0
41980,-100,4,1,2,40,0,0
42096,-100,4,2,1,50,0,0
42903,-133.333333333333,4,1,2,40,0,0
44750,-133.333333333333,4,1,2,35,0,0
44865,-133.333333333333,4,2,1,45,0,0
46134,-133.333333333333,4,1,2,45,0,0
46480,-133.333333333333,4,2,1,45,0,0
47346,-133.333333333333,4,1,1,45,0,0
47980,-133.333333333333,4,1,2,45,0,0
49076,-133.333333333333,4,2,1,35,0,0
49826,-133.333333333333,4,1,2,45,0,0
50461,-133.333333333333,4,2,1,45,0,0
50692,-133.333333333333,4,1,1,45,0,0
51500,-100,4,1,1,40,0,0
57500,-100,4,1,2,45,0,0
58423,-133.333333333333,4,2,1,45,0,0
59519,-100,4,1,2,45,0,0
59634,-100,4,1,1,45,0,0
66903,-100,4,1,2,45,0,0
67307,-100,4,1,1,45,0,0
74288,-100,4,1,2,45,0,0
74461,-100,4,1,1,45,0,0
81673,-100,4,1,2,45,0,0
81846,-100,4,1,1,45,0,0
85365,-100,4,1,2,45,0,0
85480,-100,4,1,1,45,0,0
87961,-100,4,1,2,45,0,0

[Colours]
Combo1 : 0,240,61
Combo2 : 255,70,163
Combo3 : 255,53,53

[HitObjects]
104,104,500,2,0,B|48:100|17:165|56:205,2,146.24999564141,2|2|0
160,124,2115,2,0,B|240:140|272:92|356:104,1,194.999994188547,2|0
256,192,3269,12,0,6269
160,76,7884,6,0,B|272:64,1,97.4999970942737,2|0
348,140,8807,2,0,B|251:150,1,97.4999970942737
180,244,9730,6,0,B|292:232,1,97.4999970942737,0|0
368,308,10653,2,0,B|271:318,1,97.4999970942737
156,324,11576,6,0,B|104:328|52:296,1,97.4999970942737,0|0
60,184,12500,2,0,B|101:158|153:162,1,97.4999970942737,0|0
256,108,13423,6,0,B|303:128|328:171,1,97.4999970942737,0|0
256,332,14576,2,0,B|256:264,1,65
188,176,15269,6,0,B|108:188|64:128|64:128|-4:156,2,195,6|6|0
220,128,16884,2,0,B|280:104|356:120,1,130,6|0
432,200,17807,2,0,B|496:156,2,65,6|2|0
388,236,18500,1,6
304,320,18961,6,0,B|224:320|224:320|184:296|184:296|96:296,1,195,2|6
36,212,20115,1,0
72,100,20576,2,0,B|136:120|212:80,1,130,6|0
312,56,21500,2,0,B|376:96|376:176|312:216,1,195,6|6
268,328,22653,6,0,B|344:328|344:328|448:272,1,195,2|6
456,156,23807,1,0
340,140,24269,2,0,B|268:152|204:112,1,130,6|0
100,100,25192,2,0,B|68:32,2,65,6|2|0
120,156,25884,1,6
164,264,26346,6,0,B|108:317|21:276|29:201,2,195,2|6|0
208,228,27961,2,0,B|268:212|337:231,1,130,6|0
452,252,28884,2,0,B|475:191,1,65,6|2
424,160,29346,2,0,B|447:99,1,65,0|6
336,60,30038,6,0,B|284:100|208:80,1,130,4|0
100,120,30961,2,0,B|60:172|78:243,1,130,0|0
144,340,31884,1,0
256,376,32346,1,0
368,340,32807,1,0
433,243,33269,6,0,B|452:172|412:120,1,130
308,64,34192,1,0
256,292,35115,1,0
44,192,36038,1,0
220,192,36730,2,0,B|284:192,2,65,4|0|0
168,220,37423,6,0,B|160:288|184:348,1,130,4|0
300,344,38346,2,0,B|360:320|428:328,1,130
488,228,39269,2,0,B|500:164|474:98,1,130
368,48,40192,1,0
256,76,40653,1,0
144,108,41115,6,0,B|123:190|178:243|253:251|303:182,2,260,2|0|0
256,312,43884,1,0
400,128,44807,6,0,B|456:124|487:189|448:229,2,146.24999564141,4|4|0
344,116,46423,2,0,B|244:100,2,97.4999970942737,0|2|0
256,268,48038,1,0
156,328,48500,6,0,B|117:369|50:342|52:286,2,146.24999564141,0|4|0
172,272,50116,2,0,B|188:160,2,97.4999970942737,0|2|0
344,308,51730,6,0,B|406:337|470:301,2,130,8|0|8
308,196,53115,2,0,B|272:132|301:70,1,130,0|8
416,36,54038,5,0
480,136,54500,1,8
480,248,54961,1,0
416,348,55423,1,8
256,192,55884,12,4,57500
76,80,58653,6,0,B|96:184,1,97.4999970942737,2|4
132,288,59576,6,0,B|193:331|267:300|279:225,1,195,6|2
316,116,60730,2,0,B|400:140,1,65,0|0
436,148,61192,2,0,B|492:96|448:4,2,130,2|6|2
408,260,62576,2,0,B|484:272,2,65,0|6|0
352,284,63269,6,0,B|290:327|216:296|204:221,1,195,2|2
312,172,64423,1,2
268,64,64884,2,0,B|144:96,1,130,2|6
28,124,65807,2,0,B|-24:177|-4:255|67:279,1,195,2|4
200,288,66961,6,0,B|259:308|337:252|339:186,1,195,6|2
256,108,68115,1,0
169,174,68576,2,0,B|128:108|168:44,2,130,2|6|2
112,276,69961,2,0,B|32:248,2,65,2|6|0
164,308,70653,6,0,B|228:312|256:336|256:336|284:312|348:308,1,195,2|2
448,244,71807,1,2
448,128,72269,2,0,B|436:77|394:53|348:67,2,130,2|6|2
344,176,73653,2,0,B|312:236,1,65,4|4
256,336,74346,6,0,B|188:358|127:324,1,130,6|0
108,272,75038,2,0,B|92:132,1,130,2|0
96,84,75730,1,0
144,52,75961,2,0,B|204:24|296:32,2,130,2|6|2
228,132,77346,2,0,B|300:128,2,65,0|6|0
176,160,78038,6,0,B|133:227|194:300|268:270,1,195,2|2
368,208,79192,1,0
464,144,79653,2,0,B|477:95|452:54|405:45,2,130,2|6|2
420,252,81038,2,0,B|340:292,1,65,4|4
252,324,81730,6,0,B|194:374|114:336|116:258,1,195,6|2
52,160,82884,1,0
152,100,83346,2,0,B|143:53|102:28|53:41,2,130,2|6|2
256,156,84730,2,0,B|256:84,2,65,0|6|0
252,216,85423,6,0,B|208:272|128:252,1,130,6|0
92,216,86115,2,0,B|75:87,1,130,6|2
188,68,87038,5,6
256,164,87500,1,6
324,68,87961,1,12
