osu file format v12

[General]
AudioFilename: SOS.mp3
AudioLeadIn: 1750
PreviewTime: 45502
Countdown: 0
SampleSet: Soft
StackLeniency: 0.7
Mode: 0
LetterboxInBreaks: 0

[Editor]
Bookmarks: 502
DistanceSpacing: 0.8
BeatDivisor: 4
GridSize: 4

[Metadata]
Title:Yotte S.O.S (TV Size)
TitleUnicode:よってS.O.S (TV Size)
Artist:RAMM ni Haiyoru Nyaruko-san
ArtistUnicode:RAMMに這いよるニャル子さん
Creator:Sekai-nyan
Version:Normal
Source:Haiyore! Nyaruko-san W
Tags:Ending Sekai Darksonic ReySHeL Xebec 這いよれ!ニャル子さん
BeatmapID:241845
BeatmapSetID:88835

[Difficulty]
HPDrainRate:4
CircleSize:4
OverallDifficulty:4
ApproachRate:5
SliderMultiplier:1.2
SliderTickRate:1

[Events]
//Background and Video events
0,0,"BG.jpg",0,0
Video,-450,"moe.avi"
//Break Periods
//Storyboard Layer 0 (Background)
//Storyboard Layer 1 (Fail)
//Storyboard Layer 2 (Pass)
//Storyboard Layer 3 (Foreground)
//Storyboard Sound Samples
//Background Colour Transformations
3,100,163,162,255

[TimingPoints]
528,468.75,4,2,1,70,1,0
4746,-100,4,2,3,70,0,0
4863,-100,4,2,1,70,0,0
12246,-100,4,2,3,70,0,0
12363,-100,4,2,1,70,0,0
14121,-100,4,2,3,70,0,0
14238,-100,4,2,1,70,0,0
15996,-100,4,2,3,70,0,0
16113,-100,4,2,1,70,0,0
23496,-100,4,2,3,70,0,0
23613,-100,4,2,1,70,0,0
36621,-100,4,2,3,70,0,0
36738,-100,4,2,1,70,0,0
45528,-100,4,2,2,70,0,1
58418,-100,4,2,1,70,0,0
60528,-100,4,2,2,70,0,1
73418,-100,4,2,1,70,0,0
87246,-100,4,2,1,50,0,0
87715,-100,4,2,1,30,0,0
88184,-100,4,2,1,10,0,0

[Colours]
Combo1 : 167,170,201
Combo2 : 238,225,245
Combo3 : 182,238,213
Combo4 : 253,209,206
Combo5 : 63,146,118
SliderBorder : 255,255,255

[HitObjects]
120,312,528,2,0,P|100:252|124:196,1,120,2|8,0:0|0:0,0:0:0:0:
200,148,1465,2,0,P|152:108|80:120,2,120,2|8|2,0:0|0:0|0:0,0:0:0:0:
256,228,2871,1,8,0:0:0:0:
312,304,3340,2,0,P|348:248|332:180,1,120,2|8,0:0|0:0,0:0:0:0:
408,128,4278,6,0,B|344:84|280:136|280:136|212:148|186:92,1,240,2|2,0:0|0:0,0:0:0:0:
100,56,5684,1,8,0:0:0:0:
64,144,6153,2,0,P|40:192|68:260,1,120,2|8,0:0|0:0,0:0:0:0:
128,320,7090,2,0,L|184:356,2,60,2|8|8,0:0|0:0|0:0,0:0:0:0:
192,248,8028,5,4,0:0:0:0:
272,192,8496,2,0,P|328:212|384:184,1,120,8|2,0:0|0:0,0:0:0:0:
460,136,9434,1,8,0:0:0:0:
376,92,9903,2,0,P|323:67|267:87,1,120,2|8,0:0|0:0,0:0:0:0:
172,68,10840,1,2,0:0:0:0:
76,80,11309,1,8,0:0:0:0:
48,172,11778,6,0,P|42:237|124:168,1,240,0|2,0:0|0:0,0:0:0:0:
224,148,13184,1,8,0:0:0:0:
320,140,13653,2,0,P|314:74|396:143,1,240,2|2,0:0|0:0,0:0:0:0:
444,156,14824,1,8,0:0:0:0:
464,208,15059,2,0,P|480:244|472:272,1,60,8|8,0:0|0:0,0:0:0:0:
448,300,15528,6,0,B|410:313|336:349|377:395|415:394|434:383|448:336|403:324|362:336|309:353,1,240,4|2,0:0|0:0,0:0:0:0:
252,284,16934,1,8,0:0:0:0:
160,316,17403,2,0,P|112:336|32:320,2,120,2|8|2,0:0|0:0|0:0,0:0:0:0:
252,284,18809,1,8,0:0:0:0:
296,200,19278,6,0,P|344:180|410:188,2,120,2|8|2,0:0|0:0|0:0,0:0:0:0:
224,136,20684,1,8,0:0:0:0:
152,72,21153,1,2,0:0:0:0:
84,136,21621,1,8,0:0:0:0:
152,204,22090,1,2,0:0:0:0:
188,172,22324,1,8,0:0:0:0:
224,136,22559,1,8,0:0:0:0:
296,72,23028,6,0,P|356:44|360:176,1,240,4|2,0:0|0:0,0:0:0:0:
452,236,24434,1,8,0:0:0:0:
416,268,24668,1,0,0:0:0:0:
384,304,24903,2,0,B|328:336|328:336|268:300,1,120,2|8,0:0|0:0,0:0:0:0:
256,220,25840,1,2,0:0:0:0:
176,272,26309,1,8,0:0:0:0:
96,220,26778,6,0,P|80:168|108:104,1,120,2|8,0:0|0:0,0:0:0:0:
148,92,27481,2,0,P|196:116|268:101,1,120,2|0,0:0|0:0,0:0:0:0:
336,48,28418,1,4,0:0:0:0:
408,112,28887,1,4,0:0:0:0:
352,188,29356,1,4,0:0:0:0:
272,244,29824,1,4,0:0:0:0:
272,292,30059,1,12,0:0:0:0:
364,324,30528,6,0,P|420:352|492:328,2,120,4|8|2,0:0|0:0|0:0,0:0:0:0:
272,344,31934,1,8,0:0:0:0:
272,344,32168,2,0,P|212:312|161:316,1,120,4|0,0:0|0:0,0:0:0:0:
116,336,32871,1,8,0:0:0:0:
76,308,33106,2,0,P|44:256|84:144,1,180,0|8,0:0|0:0,0:0:0:0:
152,88,34278,5,4,0:0:0:0:
236,40,34746,1,8,0:0:0:0:
288,120,35215,1,2,0:0:0:0:
208,176,35684,1,8,0:0:0:0:
208,176,35918,2,0,P|256:220|380:139,1,240,4|0,0:0|0:0,0:0:0:0:
404,96,37090,2,0,P|412:68|434:47,1,60,2|0,0:0|0:0,0:0:0:0:
476,28,37558,1,8,0:0:0:0:
500,120,38028,5,4,0:0:0:0:
440,196,38496,1,8,0:0:0:0:
492,276,38965,1,2,0:0:0:0:
412,332,39434,1,8,0:0:0:0:
368,352,39668,2,0,P|308:332|256:349,1,120,4|0,0:0|0:0,0:0:0:0:
212,364,40371,5,8,0:0:0:0:
164,356,40606,2,0,L|100:380,2,60,0|0|8,0:0|0:0|0:0,0:0:0:0:
164,308,41309,2,0,P|176:256|156:192,1,120,8|4,0:0|0:0,0:0:0:0:
124,104,42246,5,8,0:0:0:0:
200,44,42715,1,0,0:0:0:0:
244,128,43184,1,8,0:0:0:0:
244,128,43418,1,4,0:0:0:0:
328,176,43887,1,4,0:0:0:0:
372,92,44356,1,4,0:0:0:0:
288,44,44824,1,4,0:0:0:0:
288,44,45059,1,0,1:0:0:0:
248,132,45528,6,0,P|200:160|124:144,1,120,4|8,0:0|0:0,0:0:0:0:
64,92,46465,1,0,0:0:0:0:
44,184,46934,2,0,P|28:244|56:300,1,120,8|0,0:0|0:0,0:0:0:0:
140,328,47871,1,8,0:0:0:0:
188,328,48106,2,0,P|240:308|295:333,1,120,0|0,0:0|0:0,0:0:0:0:
340,348,48808,1,8,0:0:0:0:
420,296,49278,5,4,0:0:0:0:
468,212,49746,1,8,0:0:0:0:
456,116,50215,2,0,P|400:100|376:32,1,120,0|8,0:0|0:0,0:0:0:0:
280,24,51153,2,0,P|244:48|220:52,1,60
180,48,51621,2,0,P|140:44|112:56,1,60,8|0,0:0|0:0,0:0:0:0:
84,80,52090,2,0,P|92:140|60:192,1,120,0|8,0:0|0:0,0:0:0:0:
56,284,53028,5,4,0:0:0:0:
144,324,53496,2,0,P|208:336|260:300,1,120,8|0,0:0|0:0,0:0:0:0:
312,232,54434,2,0,P|248:220|196:256,1,120,8|0,0:0|0:0,0:0:0:0:
144,168,55371,1,8,0:0:0:0:
164,124,55606,1,0,0:0:0:0:
208,100,55840,1,0,0:0:0:0:
272,28,56309,1,8,0:0:0:0:
328,104,56778,6,0,P|376:140|448:128,1,120,0|8,0:0|0:0,0:0:0:0:
508,196,57715,1,0,0:0:0:0:
452,272,58184,1,8,0:0:0:0:
412,232,58418,1,4,0:0:0:0:
304,220,58887,5,0,0:0:0:0:
304,220,59121,2,0,P|248:200|180:236,1,120,8|0,0:0|0:0,0:0:0:0:
148,248,59824,1,4,0:0:0:0:
100,260,60059,2,0,P|48:280|-12:248,1,120,12|4,0:0|0:0,0:0:0:0:
52,180,60996,5,8,0:0:0:0:
92,92,61465,2,0,B|156:108|160:72|224:80,1,120,0|8,0:0|0:0,0:0:0:0:
284,16,62403,1,0,0:0:0:0:
356,80,62871,2,0,P|392:112|476:112,2,120,8|0|8,0:0|0:0|0:0,0:0:0:0:
268,116,64278,5,0,0:0:0:0:
320,196,64746,1,8,0:0:0:0:
256,268,65215,2,0,P|236:316|272:376,2,120,0|8|0,0:0|0:0|0:0,0:0:0:0:
192,196,66621,2,0,P|164:184|120:188,1,60,8|0,0:0|0:0,0:0:0:0:
88,172,67090,2,0,P|44:132|60:64,1,120,0|8,0:0|0:0,0:0:0:0:
128,20,68028,5,4,0:0:0:0:
212,68,68496,1,8,0:0:0:0:
288,12,68965,1,0,0:0:0:0:
372,48,69434,1,8,0:0:0:0:
408,88,69668,1,0,0:0:0:0:
416,140,69903,2,0,P|404:200|444:264,2,120,0|8|0,0:0|0:0|0:0,0:0:0:0:
372,48,71309,1,8,0:0:0:0:
312,124,71778,6,0,P|248:116|192:144,1,120,0|8,0:0|0:0,0:0:0:0:
144,216,72715,2,0,P|208:224|264:196,1,120,0|8,0:0|0:0,0:0:0:0:
304,196,73418,1,4,0:0:0:0:
348,212,73653,5,2,0:0:0:0:
416,280,74121,1,0,0:0:0:0:
344,344,74590,1,2,0:0:0:0:
304,316,74824,1,8,0:0:0:0:
272,280,75059,1,8,0:0:0:0:
176,288,75528,6,0,P|128:312|48:288,2,120,4|8|2,0:0|0:0|0:0,0:0:0:0:
180,192,76934,1,8,0:0:0:0:
240,116,77403,2,0,P|288:92|368:116,2,120,2|8|2,0:0|0:0|0:0,0:0:0:0:
144,108,78809,1,8,0:0:0:0:
84,184,79278,6,0,P|68:248|104:304,1,120,2|8,0:0|0:0,0:0:0:0:
148,372,80215,1,2,0:0:0:0:
208,296,80684,2,0,P|231:250|215:186,1,120,8|2,0:0|0:0,0:0:0:0:
296,132,81621,2,0,P|328:128|360:104,1,60,8|0,0:0|0:0,0:0:0:0:
400,108,82090,2,0,P|440:104|472:120,1,60,2|8,0:0|0:0,0:0:0:0:
480,152,82559,2,0,P|468:216|504:272,1,120,8|4,0:0|0:0,0:0:0:0:
416,324,83496,5,2,0:0:0:0:
340,268,83965,1,0,0:0:0:0:
272,336,84434,1,2,0:0:0:0:
228,320,84668,2,0,P|200:272|212:200,1,120,0|0,0:0|0:0,0:0:0:0:
192,116,85606,2,0,L|132:92,1,60,0|0,0:0|0:0,0:0:0:0:
56,144,86309,1,2,0:0:0:0:
256,192,86778,12,0,88653,0:0:0:0:
