osu file format v13

[General]
AudioFilename: Wonder Nanda Kataomoi.mp3
AudioLeadIn: 3000
PreviewTime: 61862
Countdown: 0
SampleSet: Soft
StackLeniency: 0.7
Mode: 0
LetterboxInBreaks: 1
WidescreenStoryboard: 1

[Editor]
DistanceSpacing: 1.2
BeatDivisor: 4
GridSize: 8
TimelineZoom: 1

[Metadata]
Title:Wonder Nanda? Kataomoi
TitleUnicode:Wonder Nanda? Kataomoi
Artist:RAMM ni Haiyoru Nyaruko-san
ArtistUnicode:RAMM ni Haiyoru Nyaruko-san
Creator:Miki
Version:Hard
Source:Haiyore! Nyaruko-san W
Tags:ed 2
BeatmapID:343957
BeatmapSetID:101054

[Difficulty]
HPDrainRate:7
CircleSize:4
OverallDifficulty:7
ApproachRate:8
SliderMultiplier:1.5
SliderTickRate:1

[Events]
//Background and Video events
0,0,"Konachan.com - 160139 sample.jpg",0,0
//Break Periods
//Storyboard Layer 0 (Background)
//Storyboard Layer 1 (Fail)
//Storyboard Layer 2 (Pass)
//Storyboard Layer 3 (Foreground)
//Storyboard Sound Samples
//Background Colour Transformations
3,100,163,162,255

[TimingPoints]
612.578293420319,333.333333333333,4,2,0,80,1,0
6279,-200,4,2,1,80,0,0
11279,-100,4,2,2,80,0,0
16445,-100,4,3,0,50,0,0
16529,-100,4,2,2,80,0,0
17945,-100,4,2,1,80,0,0
27279,-200,4,2,1,60,0,0
27362,-200,4,2,1,40,0,0
28445,-100,4,2,1,50,0,0
28612,-100,4,2,1,80,0,0
49279,-100,4,2,2,80,0,0
49945,-200,4,2,1,80,0,0
55112,-100,4,2,2,80,0,0
55279,-100,4,3,0,50,0,0
55362,-100,4,2,2,80,0,0
56445,-100,4,3,0,50,0,0
56695,-100,4,2,2,80,0,0
57779,-100,4,3,1,50,0,0
57862,-100,4,2,2,80,0,0
57945,-100,4,3,1,50,0,0
58029,-100,4,2,2,80,0,0
58445,-100,4,3,1,50,0,0
58529,-100,4,2,2,80,0,0
58612,-100,4,3,1,50,0,0
58695,-100,4,2,2,80,0,0
59112,-100,4,3,1,50,0,0
59195,-100,4,2,2,80,0,0
61945,-100,4,2,1,80,0,1
77945,-100,4,3,2,50,0,0
78029,-100,4,2,1,80,0,0
79112,-100,4,3,1,50,0,0
79362,-100,4,2,1,80,0,0
80445,-100,4,3,1,50,0,0
80695,-100,4,2,1,80,0,0
81112,-100,4,3,1,50,0,0
81362,-100,4,2,1,80,0,0
81779,-100,4,3,1,50,0,0
82112,-100,4,2,1,80,0,0
82612,-100,4,3,1,50,0,0
82695,-100,4,2,1,80,0,0
83612,-100,4,2,2,70,0,0
85945,-100,4,2,2,80,0,0
86279,-100,4,3,1,50,0,0
86362,-100,4,2,2,80,0,0
86945,-100,4,3,1,50,0,0
87029,-100,4,2,2,80,0,0
87279,-100,4,2,2,80,0,0
88612,-100,4,2,2,40,0,0
88945,-100,4,2,2,20,0,0
89279,-100,4,2,2,10,0,0

[Colours]
Combo1 : 235,243,82
Combo2 : 169,182,181
Combo3 : 255,9,70

[HitObjects]
256,192,612,12,4,5945,0:0:0:0:
112,176,6279,5,0,0:0:0:0:
112,176,6445,2,0,P|152:184|200:184,1,80,2|0,0:0|0:0,0:0:0:0:
264,144,6945,2,0,L|312:128,1,40,0|2,0:0|0:0,0:0:0:0:
400,72,7445,1,0,0:0:0:0:
464,160,7779,2,0,P|456:216|456:272,1,112.5,2|0,0:0|0:0,0:0:0:0:
352,328,8612,6,0,P|312:328|272:320,1,75,2|0,0:0|0:0,0:0:0:0:
192,336,9112,2,0,P|160:312|128:296,3,75,2|0|2|0,0:0|0:0|0:0|0:0,0:0:0:0:
59,253,10279,1,0,0:0:0:0:
96,178,10445,2,0,P|184:144|152:64,1,187.5,2|8,0:0|0:0,0:0:0:0:
456,80,11612,5,8,0:0:0:0:
352,184,11779,2,0,P|360:152|376:112,2,75,0|8|0,0:0|0:0|0:0,0:0:0:0:
416,248,12279,1,8,0:0:0:0:
368,320,12445,1,0,0:0:0:0:
280,328,12612,2,0,L|192:304,1,75,8|0,0:0|0:0,0:0:0:0:
128,272,12945,2,0,L|48:280,2,75,8|0|8,0:0|0:0|0:0,0:0:0:0:
184,200,13445,1,0,0:0:0:0:
207,308,13612,1,8,0:0:0:0:
368,320,13779,5,0,0:0:0:0:
416,248,13945,2,0,P|424:168|416:96,2,150,8|8|8,0:0|0:0|0:0,0:0:0:0:
368,320,14779,1,0,0:0:0:0:
288,296,14945,2,0,P|254:275|208:264,1,75,8|0,0:0|0:0,0:0:0:0:
141,295,15279,2,0,P|93:286|45:263,2,75,8|8|8,0:0|0:0|0:0,0:0:0:0:
220,265,15779,1,0,0:0:0:0:
256,192,15945,5,8,0:0:0:0:
200,128,16112,1,8,0:0:0:0:
336,32,16279,1,8,0:0:0:0:
256,64,16445,1,4,0:0:0:0:
336,32,16612,2,0,L|376:56,12,37.5,0|0|0|0|0|0|0|0|0|0|0|0|4,0:0|0:0|0:0|0:0|0:0|0:0|0:0|0:0|0:0|0:0|0:0|0:0|0:0,0:0:0:0:
80,56,17945,6,0,P|72:120|80:208,1,150,6|8,0:0|0:0,0:0:0:0:
152,248,18445,2,0,P|176:224|200:184,2,75,0|2|0,0:0|0:0|0:0,0:0:0:0:
96,312,18945,1,8,0:0:0:0:
168,352,19112,1,0,0:0:0:0:
248,336,19279,2,0,P|283:314|328:304,1,75,2|0,0:0|0:0,0:0:0:0:
440,240,19612,2,0,P|400:232|344:240,1,75,8|0,0:0|0:0,0:0:0:0:
232,168,19945,2,0,P|272:176|328:168,2,75,2|0|8,0:0|0:0|0:0,0:0:0:0:
152,128,20445,5,0,0:0:0:0:
120,131,20529,1,0,0:0:0:0:
96,136,20612,2,0,L|64:216,1,75,2|0,0:0|0:0,0:0:0:0:
112,280,20945,2,0,L|184:216,2,75,8|0|2,0:0|0:0|0:0,0:0:0:0:
56,344,21445,1,0,0:0:0:0:
112,280,21612,1,8,0:0:0:0:
56,344,21779,1,0,0:0:0:0:
184,328,21945,6,0,L|280:344,1,75,2|0,0:0|0:0,0:0:0:0:
341,313,22279,2,0,P|381:289|429:281,1,75,8|0,0:0|0:0,0:0:0:0:
472,224,22612,2,0,L|464:144,1,75,2|0,0:0|0:0,0:0:0:0:
408,88,22945,1,8,0:0:0:0:
248,32,23112,5,0,0:0:0:0:
248,32,23195,1,0,0:0:0:0:
248,32,23279,2,0,P|256:104|256:192,1,150,6|8,0:0|0:0,0:0:0:0:
200,248,23779,1,0,0:0:0:0:
172,167,23945,1,2,0:0:0:0:
96,126,24112,2,0,P|64:150|24:158,2,75,0|8|0,0:0|0:0|0:0,0:0:0:0:
172,167,24612,6,0,L|280:152,1,75,2|0,0:0|0:0,0:0:0:0:
400,184,24945,2,0,L|304:144,2,75,8|0|2,0:0|0:0|0:0,0:0:0:0:
464,248,25445,1,0,0:0:0:0:
456,280,25529,1,0,0:0:0:0:
448,304,25612,2,0,P|408:304|360:320,1,75,8|0,0:0|0:0,0:0:0:0:
297,352,25945,1,2,0:0:0:0:
220,311,26112,2,0,L|140:271,1,75,0|8,0:0|0:0,0:0:0:0:
68,295,26445,2,0,P|60:223|92:151,2,150,8|8|8,0:0|0:0|0:0,0:0:0:0:
156,312,27279,6,0,L|200:296,1,37.5,4|8,0:0|0:0,0:0:0:0:
280,312,27612,2,0,L|320:296,1,37.5,0|8,0:0|0:0,0:0:0:0:
368,224,27945,1,0,0:0:0:0:
312,152,28112,2,0,L|320:128,2,18.75,8|8|0,0:0|0:0|0:0,0:0:0:0:
232,192,28445,6,0,L|136:200,1,75,0|4,0:0|0:0,0:0:0:0:
72,208,28779,1,0,0:0:0:0:
48,64,28945,2,0,L|40:24,2,37.5,8|0|0,0:0|0:0|0:0,0:0:0:0:
136,56,29279,2,0,P|176:56|232:40,1,75,2|0,0:0|0:0,0:0:0:0:
296,72,29612,2,0,L|352:48,2,37.5,8|0|0,0:0|0:0|0:0,0:0:0:0:
232,192,29945,2,0,L|208:280,1,75,2|0,0:0|0:0,0:0:0:0:
248,344,30279,2,0,L|352:336,1,75,8|0,0:0|0:0,0:0:0:0:
408,312,30612,1,2,0:0:0:0:
408,312,30695,1,0,0:0:0:0:
408,312,30779,2,0,P|439:285|480:272,1,75,0|8,0:0|0:0,0:0:0:0:
232,72,31279,6,0,P|224:104|232:152,2,75,2|0|8,0:0|0:0|0:0,0:0:0:0:
312,32,31779,1,0,0:0:0:0:
376,88,31945,1,2,0:0:0:0:
464,88,32112,2,0,L|480:128,2,37.5,0|0|8,0:0|0:0|0:0,0:0:0:0:
376,88,32445,1,0,0:0:0:0:
264,184,32612,2,0,P|256:240|248:352,2,150,4|0|8,0:0|0:0|0:0,0:0:0:0:
192,136,33445,2,0,L|144:152,2,37.5,0|8|0,0:0|0:0|0:0,0:0:0:0:
360,304,33945,6,0,L|376:200,1,75,4|0,0:0|0:0,0:0:0:0:
304,176,34279,2,0,P|296:136|303:95,1,75,8|0,0:0|0:0,0:0:0:0:
366,48,34612,1,2,0:0:0:0:
451,62,34779,2,0,L|490:110,2,37.5,0|0|8,0:0|0:0|0:0,0:0:0:0:
366,48,35112,1,0,0:0:0:0:
432,184,35279,5,2,0:0:0:0:
347,208,35445,2,0,P|307:224|261:224,1,75,0|8,0:0|0:0,0:0:0:0:
192,256,35779,1,0,0:0:0:0:
176,288,35862,1,0,0:0:0:0:
160,320,35945,1,2,0:0:0:0:
240,352,36112,2,0,L|320:336,1,75,0|8,0:0|0:0,0:0:0:0:
80,64,36612,5,2,0:0:0:0:
144,120,36779,2,0,L|192:104,2,37.5,0|0|8,0:0|0:0|0:0,0:0:0:0:
96,192,37112,1,0,0:0:0:0:
168,240,37279,2,0,P|192:280|224:304,1,75,2|0,0:0|0:0,0:0:0:0:
300,292,37612,2,0,L|324:228,2,37.5,8|0|0,0:0|0:0|0:0,0:0:0:0:
376,328,37945,2,0,P|416:256|440:184,1,150,2|8,0:0|0:0,0:0:0:0:
400,112,38445,1,0,0:0:0:0:
400,112,38529,1,0,0:0:0:0:
400,112,38612,2,0,P|328:144|280:80,2,150,2|0|4,0:0|0:0|0:0,0:0:0:0:
348,47,39445,5,0,0:0:0:0:
282,101,39612,1,8,0:0:0:0:
200,72,39779,2,0,P|168:56|104:48,1,75,0|2,0:0|0:0,0:0:0:0:
32,152,40112,2,0,P|64:168|128:176,2,75,0|8|0,0:0|0:0|0:0,0:0:0:0:
48,68,40612,5,2,0:0:0:0:
129,47,40779,1,0,0:0:0:0:
282,101,40945,1,8,0:0:0:0:
216,160,41112,2,0,L|152:168,2,37.5,0|0|2,0:0|0:0|0:0,0:0:0:0:
288,208,41445,2,0,P|296:248|320:288,1,75,0|8,0:0|0:0,0:0:0:0:
64,320,41945,6,0,L|88:224,1,75,2|0,0:0|0:0,0:0:0:0:
48,168,42279,1,8,0:0:0:0:
56,136,42362,1,0,0:0:0:0:
64,112,42445,2,0,P|104:96|136:56,1,75,0|2,0:0|0:0,0:0:0:0:
200,32,42779,1,0,0:0:0:0:
272,80,42945,2,0,L|280:128,2,37.5,8|0|0,0:0|0:0|0:0,0:0:0:0:
392,208,43279,2,0,P|424:264|376:328,3,150,2|0|2|0,0:0|0:0|0:0|0:0,0:0:0:0:
88,48,44612,6,0,P|104:88|104:136,1,75,4|0,0:0|0:0,0:0:0:0:
48,184,44945,1,8,0:0:0:0:
88,264,45112,2,0,L|40:280,2,37.5,0|0|2,0:0|0:0|0:0,0:0:0:0:
168,288,45445,2,0,L|248:280,2,75,0|8|0,0:0|0:0|0:0,0:0:0:0:
48,184,45945,5,2,0:0:0:0:
106,119,46112,1,0,0:0:0:0:
48,184,46279,1,8,0:0:0:0:
192,136,46445,1,0,0:0:0:0:
192,136,46529,1,0,0:0:0:0:
192,136,46612,2,0,L|288:128,1,75,2|0,0:0|0:0,0:0:0:0:
344,96,46945,1,8,0:0:0:0:
320,336,47279,5,8,0:0:0:0:
320,336,47445,2,8,P|400:320|480:288,1,150
384,160,48112,2,0,P|312:168|240:200,2,150,8|8|8,0:0|0:0|0:0,0:0:0:0:
432,88,48945,2,0,L|368:24,1,75,8|0,0:0|0:0,0:0:0:0:
296,64,49279,2,0,L|208:48,1,75,8|0,0:0|0:0,0:0:0:0:
144,88,49612,2,0,L|56:40,2,75,8|0|4,0:0|0:0|0:0,0:0:0:0:
201,347,50279,6,0,P|174:344|150:347,1,37.5,0|2,0:0|0:0,0:0:0:0:
44,327,50779,2,0,P|36:271|44:215,1,112.5,0|2,0:0|0:0,0:0:0:0:
140,147,51612,2,0,P|159:160|184:166,1,37.5,0|0,0:0|0:0,0:0:0:0:
229,262,52112,2,0,P|253:254|280:251,1,37.5,0|0,0:0|0:0,0:0:0:0:
387,253,52612,2,0,P|427:245|467:229,1,75,2|0,0:0|0:0,0:0:0:0:
473,148,53112,2,0,P|441:116|425:76,3,75,2|0|2|0,0:0|0:0|0:0|0:0,0:0:0:0:
361,36,54279,1,0,0:0:0:0:
428,89,54445,1,2,0:0:0:0:
80,64,55112,6,0,L|64:152,1,75,0|4,0:0|0:0,0:0:0:0:
120,208,55445,1,0,0:0:0:0:
64,272,55612,1,0,0:0:0:0:
128,328,55779,2,0,P|200:336|296:328,2,150,2|2|4,0:0|0:0|0:0,0:0:0:0:
64,272,56612,1,4,0:0:0:0:
120,208,56779,2,0,P|168:184|192:152,1,75
266,196,57112,2,0,P|281:133|210:92,2,150,2|2|4,0:0|0:0|0:0,0:0:0:0:
336,256,57945,6,0,L|360:344,2,75,4|8|8,0:0|0:0|0:0,0:0:0:0:
384,184,58445,2,0,P|416:144|424:104,1,75,4|4,0:0|0:0,0:0:0:0:
368,56,58779,2,0,P|312:48|280:32,1,75,8|8,0:0|0:0,0:0:0:0:
208,56,59112,1,4,0:0:0:0:
168,136,59279,2,0,L|200:184,3,37.5,8|0|0|0,0:0|0:0|0:0|0:0,0:0:0:0:
216,208,59612,2,0,L|224:272,3,37.5,8|0|0|0,0:0|0:0|0:0|0:0,0:0:0:0:
208,296,59945,2,0,P|144:320|96:256,1,150,8|2,0:0|0:0,0:0:0:0:
256,192,60445,12,4,61612,0:0:0:0:
136,248,61945,6,0,P|128:168|136:88,1,150,6|8,0:0|0:0,0:0:0:0:
208,56,62445,2,0,L|296:48,1,75
336,120,62779,2,0,L|248:128,2,75,0|8|0,0:0|0:0|0:0,0:0:0:0:
416,152,63279,2,0,P|424:192|424:232,1,75,2|0,0:0|0:0,0:0:0:0:
435,313,63612,1,8,0:0:0:0:
360,352,63779,1,0,0:0:0:0:
296,296,63945,2,0,P|288:208|296:128,1,150,0|8,0:0|0:0,0:0:0:0:
200,40,64445,5,0,0:0:0:0:
200,40,64529,1,0,0:0:0:0:
200,40,64612,2,0,P|160:40|120:56,1,75,2|0,0:0|0:0,0:0:0:0:
72,120,64945,2,0,P|72:168|56:208,1,75,8|0,0:0|0:0,0:0:0:0:
96,272,65279,2,0,L|160:336,1,75
176,224,65612,2,0,L|256:232,1,75,8|0,0:0|0:0,0:0:0:0:
224,144,65945,2,0,L|320:120,1,75,2|0,0:0|0:0,0:0:0:0:
384,144,66279,2,0,P|392:224|384:312,2,150,8|0|8,0:0|0:0|0:0,0:0:0:0:
144,48,67279,6,0,P|80:104|112:160,1,150,6|8,0:0|0:0,0:0:0:0:
144,224,67779,2,0,L|120:304,1,75
192,352,68112,2,0,L|216:272,1,75,0|8,0:0|0:0,0:0:0:0:
288,232,68445,1,0,0:0:0:0:
304,216,68529,1,0,0:0:0:0:
324,196,68612,2,0,P|276:140|204:172,2,150,2|8|0,0:0|0:0|0:0,0:0:0:0:
408,176,69445,2,0,P|440:200|488:216,2,75,0|8|0,0:0|0:0|0:0,0:0:0:0:
448,96,69945,6,0,P|376:72|304:24,1,150,2|8,0:0|0:0,0:0:0:0:
224,48,70445,2,0,P|152:80|160:144,3,150,8|8|8|8,0:0|0:0|0:0|0:0,0:0:0:0:
216,208,71612,2,0,L|184:296,2,75,8|2|0,0:0|0:0|0:0,0:0:0:0:
272,144,72112,1,8,0:0:0:0:
216,208,72279,1,8,0:0:0:0:
416,320,72612,6,0,P|424:232|416:144,1,150,6|8,0:0|0:0,0:0:0:0:
464,96,73112,1,0,0:0:0:0:
384,56,73279,2,0,L|288:40,1,75
224,64,73612,2,0,P|184:72|144:96,1,75,8|0,0:0|0:0,0:0:0:0:
104,224,73945,2,0,P|64:248|88:344,2,150,2|8|0,0:0|0:0|0:0,0:0:0:0:
160,288,74779,2,0,L|248:280,1,75,0|8,0:0|0:0,0:0:0:0:
376,328,75112,5,0,0:0:0:0:
376,328,75195,1,0,0:0:0:0:
376,328,75279,2,0,P|368:256|376:176,2,150,2|8|0,0:0|0:0|0:0,0:0:0:0:
288,352,76112,2,0,L|200:328,1,75,0|8,0:0|0:0,0:0:0:0:
128,328,76445,2,0,L|88:256,1,75,0|2,0:0|0:0,0:0:0:0:
88,176,76779,2,0,P|48:160|16:128,2,75,0|8|0,0:0|0:0|0:0,0:0:0:0:
184,88,77279,2,0,P|264:96|336:88,1,150,0|8,0:0|0:0,0:0:0:0:
408,40,77779,1,0,0:0:0:0:
472,176,77945,6,0,P|464:224|472:272,1,75,4|0,0:0|0:0,0:0:0:0:
408,320,78279,2,0,P|392:288|352:240,1,75,8|0,0:0|0:0,0:0:0:0:
240,320,78612,2,0,P|288:328|336:320,2,75,0|0|8,0:0|0:0|0:0,0:0:0:0:
160,352,79112,1,4,0:0:0:0:
88,304,79279,1,4,0:0:0:0:
136,232,79445,1,0,0:0:0:0:
96,152,79612,6,0,L|184:120,1,75,8|0,0:0|0:0,0:0:0:0:
296,64,79945,2,0,P|328:86|384:96,1,75
440,64,80279,2,0,L|480:144,2,75,8|4|4,0:0|0:0|0:0,0:0:0:0:
362,96,80779,1,0,0:0:0:0:
368,184,80945,1,8,0:0:0:0:
312,248,81112,6,0,P|288:272|240:296,1,75,4|4,0:0|0:0,0:0:0:0:
106,241,81445,2,0,P|139:260|194:265,2,75,0|8|4,0:0|0:0|0:0,0:0:0:0:
64,168,81945,2,0,L|80:80,1,75,4|0,0:0|0:0,0:0:0:0:
160,64,82279,2,0,L|144:144,1,75,8|0,0:0|0:0,0:0:0:0:
232,104,82612,2,0,L|248:24,1,75,4|0,0:0|0:0,0:0:0:0:
328,48,82945,2,0,L|384:40,3,37.5,8|0|0|0,0:0|0:0|0:0|0:0,0:0:0:0:
416,56,83279,6,0,P|456:112|408:192,2,150,4|8|8,0:0|0:0|0:0,0:0:0:0:
472,256,84279,2,0,P|416:296|336:248,2,150,8|8|8,0:0|0:0|0:0,0:0:0:0:
296,336,85279,2,0,P|256:280|304:200,1,150,8|8,0:0|0:0,0:0:0:0:
440,104,85945,6,0,L|400:40,3,75,8|0|4|0,0:0|0:0|0:0|0:0,0:0:0:0:
320,48,86612,2,0,L|248:80,1,75,8|0,0:0|0:0,0:0:0:0:
216,160,86945,2,0,L|224:200,3,37.5,4|0|0|0,0:0|0:0|0:0|0:0,0:0:0:0:
248,240,87279,2,8,P|328:232|424:240,2,150
176,288,88112,1,0,0:0:0:0:
176,288,88195,1,0,0:0:0:0:
176,288,88279,2,0,P|112:320|48:272,3,150,2|2|2|2,0:0|0:0|0:0|0:0,0:0:0:0:
