osu file format v12

[General]
AudioFilename: Sister, Friend, Lover.mp3
AudioLeadIn: 500
PreviewTime: 30591
Countdown: 0
SampleSet: Soft
StackLeniency: 0.7
Mode: 0
LetterboxInBreaks: 0

[Editor]
DistanceSpacing: 1.1
BeatDivisor: 2
GridSize: 8

[Metadata]
Title:Sister, Friend, Lover (TV Size)
TitleUnicode:Sister, Friend, Lover (TV Size)
Artist:RAMM ni Haiyoru Kuuko-san to Kuune-san
ArtistUnicode:RAMMに這いよるクー子さんとクー音さん
Creator:Nymph
Version:Normal
Source:Haiyore! Nyaruko-san W
Tags:ending Matsuki Miyu Yuzuki Ryouka end5
BeatmapID:249491
BeatmapSetID:92145

[Difficulty]
HPDrainRate:4
CircleSize:3
OverallDifficulty:4
ApproachRate:5
SliderMultiplier:1.2
SliderTickRate:1

[Events]
//Background and Video events
Video,-217,"video.avi"
0,0,"88899.jpg",0,0
//Break Periods
//Storyboard Layer 0 (Background)
//Storyboard Layer 1 (Fail)
//Storyboard Layer 2 (Pass)
//Storyboard Layer 3 (Foreground)
//Storyboard Sound Samples
//Background Colour Transformations
3,100,163,162,255

[TimingPoints]
584,441.176470588235,4,2,1,36,1,0
2348,-133.333333333333,4,2,1,36,0,0
9628,-133.333333333333,4,1,1,28,0,0
16025,-133.333333333333,4,2,2,40,0,0
16466,-100,4,2,1,36,0,0
27054,-133.333333333333,4,2,1,25,0,0
30583,-100,4,2,1,36,0,0
42936,-100,4,1,1,20,0,0
44039,-100,4,2,1,36,0,0
44260,-100,4,2,2,36,0,0
44481,-100,4,2,1,36,0,0
57054,-100,4,1,1,36,0,0
58378,-100,4,2,2,36,0,0
58819,-100,4,2,1,36,0,1
72495,-100,4,2,2,36,0,1
72936,-100,4,2,1,36,0,1
83525,-100,4,1,1,30,0,1
86613,-100,4,2,2,30,0,1
87054,-133.333333333333,4,2,1,20,0,0

[Colours]
Combo1 : 192,192,192
Combo2 : 255,179,255
Combo3 : 77,166,255
Combo4 : 255,184,149

[HitObjects]
176,96,2348,2,0,P|136:176|48:192,2,180.000006866455,4|0|0,0:0|0:0|0:0,0:0:0:0:
256,37,4554,1,0,0:0:0:0:
338,97,4995,2,0,P|352:136|392:168,1,90.0000034332277
454,246,5878,6,0,P|422:329|341:355,1,180.000006866455,0|0,0:0|0:0,0:0:0:0:
256,299,7201,1,0,0:0:0:0:
171,355,7642,2,0,P|90:329|58:246,2,180.000006866455,0|0|4,0:0|0:0|0:0,0:0:0:0:
256,299,9848,5,0,0:0:0:0:
340,355,10289,1,0,0:0:0:0:
341,255,10731,1,0,0:0:0:0:
341,156,11172,6,0,L|341:60,1,90.0000034332277
246,94,12054,2,0,L|246:-2,2,90.0000034332277
246,193,13378,1,0,0:0:0:0:
167,252,13819,2,0,L|71:252,1,90.0000034332277
256,192,14701,12,8,16025,0:0:0:0:
216,328,16466,6,0,P|272:360|328:360,1,120,4|8,0:0|0:0,0:0:0:0:
389,342,17128,1,0,0:0:0:0:
442,303,17348,2,0,P|474:247|474:191,1,120,0|8,0:0|0:0,0:0:0:0:
417,73,18231,2,0,P|361:41|305:41,1,120,0|8,0:0|0:0,0:0:0:0:
243,56,18892,1,0,0:0:0:0:
191,98,19113,2,0,P|159:154|159:210,1,120,0|8,0:0|0:0,0:0:0:0:
73,308,19995,6,0,P|41:252|41:196,1,120,0|8,0:0|0:0,0:0:0:0:
127,97,20878,2,0,P|159:153|159:209,1,120,0|8,0:0|0:0,0:0:0:0:
256,277,21760,1,0,0:0:0:0:
359,338,22201,1,8,0:0:0:0:
371,218,22642,1,0,0:0:0:0:
475,276,23083,1,8,0:0:0:0:
371,218,23525,6,0,P|417:175|423:119,1,120,0|8,0:0|0:0,0:0:0:0:
385,74,24186,1,0,0:0:0:0:
336,38,24407,2,0,P|275:19|224:42,1,120,0|8,0:0|0:0,0:0:0:0:
118,93,25289,2,0,P|72:136|66:192,1,120,0|8,0:0|0:0,0:0:0:0:
80,248,25951,1,0,0:0:0:0:
127,283,26172,2,0,P|187:301|238:278,1,120,0|8,0:0|0:0,0:0:0:0:
350,203,27054,6,0,P|437:213|473:293,1,180.000006866455,4|0,0:0|0:0,0:0:0:0:
343,226,28819,6,0,P|425:259|439:345,1,180.000006866455
207,264,30583,6,0,P|175:317|123:341,1,120,4|8,0:0|0:0,0:0:0:0:
59,327,31245,2,0,P|29:272|34:215,1,120
55,153,31907,1,8,0:0:0:0:
183,122,32348,2,0,P|215:69|267:45,1,120,0|8,0:0|0:0,0:0:0:0:
331,59,33010,2,0,P|360:113|355:170,1,120
335,233,33672,1,8,0:0:0:0:
425,329,34113,6,0,L|462:281,2,60,0|0|8,0:0|0:0|0:0,0:0:0:0:
358,329,34775,1,0,0:0:0:0:
226,329,35216,2,0,L|189:377,1,60,0|8,0:0|0:0,0:0:0:0:
90,289,35878,2,0,L|127:241,1,60
87,188,36319,2,0,L|124:140,1,60,8|0,0:0|0:0,0:0:0:0:
209,39,36981,2,0,L|246:87,1,60,0|8,0:0|0:0,0:0:0:0:
368,39,37642,6,0,P|418:74|428:135,1,120,0|8,0:0|0:0,0:0:0:0:
371,161,38304,2,0,P|382:215|432:250,1,120
491,279,38966,1,8,0:0:0:0:
386,359,39407,2,0,L|262:359,1,120,0|8,0:0|0:0,0:0:0:0:
239,298,40069,2,0,L|115:298,1,120
52,298,40731,1,8,0:0:0:0:
47,166,41172,6,0,L|25:109,2,60,0|0|8,0:0|0:0|0:0,0:0:0:0:
107,192,41833,1,0,0:0:0:0:
231,148,42275,2,0,L|252:203,1,60,0|8,0:0|0:0,0:0:0:0:
381,234,42936,2,0,L|402:289,2,60,0|0|0,0:0|0:0|0:0,0:0:0:0:
431,191,43598,1,0,0:0:0:0:
328,107,44039,2,0,L|306:51,1,60,0|8,0:0|0:0,0:0:0:0:
208,144,44701,6,0,P|184:202|129:227,1,120,4|8,0:0|0:0,0:0:0:0:
18,279,45583,2,0,P|42:334|94:356,1,120,0|8,0:0|0:0,0:0:0:0:
208,288,46466,2,0,P|256:256|304:288,1,120
418,356,47348,2,0,P|470:334|494:279,1,120,0|8,0:0|0:0,0:0:0:0:
501,212,48010,1,0,0:0:0:0:
494,146,48231,6,0,P|470:91|418:69,1,120,0|8,0:0|0:0,0:0:0:0:
298,10,49113,2,0,P|243:34|221:86,1,120,0|8,0:0|0:0,0:0:0:0:
105,151,49995,2,0,P|129:206|181:228,1,120,0|8,0:0|0:0,0:0:0:0:
263,331,50878,2,0,P|318:307|340:255,2,120,0|8|0,0:0|0:0|0:0,0:0:0:0:
196,331,51981,6,0,L|135:352,2,60,0|8|0,0:0|0:0|0:0,0:0:0:0:
175,268,52642,2,0,P|172:207|128:167,1,120,0|8,0:0|0:0,0:0:0:0:
17,101,53525,2,0,P|58:56|116:53,1,120,0|8,0:0|0:0,0:0:0:0:
179,62,54186,1,0,0:0:0:0:
243,77,54407,2,0,P|284:122|342:125,1,120,0|8,0:0|0:0,0:0:0:0:
453,193,55289,1,4,0:0:0:0:
256,192,57054,12,8,58378,0:0:0:0:
256,248,58819,6,0,P|232:304|184:336,1,120,4|8,0:0|0:0,0:0:0:0:
118,336,59481,1,0,0:0:0:0:
56,312,59701,2,0,P|19:263|15:205,1,120,0|8,0:0|0:0,0:0:0:0:
16,139,60363,1,0,0:0:0:0:
39,77,60583,2,0,P|87:40|145:36,1,120,0|8,0:0|0:0,0:0:0:0:
210,49,61245,1,0,0:0:0:0:
274,64,61466,2,0,L|334:82,1,60
354,143,61907,2,0,L|414:161,1,60,8|0,0:0|0:0,0:0:0:0:
474,181,62348,6,0,P|473:243|440:291,1,120,0|8,0:0|0:0,0:0:0:0:
375,290,63010,1,0,0:0:0:0:
308,292,63231,2,0,P|248:309|210:353,1,120,0|8,0:0|0:0,0:0:0:0:
145,346,63892,2,0,L|87:362,1,60
31,242,64554,1,8,0:0:0:0:
66,114,64995,2,0,P|127:111|175:148,1,120,0|8,0:0|0:0,0:0:0:0:
219,190,65657,2,0,L|252:139,1,60
351,52,66319,5,8,0:0:0:0:
455,133,66760,2,0,L|422:184,1,60
452,242,67201,2,0,L|419:293,1,60,8|0,0:0|0:0,0:0:0:0:
357,315,67642,2,0,P|313:353|252:359,1,120,0|8,0:0|0:0,0:0:0:0:
135,299,68525,2,0,P|179:261|240:255,1,120,0|8,0:0|0:0,0:0:0:0:
257,124,69407,6,0,P|213:162|152:168,1,120,0|8,0:0|0:0,0:0:0:0:
35,108,70289,2,0,P|79:70|140:64,1,120,0|8,0:0|0:0,0:0:0:0:
270,58,71172,2,0,L|325:88,1,60,8|0,0:0|0:0,0:0:0:0:
327,152,71613,2,0,L|382:182,1,60,8|0,0:0|0:0,0:0:0:0:
393,245,72054,2,0,L|448:275,2,60,8|0|8,0:0|0:0|0:0,0:0:0:0:
270,294,72936,6,0,P|229:337|168:348,1,120,4|8,0:0|0:0,0:0:0:0:
111,320,73598,2,0,L|59:351,1,60
16,225,74260,2,0,L|68:194,1,60,8|0,0:0|0:0,0:0:0:0:
125,162,74701,1,0,0:0:0:0:
216,66,75142,2,0,L|268:35,1,60,8|0,0:0|0:0,0:0:0:0:
313,82,75583,2,0,L|373:81,1,60
380,147,76025,2,0,L|432:176,1,60,8|0,0:0|0:0,0:0:0:0:
462,235,76466,6,0,P|454:298|423:345,1,120,0|8,0:0|0:0,0:0:0:0:
359,359,77128,1,0,0:0:0:0:
294,346,77348,2,0,P|263:299|255:236,1,120,0|8,0:0|0:0,0:0:0:0:
194,210,78010,2,0,L|157:264,1,60
73,159,78672,2,0,L|36:213,1,60,8|0,0:0|0:0,0:0:0:0:
76,262,79113,2,0,L|39:316,1,60
79,366,79554,2,0,L|140:366,2,60,8|0|0,0:0|0:0|0:0,0:0:0:0:
20,247,80436,5,8,0:0:0:0:
85,132,80878,2,0,L|121:83,1,60
186,90,81319,2,0,L|222:41,1,60,8|0,0:0|0:0,0:0:0:0:
286,30,81760,2,0,P|348:25|404:46,2,120,0|8|0,0:0|0:0|0:0,0:0:0:0:
256,158,83083,1,8,0:0:0:0:
286,286,83525,6,0,P|348:291|404:270,2,120
256,158,84848,1,0,0:0:0:0:
256,192,85289,12,2,87054,0:0:0:0:
