osu file format v12

[General]
AudioFilename: Sister, Friend, Lover.mp3
AudioLeadIn: 500
PreviewTime: 30591
Countdown: 0
SampleSet: Soft
StackLeniency: 0.7
Mode: 0
LetterboxInBreaks: 0

[Editor]
DistanceSpacing: 1.2
BeatDivisor: 2
GridSize: 8

[Metadata]
Title:Sister, Friend, Lover (TV Size)
TitleUnicode:Sister, Friend, Lover (TV Size)
Artist:RAMM ni Haiyoru Kuuko-san to Kuune-san
ArtistUnicode:RAMMに這いよるクー子さんとクー音さん
Creator:Nymph
Version:Hard
Source:Haiyore! Nyaruko-san W
Tags:ending Matsuki Miyu Yuzuki Ryouka end5
BeatmapID:249257
BeatmapSetID:92145

[Difficulty]
HPDrainRate:6
CircleSize:4
OverallDifficulty:7
ApproachRate:8
SliderMultiplier:1.6
SliderTickRate:1

[Events]
//Background and Video events
Video,-217,"video.avi"
0,0,"88899.jpg",0,0
//Break Periods
//Storyboard Layer 0 (Background)
//Storyboard Layer 1 (Fail)
//Storyboard Layer 2 (Pass)
//Storyboard Layer 3 (Foreground)
//Storyboard Sound Samples
//Background Colour Transformations
3,100,163,162,255

[TimingPoints]
584,441.176470588235,4,2,1,36,1,0
2348,-133.333333333333,4,2,1,36,0,0
9628,-133.333333333333,4,1,1,28,0,0
16025,-133.333333333333,4,2,2,40,0,0
16466,-100,4,2,1,36,0,0
27054,-200,4,2,1,36,0,0
27936,-200,4,2,1,25,0,0
29701,-200,4,2,1,15,0,0
30583,-100,4,2,1,36,0,0
42936,-100,4,1,1,20,0,0
44039,-100,4,2,1,36,0,0
44260,-100,4,2,2,36,0,0
44481,-100,4,2,1,36,0,0
57054,-100,4,1,1,36,0,0
58378,-100,4,2,2,36,0,0
58819,-100,4,2,1,36,0,1
72495,-100,4,2,2,36,0,1
72936,-100,4,2,1,36,0,1
83525,-100,4,1,1,30,0,1
86613,-100,4,2,2,30,0,1
87054,-133.333333333333,4,2,1,20,0,0

[Colours]
Combo1 : 192,192,192
Combo2 : 255,179,255
Combo3 : 77,166,255
Combo4 : 255,184,149

[HitObjects]
184,65,2348,2,0,P|188:122|152:170,1,120.000004577637,4|0,0:0|0:0,0:0:0:0:
88,225,3010,2,0,L|77:292,1,60.0000022888184
252,355,3672,1,0,0:0:0:0:
252,355,3892,2,0,L|263:288,1,60.0000022888184
453,237,4554,2,0,P|470:210|474:179,1,60.0000022888184
469,98,4995,1,0,0:0:0:0:
428,24,5216,1,0,0:0:0:0:
272,8,5436,1,0,0:0:0:0:
313,82,5657,1,0,0:0:0:0:
243,129,5878,6,0,P|254:188|299:224,1,120.000004577637
255,295,6539,1,0,0:0:0:0:
338,302,6760,2,0,P|313:355|258:380,1,120.000004577637
124,354,7422,2,0,P|151:345|183:344,1,60.0000022888184
31,242,8083,2,0,P|22:215|21:183,1,60.0000022888184
91,137,8525,1,0,0:0:0:0:
64,57,8745,1,0,0:0:0:0:
136,15,8966,2,0,P|145:42|146:74,1,60.0000022888184
256,192,9407,5,4,0:0:0:0:
440,304,9848,1,0,0:0:0:0:
440,80,10289,1,0,0:0:0:0:
256,192,10731,1,0,0:0:0:0:
72,80,11172,5,0,0:0:0:0:
72,304,11613,1,0,0:0:0:0:
256,192,12054,1,0,0:0:0:0:
440,304,12495,1,0,0:0:0:0:
440,80,12936,5,0,0:0:0:0:
392,144,13157,1,0,0:0:0:0:
320,104,13378,1,0,0:0:0:0:
272,168,13598,1,0,0:0:0:0:
32,240,13819,5,0,0:0:0:0:
96,312,14039,1,0,0:0:0:0:
176,264,14260,1,0,0:0:0:0:
240,336,14481,1,0,0:0:0:0:
424,208,14701,5,0,0:0:0:0:
448,104,14922,1,0,0:0:0:0:
344,120,15142,1,0,0:0:0:0:
368,16,15363,1,0,0:0:0:0:
176,72,15583,5,0,0:0:0:0:
104,351,15804,1,0,0:0:0:0:
33,185,16025,1,8,0:0:0:0:
303,252,16466,6,0,P|362:264|402:311,1,120,4|0,0:0|0:0,0:0:0:0:
467,280,16907,2,0,L|424:348,1,80,8|0,0:0|0:0,0:0:0:0:
439,188,17348,1,0,0:0:0:0:
480,101,17569,1,0,0:0:0:0:
416,29,17789,2,0,P|389:61|386:99,1,80,8|0,0:0|0:0,0:0:0:0:
222,149,18231,6,0,P|200:206|152:237,1,120
78,328,18672,2,0,L|106:252,1,80,8|0,0:0|0:0,0:0:0:0:
42,180,19113,1,0,0:0:0:0:
30,84,19333,1,0,0:0:0:0:
204,3,19554,1,8,0:0:0:0:
216,99,19775,1,0,0:0:0:0:
149,180,19995,6,0,P|177:232|232:256,1,120
275,274,20436,2,0,L|214:326,1,80,8|0,0:0|0:0,0:0:0:0:
49,351,20878,2,0,L|109:298,1,80
54,219,21319,1,8,0:0:0:0:
86,128,21539,1,0,0:0:0:0:
286,14,21760,6,0,P|276:71|229:109,1,120
197,144,22201,2,0,L|161:219,1,80,8|0,0:0|0:0,0:0:0:0:
196,341,22642,1,0,0:0:0:0:
247,260,22863,1,0,0:0:0:0:
416,258,23083,1,8,0:0:0:0:
467,177,23304,2,0,L|476:138,1,40
487,91,23525,6,0,P|450:45|393:35,1,120
344,33,23966,1,8,0:0:0:0:
259,168,24186,1,0,0:0:0:0:
139,160,24407,2,0,P|99:141|59:136,1,80,0|0,0:0|0:0,0:0:0:0:
92,263,24848,2,0,P|63:296|48:333,1,80,8|0,0:0|0:0,0:0:0:0:
92,263,25289,6,0,P|147:238|176:189,1,120
184,140,25731,1,8,0:0:0:0:
297,28,25951,1,0,0:0:0:0:
359,101,26172,1,0,0:0:0:0:
450,73,26392,1,0,0:0:0:0:
426,166,26613,1,8,0:0:0:0:
469,251,26833,1,0,0:0:0:0:
256,280,27054,6,0,P|197:343|124:345,1,160,4|0,0:0|0:0,0:0:0:0:
233,277,28819,6,0,P|159:322|88:305,1,160
39,162,30583,6,0,P|113:117|184:134,1,160,4|8,0:0|0:0,0:0:0:0:
276,136,31245,1,0,0:0:0:0:
357,85,31466,1,0,0:0:0:0:
445,121,31686,2,0,P|474:153|480:191,2,80,0|8|0,0:0|0:0|0:0,0:0:0:0:
393,202,32348,6,0,P|377:269|422:343,1,160,0|8,0:0|0:0,0:0:0:0:
469,259,33010,1,0,0:0:0:0:
316,356,33231,1,0,0:0:0:0:
221,343,33451,2,0,P|178:343|139:361,2,80,0|8|0,0:0|0:0|0:0,0:0:0:0:
23,265,34113,6,0,P|66:265|105:283,2,80,0|0|8,0:0|0:0|0:0,0:0:0:0:
8,169,34775,2,0,P|71:122|88:46,1,160
172,0,35436,2,0,P|186:39|181:80,1,80,8|0,0:0|0:0,0:0:0:0:
373,127,35878,5,0,0:0:0:0:
464,98,36098,1,0,0:0:0:0:
443,191,36319,1,8,0:0:0:0:
467,283,36539,2,0,P|422:349|347:359,1,160
181,347,37201,2,0,P|214:329|256:326,1,80,8|0,0:0|0:0,0:0:0:0:
86,337,37642,6,0,P|28:281|31:205,1,160,0|8,0:0|0:0,0:0:0:0:
96,134,38304,1,0,0:0:0:0:
174,77,38525,2,0,P|146:49|106:40,1,80
177,166,38966,2,0,P|205:194|245:203,1,80,8|0,0:0|0:0,0:0:0:0:
319,34,39407,6,0,P|357:43|385:71,1,80
305,123,39848,1,8,0:0:0:0:
393,160,40069,2,0,P|421:239|386:307,1,160
467,360,40731,2,0,P|493:328|504:292,1,80,8|0,0:0|0:0,0:0:0:0:
310,358,41172,5,0,0:0:0:0:
221,322,41392,1,0,0:0:0:0:
129,352,41613,2,0,P|90:366|48:360,1,80,8|0,0:0|0:0,0:0:0:0:
82,271,42054,1,0,0:0:0:0:
52,179,42275,2,0,P|47:138|26:107,2,80,0|8|0,0:0|0:0|0:0,0:0:0:0:
88,37,42936,5,0,0:0:0:0:
256,129,43157,1,0,0:0:0:0:
424,37,43378,1,0,0:0:0:0:
256,17,43598,1,0,0:0:0:0:
256,208,44039,2,0,L|256:288,1,80,0|8,0:0|0:0,0:0:0:0:
190,358,44481,1,0,0:0:0:0:
114,299,44701,6,0,P|92:335|58:355,1,80
103,184,45142,2,0,P|72:213|34:223,1,80,8|0,0:0|0:0,0:0:0:0:
128,37,45583,2,0,P|153:63|165:104,1,80
247,155,46025,1,8,0:0:0:0:
342,151,46245,1,0,0:0:0:0:
465,59,46466,6,0,P|462:96|436:130,1,80
406,221,46907,1,8,0:0:0:0:
428,314,47128,1,0,0:0:0:0:
258,348,47348,6,0,P|293:329|333:325,1,80
164,328,47789,1,8,0:0:0:0:
73,361,48010,1,0,0:0:0:0:
98,268,48231,6,0,P|90:229|63:197,1,80
93,55,48672,2,0,P|101:94|127:125,1,80,8|0,0:0|0:0,0:0:0:0:
197,59,49113,1,0,0:0:0:0:
268,122,49333,1,0,0:0:0:0:
355,82,49554,2,0,P|396:83|430:100,1,80,8|0,0:0|0:0,0:0:0:0:
467,253,49995,6,0,P|484:219|485:178,1,80
377,268,50436,2,0,P|360:302|359:343,1,80,8|0,0:0|0:0,0:0:0:0:
263,331,50878,1,0,0:0:0:0:
174,367,51098,1,0,0:0:0:0:
19,333,51319,1,8,0:0:0:0:
108,297,51539,1,0,0:0:0:0:
78,205,51760,6,0,P|64:167|66:129,1,80
228,24,52201,2,0,P|242:62|240:100,1,80,8|0,0:0|0:0,0:0:0:0:
187,260,52642,2,0,P|173:222|175:184,1,80
349,100,53083,2,0,P|363:138|361:176,1,80,8|0,0:0|0:0,0:0:0:0:
306,290,53525,6,0,P|357:352|432:365,2,160,0|8|0,0:0|0:0|0:0,0:0:0:0:
256,207,54628,1,0,0:0:0:0:
206,290,54848,2,0,L|176:367,1,80,8|0,0:0|0:0,0:0:0:0:
86,331,55289,1,4,0:0:0:0:
140,192,57054,5,0,0:0:0:0:
140,192,57275,1,0,0:0:0:0:
372,192,57495,1,0,0:0:0:0:
372,192,57716,1,0,0:0:0:0:
140,192,57936,5,0,0:0:0:0:
372,192,58157,1,0,0:0:0:0:
256,39,58378,1,8,0:0:0:0:
256,246,58819,6,0,P|246:301|199:346,1,120,4|0,0:0|0:0,0:0:0:0:
158,366,59260,1,8,0:0:0:0:
140,192,59481,1,0,0:0:0:0:
76,263,59701,2,0,P|40:284|22:321,2,80,0|0|8,0:0|0:0|0:0,0:0:0:0:
140,192,60363,1,0,0:0:0:0:
76,121,60583,6,0,P|40:100|22:63,2,80,0|0|8,0:0|0:0|0:0,0:0:0:0:
140,192,61245,1,0,0:0:0:0:
240,192,61466,2,0,L|320:192,1,80
320,288,61907,2,0,L|400:288,1,80,8|0,0:0|0:0,0:0:0:0:
461,361,62348,6,0,P|497:315|493:257,1,120
471,213,62789,1,8,0:0:0:0:
474,116,63010,1,0,0:0:0:0:
348,30,63231,2,0,P|312:76|316:134,1,120
338,178,63672,1,8,0:0:0:0:
335,275,63892,1,0,0:0:0:0:
264,344,64113,6,0,L|184:344,1,80
136,264,64554,2,0,L|56:264,1,80,8|0,0:0|0:0,0:0:0:0:
16,176,64995,1,0,0:0:0:0:
64,56,65216,1,0,0:0:0:0:
168,128,65436,1,8,0:0:0:0:
216,8,65657,1,8,0:0:0:0:
328,72,65878,6,0,P|364:118|360:176,1,120
338,220,66319,1,8,0:0:0:0:
341,317,66539,1,0,0:0:0:0:
424,272,66760,2,0,P|452:245|464:207,1,80
253,271,67201,2,0,P|225:298|213:336,1,80,8|0,0:0|0:0,0:0:0:0:
119,359,67642,6,0,P|44:321|25:250,2,160
120,264,68745,2,0,L|104:184,1,80
16,144,69186,1,0,0:0:0:0:
78,72,69407,2,0,P|128:22|212:26,2,160
168,112,70510,2,0,L|136:192,1,80
272,104,70951,1,0,0:0:0:0:
353,50,71172,6,0,L|416:99,1,80,8|8,0:0|0:0,0:0:0:0:
413,195,71613,2,0,L|476:244,1,80,8|8,0:0|0:0,0:0:0:0:
468,366,72054,2,0,L|405:317,1,80,8|0,0:0|0:0,0:0:0:0:
256,254,72495,1,8,0:0:0:0:
256,254,72936,6,0,P|226:307|172:330,1,120,4|0,0:0|0:0,0:0:0:0:
124,330,73378,1,8,0:0:0:0:
124,234,73598,1,0,0:0:0:0:
43,286,73819,2,0,P|19:320|12:363,2,80,0|0|8,0:0|0:0|0:0,0:0:0:0:
124,234,74481,1,0,0:0:0:0:
79,149,74701,6,0,P|55:115|48:72,2,80,0|0|8,0:0|0:0|0:0,0:0:0:0:
174,156,75363,1,0,0:0:0:0:
211,67,75583,2,0,P|243:44|285:39,1,80
421,80,76025,2,0,P|444:112|449:154,1,80,8|0,0:0|0:0,0:0:0:0:
384,280,76466,6,0,P|321:326|242:320,1,160,0|8,0:0|0:0,0:0:0:0:
199,234,77128,1,0,0:0:0:0:
16,184,77348,2,0,P|79:138|158:144,1,160,0|8,0:0|0:0,0:0:0:0:
58,273,78010,2,0,L|32:349,1,80
247,197,78672,6,0,L|273:121,1,80,8|0,0:0|0:0,0:0:0:0:
301,29,79113,1,0,0:0:0:0:
394,10,79333,1,0,0:0:0:0:
499,174,79554,1,8,0:0:0:0:
412,132,79775,1,0,0:0:0:0:
423,227,79995,6,0,L|433:309,1,80
347,364,80436,2,0,L|338:285,1,80,8|0,0:0|0:0,0:0:0:0:
254,333,80878,1,0,0:0:0:0:
166,372,81098,1,0,0:0:0:0:
10,243,81319,1,8,0:0:0:0:
98,204,81539,1,0,0:0:0:0:
110,108,81760,6,0,P|173:147|192:226,2,160
98,204,82863,2,0,L|32:256,2,80
256,32,83525,6,0,L|223:109,1,80
340,121,83966,2,0,L|373:198,1,80
144,120,84407,6,0,L|111:197,1,80
440,240,84848,2,0,L|473:317,1,80
289,362,85289,5,0,0:0:0:0:
112,349,85510,1,0,0:0:0:0:
234,246,85731,1,0,0:0:0:0:
57,233,85951,1,0,0:0:0:0:
180,131,86172,1,0,0:0:0:0:
3,118,86392,1,0,0:0:0:0:
345,47,86613,1,8,0:0:0:0:
328,328,87054,5,2,0:0:0:0:
376,216,87495,1,2,0:0:0:0:
383,200,87716,2,0,L|407:144,1,60.0000022888184,0|2,0:0|0:0,0:0:0:0:
129,185,88598,1,0,0:0:0:0:
136,168,88819,1,2,0:0:0:0:
