osu file format v12

[General]
AudioFilename: Sister, Friend, Lover.mp3
AudioLeadIn: 500
PreviewTime: 30591
Countdown: 0
SampleSet: Soft
StackLeniency: 0.7
Mode: 0
LetterboxInBreaks: 0

[Editor]
DistanceSpacing: 1
BeatDivisor: 2
GridSize: 8

[Metadata]
Title:Sister, Friend, Lover (TV Size)
TitleUnicode:Sister, Friend, Lover (TV Size)
Artist:RAMM ni Haiyoru Kuuko-san to Kuune-san
ArtistUnicode:RAMMに這いよるクー子さんとクー音さん
Creator:Nymph
Version:Easy
Source:Haiyore! Nyaruko-san W
Tags:ending Matsuki Miyu Yuzuki Ryouka end5
BeatmapID:249635
BeatmapSetID:92145

[Difficulty]
HPDrainRate:2
CircleSize:3
OverallDifficulty:2
ApproachRate:3
SliderMultiplier:0.9
SliderTickRate:1

[Events]
//Background and Video events
Video,-217,"video.avi"
0,0,"88899.jpg",0,0
//Break Periods
2,27254,29143
//Storyboard Layer 0 (Background)
//Storyboard Layer 1 (Fail)
//Storyboard Layer 2 (Pass)
//Storyboard Layer 3 (Foreground)
//Storyboard Sound Samples
//Background Colour Transformations
3,100,163,162,255

[TimingPoints]
584,441.176470588235,4,2,1,36,1,0
2348,-133.333333333333,4,2,1,36,0,0
9628,-133.333333333333,4,1,1,28,0,0
16025,-133.333333333333,4,2,2,40,0,0
16466,-100,4,2,1,36,0,0
27054,-133.333333333333,4,2,1,25,0,0
30583,-100,4,2,1,36,0,0
42936,-100,4,1,1,20,0,0
44039,-100,4,2,1,36,0,0
44260,-100,4,2,2,36,0,0
44481,-100,4,2,1,36,0,0
57054,-100,4,1,1,36,0,0
58378,-100,4,2,2,36,0,0
58819,-100,4,2,1,36,0,1
72495,-100,4,2,2,36,0,1
72936,-100,4,2,1,36,0,1
83525,-100,4,1,1,30,0,1
86613,-100,4,2,2,30,0,1
87054,-133.333333333333,4,2,1,20,0,0

[Colours]
Combo1 : 192,192,192
Combo2 : 255,179,255
Combo3 : 77,166,255
Combo4 : 255,184,149

[HitObjects]
188,221,2348,2,0,P|157:280|96:310,2,135.000005149842,4|0|0,0:0|0:0|0:0,0:0:0:0:
324,221,4995,2,0,P|355:280|416:310,2,135.000005149842
256,104,7642,1,0,0:0:0:0:
256,240,8525,2,0,L|256:160,1,67.5000025749208
256,104,9407,6,0,L|184:104,1,67.5000025749208
152,160,10289,2,0,L|80:160,1,67.5000025749208
48,216,11172,2,0,L|48:288,1,67.5000025749208
88,336,12054,2,0,L|155:336,1,67.5000025749208
256,192,12936,12,8,16025,0:0:0:0:
256,240,16466,6,0,P|216:320|128:344,1,180,4|0,0:0|0:0,0:0:0:0:
184,168,18231,2,0,P|109:217|21:194,1,180,0|0,0:0|0:0,0:0:0:0:
160,80,19995,6,0,L|240:32,1,90,0|8,0:0|0:0,0:0:0:0:
312,80,20878,2,0,L|392:32,1,90,0|8,0:0|0:0,0:0:0:0:
464,88,21760,2,0,P|480:176|424:240,1,180
256,304,23525,6,0,P|187:361|104:345,1,180
32,296,24848,2,0,L|24:200,1,90,8|0,0:0|0:0,0:0:0:0:
112,184,25731,1,8,0:0:0:0:
200,160,26172,2,0,L|192:64,2,90,0|8|4,0:0|0:0|0:0,0:0:0:0:
424,88,30583,6,0,P|392:168|312:208,1,180,4|0,0:0|0:0,0:0:0:0:
256,136,31907,1,8,0:0:0:0:
200,208,32348,2,0,P|120:248|88:328,1,180
168,368,33672,1,8,0:0:0:0:
256,344,34113,6,0,B|304:312|384:376|432:344,1,180
480,272,35436,1,8,0:0:0:0:
432,200,35878,2,0,P|456:120|392:56,1,180
368,144,37201,2,0,L|288:184,1,90,8|0,0:0|0:0,0:0:0:0:
152,64,38525,6,0,L|72:104,1,90,0|8,0:0|0:0,0:0:0:0:
16,176,39407,1,0,0:0:0:0:
72,344,40289,2,0,L|152:304,1,90,0|8,0:0|0:0,0:0:0:0:
232,256,41172,1,0,0:0:0:0:
256,80,42054,6,0,L|336:40,1,90,0|8,0:0|0:0,0:0:0:0:
424,40,42936,2,0,P|464:88|456:160,1,135
432,240,44039,2,0,L|384:232,1,45,0|8,0:0|0:0,0:0:0:0:
320,288,44701,6,0,P|256:352|168:352,1,180,4|0,0:0|0:0,0:0:0:0:
88,320,46025,1,8,0:0:0:0:
32,248,46466,2,0,P|8:160|52:84,1,180
136,64,47789,1,8,0:0:0:0:
216,112,48231,6,0,P|239:199|195:275,1,180
240,352,49554,1,8,0:0:0:0:
328,360,49995,2,0,P|416:360|480:296,1,180
488,208,51319,1,8,0:0:0:0:
456,120,51760,6,0,P|447:75|418:43,1,90,0|8,0:0|0:0,0:0:0:0:
355,107,52642,2,0,P|316:81|273:79,1,90,0|8,0:0|0:0,0:0:0:0:
280,169,53525,2,0,P|235:178|203:207,1,90,0|8,0:0|0:0,0:0:0:0:
144,272,54407,2,0,L|144:368,2,90,0|8|4,0:0|0:0|0:0,0:0:0:0:
256,320,57054,6,0,L|256:224,1,90
256,144,57936,2,0,L|256:96,2,45,0|0|8,0:0|0:0|0:0,0:0:0:0:
256,232,58819,6,0,P|256:272|232:320,1,90,4|8,0:0|0:0,0:0:0:0:
144,328,59701,2,0,P|96:336|63:366,2,90,0|8|0,0:0|0:0|0:0,0:0:0:0:
120,240,61025,1,8,0:0:0:0:
40,192,61466,2,0,L|40:96,1,90,0|8,0:0|0:0,0:0:0:0:
96,32,62348,5,0,0:0:0:0:
184,32,62789,1,8,0:0:0:0:
240,104,63231,1,0,0:0:0:0:
328,104,63672,1,8,0:0:0:0:
416,104,64113,2,0,P|456:128|480:168,1,90,0|8,0:0|0:0,0:0:0:0:
480,256,64995,2,0,P|457:292|417:316,1,90,0|8,0:0|0:0,0:0:0:0:
327,317,65878,5,0,0:0:0:0:
272,248,66319,1,0,0:0:0:0:
184,232,66760,2,0,P|105:276|72:357,2,180
171,142,68966,1,8,0:0:0:0:
256,112,69407,6,0,L|256:16,2,90,0|8|0,0:0|0:0|0:0,0:0:0:0:
344,144,70731,1,8,0:0:0:0:
432,176,71172,2,0,L|432:272,1,90,0|8,0:0|0:0,0:0:0:0:
344,264,72054,2,0,L|344:360,1,90,0|8,0:0|0:0,0:0:0:0:
256,344,72936,6,0,P|172:368|80:344,1,180,4|0,0:0|0:0,0:0:0:0:
40,267,74260,1,8,0:0:0:0:
79,186,74701,2,0,P|163:162|255:186,1,180
284,267,76025,1,8,0:0:0:0:
372,250,76466,6,0,L|440:189,1,90,0|8,0:0|0:0,0:0:0:0:
401,107,77348,2,0,L|469:46,2,90,0|8|0,0:0|0:0|0:0,0:0:0:0:
224,56,79113,2,0,L|128:56,1,90,0|8,0:0|0:0,0:0:0:0:
80,128,79995,6,0,P|72:216|8:280,1,180
168,368,81760,2,0,P|176:280|240:216,1,180
324,193,83083,1,8,0:0:0:0:
256,192,83525,12,2,87054,0:0:0:0:
