osu file format v14

[General]
AudioFilename: Sister, Friend, Lover.mp3
AudioLeadIn: 500
PreviewTime: 584
Countdown: 0
SampleSet: None
StackLeniency: 0.7
Mode: 0
LetterboxInBreaks: 0
WidescreenStoryboard: 1

[Editor]
Bookmarks: 74701
DistanceSpacing: 1
BeatDivisor: 4
GridSize: 8
TimelineZoom: 1

[Metadata]
Title:Sister, Friend, Lover
TitleUnicode:Sister, Friend, Lover
Artist:RAMM ni Haiyoru Kuuko-san to Kuune-san
ArtistUnicode:RAMMに這いよるクー子さんとクー音さん
Creator:Kvantuma Rozo
Version:Friend
Source:這いよれ!ニャル子さん W
Tags:RED ALiCE Masayoshi Minoshima cthugha haiyore! nyaruko-san w ending ed matsuki miyu yuzuki ryoka
BeatmapID:1106060
BeatmapSetID:520633

[Difficulty]
HPDrainRate:4
CircleSize:5
OverallDifficulty:6
ApproachRate:7
SliderMultiplier:1.44
SliderTickRate:2

[Events]
//Background and Video events
0,0,"kuu.jpg",0,0
//Break Periods
//Storyboard Layer 0 (Background)
//Storyboard Layer 1 (Fail)
//Storyboard Layer 2 (Pass)
//Storyboard Layer 3 (Foreground)
//Storyboard Sound Samples

[TimingPoints]
80,441.176470588235,4,2,1,40,1,0
521,441.176470588235,4,2,1,40,1,0
2285,-100,4,2,1,50,0,0
9565,-100,4,1,1,28,0,0
11109,-100,4,2,1,40,0,0
11991,-100,4,1,1,28,0,0
15962,-100,4,2,2,40,0,0
16403,-100,4,2,1,40,0,0
19932,-166.666666666667,4,2,1,40,0,0
22579,-100,4,2,1,40,0,0
23241,-100,4,3,1,40,0,0
23351,-100,4,2,1,40,0,0
25226,-100,4,2,1,40,0,0
26991,-100,4,2,1,25,0,0
30520,-100,4,2,1,40,0,0
42873,-100,4,2,1,40,0,0
43756,-100,4,1,1,20,0,0
43976,-100,4,2,1,40,0,0
44197,-100,4,2,2,40,0,0
44418,-100,4,2,1,40,0,0
56991,-100,4,1,1,30,0,0
58315,-100,4,2,2,40,0,0
58756,-100,4,2,1,40,0,1
71109,-100,4,1,1,40,0,1
71991,-100,4,2,1,40,0,1
72432,-100,4,2,2,40,0,1
72873,-100,4,2,1,40,0,1
83462,-100,4,1,1,30,0,1
84344,-100,4,1,1,30,0,1
85226,-100,4,1,1,30,0,1
86550,-100,4,2,2,70,0,1
86991,-100,4,2,1,30,0,0

[HitObjects]
40,176,2285,6,0,L|112:184,1,72,2|0,0:0|0:0,0:0:0:0:
144,120,2726,2,0,P|96:80|24:112,2,144,0|0|0,0:0|0:0|0:0,0:0:0:0:
184,176,3829,1,0,0:0:0:0:
256,144,4050,2,0,L|248:288,1,144,2|0,0:0|0:0,0:0:0:0:
344,312,4712,1,0,0:0:0:0:
384,248,4932,6,0,L|376:176,1,72,0|0,0:0|0:0,0:0:0:0:
456,88,5373,2,0,L|448:160,1,72,0|0,0:0|0:0,0:0:0:0:
442,294,5815,6,0,P|396:320|344:312,1,108,2|0,0:0|0:0,0:0:0:0:
320,336,6256,2,0,L|248:344,1,72,0|0,0:0|0:0,0:0:0:0:
112,248,6697,2,0,L|224:256,1,108,0|0,0:0|0:0,0:0:0:0:
256,240,7138,2,0,P|264:208|264:168,1,72,0|0,0:0|0:0,0:0:0:0:
256,96,7579,1,0,0:0:0:0:
312,56,7800,1,0,0:0:0:0:
376,168,8020,1,0,0:0:0:0:
448,160,8241,1,0,0:0:0:0:
456,88,8462,6,0,L|384:80,1,72,2|0,0:0|0:0,0:0:0:0:
256,96,8903,2,0,P|248:136|256:176,1,72,0|0,0:0|0:0,0:0:0:0:
320,136,9344,2,0,L|176:136,1,144,4|0,0:0|0:0,0:0:0:0:
40,88,10226,5,0,0:0:0:0:
32,192,10447,1,0,0:0:0:0:
88,144,10668,1,0,0:0:0:0:
80,248,10889,1,0,0:0:0:0:
32,296,11109,2,0,P|56:312|120:304,1,72,8|8,0:0|0:0,0:0:0:0:
184,280,11550,2,0,L|256:288,1,72,8|8,0:0|0:0,0:0:0:0:
336,368,11991,1,0,0:0:0:0:
336,368,12212,1,0,0:0:0:0:
432,312,12432,1,0,0:0:0:0:
432,312,12653,1,8,0:0:0:0:
352,232,12873,6,0,L|344:304,1,72,0|0,0:0|0:0,0:0:0:0:
416,192,13315,2,0,L|408:120,1,72,0|0,0:0|0:0,0:0:0:0:
344,40,13756,2,0,P|344:80|336:120,1,72,0|0,0:0|0:0,0:0:0:0:
256,152,14197,2,0,L|184:160,1,72,0|0,0:0|0:0,0:0:0:0:
80,112,14638,5,0,0:0:0:0:
8,160,14859,1,0,0:0:0:0:
88,120,15079,1,0,0:0:0:0:
0,152,15300,1,0,0:0:0:0:
96,128,15520,2,0,L|184:128,1,72
256,152,15962,5,8,0:0:0:0:
256,152,16403,6,0,P|312:160|360:128,1,108,4|0,0:0|0:0,0:0:0:0:
328,72,16844,2,0,P|292:72|256:86,1,72,8|0,0:0|0:0,0:0:0:0:
448,104,17285,2,0,L|440:216,1,108,0|0,0:0|0:0,0:0:0:0:
488,256,17726,2,0,P|480:296|488:336,1,72,8|0,0:0|0:0,0:0:0:0:
368,352,18168,2,0,L|256:344,1,108,0|0,0:0|0:0,0:0:0:0:
216,344,18609,2,0,P|176:352|144:352,1,72,8|0,0:0|0:0,0:0:0:0:
24,256,19050,2,0,L|136:264,1,108,0|0,0:0|0:0,0:0:0:0:
176,264,19491,1,8,0:0:0:0:
232,144,19712,1,0,0:0:0:0:
155,67,19932,6,0,L|141:18,1,43.1999986816407,2|0,0:0|0:0,0:0:0:0:
232,144,20373,2,0,L|279:156,1,43.1999986816407,8|0,0:0|0:0,0:0:0:0:
125,172,20814,2,0,L|89:206,1,43.1999986816407,2|0,0:0|0:0,0:0:0:0:
187,66,21255,6,0,L|199:17,1,43.1999986816407,8|0,0:0|0:0,0:0:0:0:
215,172,21697,2,0,L|248:208,1,43.1999986816407
110,144,22138,2,0,L|61:156,1,43.1999986816407,8|0,0:0|0:0,0:0:0:0:
170,127,22579,5,2,0:0:0:0:
240,104,22800,1,0,0:0:0:0:
248,112,22910,1,0,0:0:0:0:
256,120,23020,2,0,L|264:48,1,72,8|0,0:0|3:0,0:0:0:0:
336,32,23462,6,0,P|376:64|448:48,1,108,0|0,0:0|0:0,0:0:0:0:
424,96,23903,2,0,L|432:176,1,72,8|0,0:0|0:0,0:0:0:0:
484,257,24344,2,0,P|494:218|496:177,1,72,0|0,0:0|0:0,0:0:0:0:
419,291,24785,2,0,P|447:319|481:341,1,72,8|0,0:0|0:0,0:0:0:0:
424,216,25226,6,0,P|385:226|348:244,1,72,2|0,0:0|0:0,0:0:0:0:
320,304,25668,2,0,L|328:376,1,72,8|0,0:0|0:0,0:0:0:0:
192,304,26109,2,0,L|200:232,1,72,0|0,0:0|0:0,0:0:0:0:
256,48,26550,2,0,P|256:88|264:128,1,72,8|8,0:0|0:0,0:0:0:0:
280,240,26991,5,4,0:0:0:0:
272,224,27873,1,0,0:0:0:0:
264,208,28756,1,0,0:0:0:0:
256,192,29638,1,0,0:0:0:0:
256,48,30520,5,4,0:0:0:0:
184,80,30741,1,0,0:0:0:0:
128,32,30962,1,8,0:0:0:0:
56,40,31182,2,0,B|48:112|48:112|72:136|64:184,1,144
0,160,31844,1,8,0:0:0:0:
0,296,32285,6,0,L|72:320,1,72,2|0,0:0|0:0,0:0:0:0:
120,264,32726,1,8,0:0:0:0:
168,328,32947,2,0,P|208:304|264:320,1,108
320,360,33388,2,0,P|360:360|392:352,1,72,0|8,0:0|0:0,0:0:0:0:
504,208,34050,5,2,0:0:0:0:
384,216,34270,1,0,0:0:0:0:
472,272,34491,1,8,0:0:0:0:
464,144,34712,2,0,L|456:32,1,108,0|0,0:0|0:0,0:0:0:0:
392,16,35153,2,0,P|392:64|384:96,1,72,0|8,0:0|0:0,0:0:0:0:
184,72,35815,5,2,0:0:0:0:
72,72,36035,1,0,0:0:0:0:
128,16,36256,1,8,0:0:0:0:
128,128,36476,2,0,P|120:176|72:208,1,108,0|0,0:0|0:0,0:0:0:0:
32,256,36918,2,0,L|32:336,1,72,8|8,0:0|0:0,0:0:0:0:
256,232,37579,6,0,P|256:288|288:336,1,108
344,360,38020,2,0,L|416:352,1,72,8|0,0:0|0:0,0:0:0:0:
488,296,38462,1,2,0:0:0:0:
384,248,38682,1,0,0:0:0:0:
488,208,38903,2,0,P|496:168|496:136,1,72,8|0,0:0|0:0,0:0:0:0:
392,80,39344,6,0,P|344:112|280:104,1,108,0|0,0:0|0:0,0:0:0:0:
256,48,39785,2,0,P|224:40|184:40,1,72,8|0,0:0|0:0,0:0:0:0:
56,88,40226,1,2,0:0:0:0:
144,120,40447,1,0,0:0:0:0:
16,168,40668,2,0,L|24:240,1,72,8|0,0:0|0:0,0:0:0:0:
112,352,41109,6,0,L|120:280,1,72,8|0,0:0|0:0,0:0:0:0:
192,256,41550,1,8,0:0:0:0:
240,312,41770,2,0,P|280:328|320:328,1,72,0|0,0:0|0:0,0:0:0:0:
384,304,42212,1,2,0:0:0:0:
352,232,42432,2,0,L|360:152,1,72,8|0,0:0|0:0,0:0:0:0:
320,80,42873,5,8,0:0:0:0:
384,56,43094,1,8,0:0:0:0:
192,56,43315,1,0,0:0:0:0:
128,32,43536,1,8,0:0:0:0:
256,32,43976,5,0,0:0:0:0:
256,152,44197,1,8,0:0:0:0:
392,200,44638,5,0,0:0:0:0:
472,264,44859,1,0,0:0:0:0:
384,304,45079,2,0,P|344:304|304:312,1,72,8|0,0:0|0:0,0:0:0:0:
208,352,45520,1,0,0:0:0:0:
96,288,45741,1,0,0:0:0:0:
202,224,45962,2,0,P|178:272|154:304,1,72,8|0,0:0|0:0,0:0:0:0:
96,168,46403,6,0,L|88:80,1,72
192,80,46844,2,0,L|185:151,1,72,8|0,0:0|0:0,0:0:0:0:
168,288,47285,1,0,0:0:0:0:
96,168,47506,1,0,0:0:0:0:
192,80,47726,1,8,0:0:0:0:
96,168,48168,5,0,0:0:0:0:
48,112,48388,1,0,0:0:0:0:
192,80,48609,5,8,0:0:0:0:
120,96,48829,1,0,0:0:0:0:
256,128,49050,2,0,P|264:88|264:40,1,72
120,96,49491,1,8,0:0:0:0:
96,168,49712,1,0,0:0:0:0:
152,224,49932,6,0,L|152:304,1,72
256,336,50373,2,0,L|256:264,1,72,8|0,0:0|0:0,0:0:0:0:
256,128,50815,1,8,0:0:0:0:
152,224,51036,1,0,0:0:0:0:
256,264,51256,1,0,0:0:0:0:
256,128,51697,5,0,0:0:0:0:
232,56,51918,1,0,0:0:0:0:
160,80,52138,1,8,0:0:0:0:
184,152,52359,1,0,0:0:0:0:
328,176,52579,2,0,P|336:136|336:96,1,72,2|0,0:0|0:0,0:0:0:0:
256,128,53020,1,8,0:0:0:0:
408,160,53241,1,0,0:0:0:0:
488,280,53462,6,0,P|448:288|400:288,1,72,2|0,0:0|0:0,0:0:0:0:
320,368,53903,2,0,P|333:329|357:287,1,72,8|0,0:0|0:0,0:0:0:0:
328,176,54344,2,0,P|354:206|378:248,1,72,2|0,0:0|0:0,0:0:0:0:
416,352,54785,1,8,0:0:0:0:
256,272,55226,5,4,0:0:0:0:
152,32,56991,6,0,P|192:32|240:40,1,72,0|0,0:0|0:0,0:0:0:0:
360,48,57432,2,0,P|320:48|272:40,1,72,8|0,0:0|0:0,0:0:0:0:
152,96,57873,2,0,P|192:96|240:104,1,72,0|0,0:0|0:0,0:0:0:0:
360,112,58314,2,0,P|320:112|272:104,1,72,8|0,0:0|0:0,0:0:0:0:
184,160,58756,6,0,P|184:200|176:248,1,72,4|0,0:0|0:0,0:0:0:0:
160,248,59087,1,0,0:0:0:0:
136,256,59197,2,0,L|64:248,1,72,8|0,0:0|0:0,0:0:0:0:
48,352,59638,1,2,0:0:0:0:
144,328,59859,1,0,0:0:0:0:
160,336,59969,1,0,0:0:0:0:
176,344,60079,1,8,0:0:0:0:
256,328,60300,5,0,0:0:0:0:
328,352,60520,2,0,L|336:232,1,108,0|0,0:0|0:0,0:0:0:0:
360,272,60962,2,0,P|352:232|352:200,1,72,8|0,0:0|0:0,0:0:0:0:
392,136,61403,5,0,0:0:0:0:
264,144,61623,1,0,0:0:0:0:
456,88,61844,1,8,0:0:0:0:
328,96,62064,1,0,0:0:0:0:
512,40,62285,6,0,P|440:40|392:32,1,108,4|0,0:0|0:0,0:0:0:0:
344,24,62726,2,0,P|304:24|264:32,1,72,8|0,0:0|0:0,0:0:0:0:
112,88,63168,2,0,P|160:112|224:96,1,108,2|0,0:0|0:0,0:0:0:0:
264,144,63609,2,0,L|256:224,1,72,8|0,0:0|0:0,0:0:0:0:
296,280,64050,5,2,0:0:0:0:
184,264,64270,1,0,0:0:0:0:
256,368,64491,2,0,L|296:384,2,36,10|0|0,0:0|0:0|0:0,0:0:0:0:
144,352,64932,6,0,P|112:360|64:360,1,72,0|0,0:0|0:0,0:0:0:0:
40,264,65373,1,8,0:0:0:0:
96,176,65594,1,8,0:0:0:0:
56,64,65815,2,0,L|168:64,1,108,4|0,0:0|0:0,0:0:0:0:
240,96,66256,2,0,P|240:136|232:176,1,72,8|0,0:0|0:0,0:0:0:0:
176,224,66697,5,0,0:0:0:0:
112,240,66918,1,0,0:0:0:0:
96,176,67138,1,8,0:0:0:0:
160,160,67359,1,0,0:0:0:0:
160,296,67579,6,0,P|108:312|56:296,1,108,2|0,0:0|0:0,0:0:0:0:
40,232,68020,2,0,L|112:240,1,72,8|0,0:0|0:0,0:0:0:0:
320,256,68462,2,0,P|344:288|376:304,1,72,2|0,0:0|0:0,0:0:0:0:
416,320,68793,1,0,0:0:0:0:
456,296,68903,2,0,L|464:216,1,72,8|0,0:0|0:0,0:0:0:0:
400,80,69344,6,0,P|367:94|335:112,1,72,0|0,0:0|0:0,0:0:0:0:
264,144,69785,2,0,P|232:126|203:104,1,72,8|0,0:0|0:0,0:0:0:0:
323,184,70226,2,0,P|323:220|320:256,1,72,0|0,0:0|0:0,0:0:0:0:
344,344,70668,2,0,P|384:344|415:339,1,72,8|0,0:0|0:0,0:0:0:0:
472,216,71109,5,0,0:0:0:0:
323,184,71329,1,0,0:0:0:0:
472,176,71550,1,0,0:0:0:0:
299,168,71770,1,0,0:0:0:0:
456,136,71991,1,8,0:0:0:0:
275,152,72212,1,8,0:0:0:0:
432,104,72432,5,8,0:0:0:0:
256,32,72873,6,0,P|256:104|264:152,1,108,4|0,0:0|0:0,0:0:0:0:
272,176,73315,2,0,P|232:184|200:184,1,72,8|0,0:0|0:0,0:0:0:0:
144,80,73756,2,0,P|88:96|48:136,1,108
32,160,74197,1,8,0:0:0:0:
24,264,74418,1,0,0:0:0:0:
112,328,74638,2,0,L|104:216,1,108,2|0,0:0|0:0,0:0:0:0:
168,208,75079,2,0,P|184:240|216:272,1,72,8|0,0:0|0:0,0:0:0:0:
384,344,75520,5,8,0:0:0:0:
304,360,75741,1,0,0:0:0:0:
384,344,75962,1,10,0:0:0:0:
232,328,76182,1,0,0:0:0:0:
384,344,76403,6,0,L|392:216,1,108,0|0,0:0|0:0,0:0:0:0:
448,200,76844,2,0,P|480:224|504:264,1,72,8|0,0:0|0:0,0:0:0:0:
472,112,77285,2,0,L|464:40,1,72,0|0,0:0|0:0,0:0:0:0:
432,24,77616,1,0,0:0:0:0:
400,48,77726,2,0,P|365:54|329:56,1,72,8|0,0:0|0:0,0:0:0:0:
80,55,78168,6,0,P|115:49|151:47,1,72,0|0,0:0|0:0,0:0:0:0:
271,104,78609,2,0,P|236:111|200:112,1,72,8|0,0:0|0:0,0:0:0:0:
80,56,79050,5,2,0:0:0:0:
96,192,79270,1,0,0:0:0:0:
200,112,79491,1,8,0:0:0:0:
56,128,79711,1,0,0:0:0:0:
40,272,79932,2,0,P|72:304|112:320,1,72,0|0,0:0|0:0,0:0:0:0:
112,344,80263,1,0,0:0:0:0:
144,344,80373,2,0,L|224:336,1,72,8|0,0:0|0:0,0:0:0:0:
368,328,80815,5,2,0:0:0:0:
472,272,81035,1,0,0:0:0:0:
392,248,81256,1,8,0:0:0:0:
448,352,81476,1,0,0:0:0:0:
472,272,81697,6,0,L|480:192,1,72,4|0,0:0|0:0,0:0:0:0:
416,56,82138,2,0,L|424:136,1,72,8|0,0:0|0:0,0:0:0:0:
320,248,82579,2,0,P|280:248|240:240,1,72,4|0,0:0|0:0,0:0:0:0:
216,88,83020,2,0,L|224:16,1,72,8|0,0:0|0:0,0:0:0:0:
80,134,83462,6,0,P|80:174|72:214,1,72,0|0,0:0|0:0,0:0:0:0:
16,317,83903,2,0,P|46:298|80:285,1,72,8|0,0:0|0:0,0:0:0:0:
208,286,84344,2,0,P|176:267|148:245,1,72,0|0,0:0|0:0,0:0:0:0:
280,264,84785,2,0,P|280:304|272:344,1,72,8|0,0:0|0:0,0:0:0:0:
361,250,85226,5,0,0:0:0:0:
241,143,85447,1,0,0:0:0:0:
149,246,85668,5,8,0:0:0:0:
301,196,85889,1,0,0:0:0:0:
256,64,86109,5,0,0:0:0:0:
225,221,86330,1,0,0:0:0:0:
376,168,86550,5,8,0:0:0:0:
256,64,86991,5,2,0:0:0:0:
472,64,87432,1,2,0:0:0:0:
448,80,87653,1,0,0:0:0:0:
424,96,87873,1,2,0:0:0:0:
344,160,88535,1,0,0:0:0:0:
376,168,88756,1,2,0:0:0:0:
