osu file format v12

[General]
AudioFilename: 02. Sister,Friend,Lover.mp3
AudioLeadIn: 0
PreviewTime: 44472
Countdown: 0
SampleSet: Soft
StackLeniency: 0.7
Mode: 0
LetterboxInBreaks: 0

[Editor]
Bookmarks: 2339,16457,30575,87045,101163,133700,134031,157634,173516
DistanceSpacing: 1.2
BeatDivisor: 4
GridSize: 4

[Metadata]
Title:Sister, Friend, Lover
TitleUnicode:Sister, Friend, Lover
Artist:RAMM ni Haiyoru Kuuko-san to Kuune-san
ArtistUnicode:RAMMに這いよるクー子さんとクー音さん
Creator:JauiPlaY
Version:JauiPakyin
Source:Haiyore! Nyaruko-san W
Tags:cah-m kanpakyin ending matsuki miyu yuzuki ryouka end5
BeatmapID:264159
BeatmapSetID:99283

[Difficulty]
HPDrainRate:6
CircleSize:4
OverallDifficulty:7
ApproachRate:8
SliderMultiplier:2
SliderTickRate:1

[Events]
//Background and Video events
0,0,"a2c45e60e6d5603f8aad388b7a2802a9.jpg",0,0
//Break Periods
2,87245,100413
2,159398,172766
//Storyboard Layer 0 (Background)
//Storyboard Layer 1 (Fail)
//Storyboard Layer 2 (Pass)
//Storyboard Layer 3 (Foreground)
//Storyboard Sound Samples
//Background Colour Transformations
3,100,255,0,0

[TimingPoints]
2340,441.176470588235,4,2,1,60,1,0
2340,-166.666666666667,4,2,1,60,0,0
12928,-166.666666666667,4,1,1,50,0,0
16016,-100,4,2,1,90,0,0
16457,-133.333333333333,4,2,1,70,0,1
16567,-133.333333333333,4,2,1,70,0,0
17339,-133.333333333333,4,1,1,50,0,0
17450,-133.333333333333,4,2,1,70,0,0
18222,-133.333333333333,4,1,1,50,0,0
18332,-133.333333333333,4,2,1,70,0,0
19104,-133.333333333333,4,1,1,50,0,0
19214,-133.333333333333,4,2,1,70,0,0
19987,-133.333333333333,4,1,1,50,0,0
20097,-133.333333333333,4,2,1,70,0,0
20869,-133.333333333333,4,1,1,50,0,0
20979,-133.333333333333,4,2,1,70,0,0
21751,-133.333333333333,4,1,1,50,0,0
21862,-133.333333333333,4,2,1,70,0,0
22634,-133.333333333333,4,1,1,50,0,0
22744,-133.333333333333,4,2,1,70,0,0
23295,-133.333333333333,4,1,1,50,0,0
23626,-133.333333333333,4,2,1,70,0,0
24398,-133.333333333333,4,1,1,50,0,0
24509,-133.333333333333,4,2,1,70,0,0
25170,-133.333333333333,4,1,1,50,0,0
25391,-133.333333333333,4,2,1,70,0,0
26163,-133.333333333333,4,1,1,50,0,0
26273,-133.333333333333,4,2,1,70,0,0
26714,-133.333333333333,4,1,1,50,0,0
27156,-133.333333333333,4,2,1,70,0,0
30575,-100,4,2,1,55,0,0
44692,-100,4,2,1,70,0,0
58810,-100,4,2,2,75,0,1
72817,-100,4,2,2,75,0,0
72928,-100,4,2,2,75,0,1
87045,-100,4,2,2,75,0,0
101163,-117.647058823529,4,2,1,60,0,0
113516,-117.647058823529,4,1,1,50,0,0
114839,-66.6666666666667,4,2,1,75,0,0
115281,-133.333333333333,4,2,1,60,0,0
124104,-200,4,2,2,75,0,0
124545,-166.666666666667,4,2,1,75,0,0
124987,-133.333333333333,4,2,1,75,0,0
127634,-166.666666666667,4,1,1,60,0,0
129398,-133.333333333333,4,2,2,60,0,1
142634,-200,4,2,0,75,0,1
142964,-200,4,2,1,75,0,1
143406,-200,4,2,1,75,0,0
143516,-133.333333333333,4,2,2,60,0,1
157634,-133.333333333333,4,2,0,30,0,0
173516,-100,4,2,1,50,0,0
175281,-100,4,2,1,60,0,0
177045,-100,4,2,1,70,0,0
178810,-100,4,2,1,80,0,0
180575,-100,4,2,1,90,0,0
187634,-100,4,2,2,75,0,1
200869,-133.333333333333,4,2,2,75,0,1
201641,-133.333333333333,4,2,2,75,0,0
201751,-100,4,2,2,75,0,1
215869,-100,4,2,1,50,0,0

[Colours]
Combo1 : 128,255,0
Combo2 : 255,128,128
Combo3 : 128,0,255
Combo4 : 255,0,0
Combo5 : 128,128,255

[HitObjects]
132,119,2339,1,4,0:0:0:0:
79,192,2560,1,0,0:0:0:0:
132,119,2781,2,0,L|120:56,1,59.9999981689454,2|0,0:0|0:0,0:0:0:0:
157,246,3222,1,2,0:0:0:0:
157,246,3884,1,0,0:0:0:0:
305,329,4104,5,2,0:0:0:0:
305,329,4766,1,0,0:0:0:0:
430,224,4987,6,0,P|438:198|424:143,1,59.9999981689454,2|0,0:0|0:0,0:0:0:0:
391,302,5428,2,0,P|453:311|503:270,1,119.999996337891,2|0,0:0|0:0,0:0:0:0:
353,189,6089,1,0,0:0:0:0:
500,108,6310,2,0,P|474:81|431:70,1,59.9999981689454,2|0,0:0|0:0,0:0:0:0:
272,213,6751,2,0,P|234:217|172:194,1,89.9999972534181,2|0,0:0|0:0,0:0:0:0:
175,187,7192,2,0,L|182:265,2,59.9999981689454,2|0|0,0:0|0:0|0:0,0:0:0:0:
163,166,7854,1,0,0:0:0:0:
151,144,8075,1,2,0:0:0:0:
139,122,8295,1,0,0:0:0:0:
218,34,8516,6,0,P|248:28|290:35,1,59.9999981689454,2|0,0:0|0:0,0:0:0:0:
366,42,8957,2,0,P|398:57|414:96,1,59.9999981689454,2|0,0:0|0:0,0:0:0:0:
476,233,9398,6,0,P|495:181|479:102,2,119.999996337891,4|0|0,1:2|1:0|1:0,0:0:0:0:
334,194,10501,1,2,0:0:0:0:
364,330,10722,1,0,1:0:0:0:
417,168,10942,1,0,0:0:0:0:
253,205,11163,6,0,P|192:212|131:193,1,119.999996337891,0|0,1:0|1:0,0:0:0:0:
72,131,11825,1,0,0:0:0:0:
121,281,12045,2,0,L|105:351,1,59.9999981689454,0|2,1:0|0:0,0:0:0:0:
147,81,12487,2,0,P|106:48|30:54,1,119.999996337891,0|0,1:0|0:0,0:0:0:0:
72,131,13148,5,0,0:0:0:0:
232,98,13369,2,0,L|304:110,1,59.9999981689454
437,77,13810,2,0,P|449:50|448:3,1,59.9999981689454,0|2,0:0|0:2,0:0:0:0:
388,216,14251,2,0,P|388:275|430:321,1,119.999996337891
472,241,14913,5,0,0:0:0:0:
309,182,15134,2,0,L|248:164,1,59.9999981689454
426,319,15575,1,0,0:0:0:0:
446,152,15795,2,0,L|467:84,1,59.9999981689454,2|8,0:2|0:0,0:0:0:0:
76,276,16457,5,4,0:0:0:0:
143,335,16678,1,2,0:0:0:0:
162,351,16788,1,0,0:0:0:0:
186,359,16898,2,0,P|223:367|267:352,1,75.0000028610231,8|2,0:0|0:0,0:0:0:0:
225,202,17339,5,0,0:0:0:0:
76,276,17560,1,2,0:0:0:0:
65,256,17670,1,0,0:0:0:0:
56,234,17781,2,0,L|72:153,1,75.0000028610231,8|2,0:0|0:0,0:0:0:0:
241,281,18222,5,0,0:0:0:0:
303,113,18442,1,2,0:0:0:0:
324,121,18553,1,0,0:0:0:0:
345,128,18663,2,0,P|381:130|419:112,1,75.0000028610231,8|2,0:0|0:0,0:0:0:0:
162,258,19104,5,0,0:0:0:0:
373,321,19325,2,2,L|348:363,1,37.5000014305115
455,331,19545,2,0,P|469:277|438:211,1,112.500004291535,8|2,0:0|0:0,0:0:0:0:
374,197,19987,6,0,L|247:213,1,112.500004291535,0|2,0:0|0:0,0:0:0:0:
130,124,20428,6,0,L|268:133,1,112.500004291535,8|0,0:0|0:0,0:0:0:0:
205,278,20869,6,0,P|142:281|99:236,1,112.500004291535,0|2,0:0|0:0,0:0:0:0:
197,65,21310,6,0,P|209:151|159:207,1,150.000005722046,8|0,0:0|0:0,0:0:0:0:
50,119,21972,6,0,L|30:159,2,37.5000014305115,2|0|8,0:0|0:0|0:0,0:0:0:0:
197,65,22413,1,2,0:0:0:0:
159,222,22634,1,0,0:0:0:0:
106,44,22854,1,2,0:0:0:0:
106,44,22964,1,0,0:0:0:0:
106,44,23075,2,0,B|71:29|71:29|16:34,1,75.0000028610231,8|2,0:0|0:2,0:0:0:0:
137,136,23516,5,0,0:0:0:0:
190,308,23737,1,2,0:0:0:0:
211,315,23847,1,0,0:0:0:0:
233,316,23957,2,0,P|268:313|304:292,1,75.0000028610231,8|2,0:0|0:0,0:0:0:0:
84,201,24398,5,0,0:0:0:0:
272,305,24619,1,2,0:0:0:0:
290,292,24729,1,0,0:0:0:0:
302,273,24839,2,0,P|314:247|314:200,1,75.0000028610231,8|2,0:0|0:0,0:0:0:0:
110,282,25281,5,0,0:0:0:0:
307,235,25501,1,2,0:0:0:0:
303,212,25612,1,0,0:0:0:0:
298,189,25722,2,0,L|419:213,1,112.500004291535,8|2,0:0|0:0,0:0:0:0:
425,225,26163,6,0,P|429:267|406:299,1,75.0000028610231,0|2,0:0|0:0,0:0:0:0:
361,109,26604,1,8,0:0:0:0:
212,337,26825,2,0,L|117:322,1,75.0000028610231,0|4,0:0|0:0,0:0:0:0:
131,329,27928,5,2,0:0:0:0:
124,332,28810,1,0,0:0:0:0:
118,336,29692,1,2,0:0:0:0:
256,192,30575,6,0,P|316:252|396:272,1,150,4|0,0:0|0:0,0:0:0:0:
432,264,31016,2,0,P|416:324|380:360,1,100,8|0,0:0|0:0,0:0:0:0:
280,344,31457,1,0,0:0:0:0:
376,271,31678,1,0,0:0:0:0:
167,284,31898,1,8,0:0:0:0:
264,212,32119,1,0,0:0:0:0:
160,172,32339,6,0,P|100:232|20:252,1,150
32,196,32781,2,0,P|48:136|84:100,1,100,8|0,0:0|0:0,0:0:0:0:
160,172,33222,1,0,0:0:0:0:
264,212,33442,1,0,0:0:0:0:
372,180,33663,1,8,0:0:0:0:
372,180,34104,6,0,B|388:236|388:236|388:264|380:300,1,100
492,292,34545,2,0,B|476:236|476:236|476:208|484:172,1,100,8|0,0:0|0:0,0:0:0:0:
372,180,34987,2,0,P|318:158|266:113,1,100
336,36,35428,1,8,0:0:0:0:
336,36,35869,5,0,0:0:0:0:
140,104,36089,1,0,0:0:0:0:
333,116,36310,1,8,0:0:0:0:
196,164,36530,1,0,0:0:0:0:
339,198,36751,1,0,0:0:0:0:
244,232,36972,1,8,0:0:0:0:
244,232,37082,1,0,0:0:0:0:
244,232,37192,2,0,P|269:244|325:288,1,100,8|0,0:0|0:0,0:0:0:0:
232,348,37634,5,0,0:0:0:0:
120,228,37964,1,0,0:0:0:0:
120,228,38075,2,0,P|140:296|168:344,1,100,8|0,0:0|0:0,0:0:0:0:
112,72,38516,2,0,P|44:92|-4:120,1,100
164,148,38957,2,0,P|264:136|328:64,1,200,8|0,0:0|0:0,0:0:0:0:
284,224,39729,5,0,0:0:0:0:
284,224,39839,2,0,P|264:292|244:340,1,100,8|0,0:0|0:0,0:0:0:0:
444,160,40281,2,0,P|424:92|404:44,1,100
364,192,40722,2,0,P|301:136|208:184,1,200,8|0,0:0|0:0,0:0:0:0:
280,332,41384,5,0,0:0:0:0:
284,224,41604,1,8,0:0:0:0:
128,84,41825,1,0,0:0:0:0:
99,189,42045,1,0,0:0:0:0:
180,268,42266,1,0,0:0:0:0:
284,224,42487,1,8,0:0:0:0:
284,224,42928,5,0,0:0:0:0:
99,189,43148,1,0,0:0:0:0:
328,148,43369,1,8,0:0:0:0:
81,105,43589,2,0,P|18:165|55:261,1,200,0|8,0:0|0:0,0:0:0:0:
53,260,44141,1,0,0:0:0:0:
53,260,44251,1,8,0:0:0:0:
164,264,44472,1,0,0:0:0:0:
256,324,44692,5,4,0:0:0:0:
375,156,44913,1,2,0:0:0:0:
335,255,45134,5,8,0:0:0:0:
168,135,45355,1,2,0:0:0:0:
356,48,45575,5,0,0:0:0:0:
236,215,45795,1,2,0:0:0:0:
276,116,46016,5,8,0:0:0:0:
444,236,46236,1,2,0:0:0:0:
375,156,46457,5,0,0:0:0:0:
276,116,46678,1,2,0:0:0:0:
236,215,46898,1,8,0:0:0:0:
335,255,47118,1,2,0:0:0:0:
444,236,47339,5,0,0:0:0:0:
256,324,47560,1,2,0:0:0:0:
168,135,47781,1,10,0:0:0:0:
356,48,48001,1,0,0:0:0:0:
476,92,48222,5,0,0:0:0:0:
484,176,48442,1,2,0:0:0:0:
412,140,48663,1,8,0:0:0:0:
400,220,48884,1,2,0:0:0:0:
336,164,49104,1,0,0:0:0:0:
304,240,49325,1,2,0:0:0:0:
256,172,49545,1,8,0:0:0:0:
304,240,49766,1,2,0:0:0:0:
256,304,49987,5,0,0:0:0:0:
208,240,50207,1,2,0:0:0:0:
256,172,50428,1,8,0:0:0:0:
112,220,50649,1,2,0:0:0:0:
176,164,50869,1,0,0:0:0:0:
28,176,51090,1,2,0:0:0:0:
100,140,51311,1,10,0:0:0:0:
36,92,51531,1,0,0:0:0:0:
116,300,51751,5,0,0:0:0:0:
208,240,51972,1,10,0:0:0:0:
280,156,52192,1,0,0:0:0:0:
304,48,52413,1,10,0:0:0:0:
208,48,52634,5,0,0:0:0:0:
232,156,52855,1,10,0:0:0:0:
304,240,53075,1,8,0:0:0:0:
396,300,53296,1,2,0:0:0:0:
384,192,53516,6,0,B|368:164|368:164|340:144|296:144,1,100,0|2,0:0|0:0,0:0:0:0:
256,348,53957,2,0,L|256:248,1,100,8|2,0:0|0:0,0:0:0:0:
128,192,54398,2,0,B|144:164|144:164|172:144|216:144,1,100,0|2,0:0|0:0,0:0:0:0:
340,268,54839,1,10,0:0:0:0:
256,348,55060,1,0,0:0:0:0:
172,268,55281,1,4,0:0:0:0:
172,268,57045,5,0,0:0:0:0:
256,340,57266,1,0,0:0:0:0:
340,268,57487,1,0,0:0:0:0:
256,196,57707,1,0,0:0:0:0:
172,268,57928,5,0,0:0:0:0:
200,320,58038,1,0,0:0:0:0:
256,340,58149,1,0,0:0:0:0:
312,320,58259,1,0,0:0:0:0:
340,268,58370,1,8,0:0:0:0:
256,196,58589,1,0,0:0:0:0:
352,144,58810,6,0,P|400:108|420:48,1,100,4|2,0:0|0:0,0:0:0:0:
488,160,59251,1,8,0:0:0:0:
308,44,59472,1,2,0:0:0:0:
488,160,59692,2,0,P|488:240|448:320,1,150
405,355,60134,2,0,L|311:320,1,100,8|0,0:0|0:0,0:0:0:0:
217,262,60575,6,0,P|174:307|162:341,1,100,0|2,0:0|0:0,0:0:0:0:
162,341,60906,1,0,0:0:0:0:
162,341,61016,1,8,0:0:0:0:
66,287,61237,1,2,0:0:0:0:
217,262,61457,2,0,B|267:236|267:236|306:188,1,100,0|0,0:0|0:0,0:0:0:0:
164,120,61898,2,0,B|114:146|114:146|75:194,1,100,8|0,0:0|0:0,0:0:0:0:
66,287,62339,5,0,0:0:0:0:
176,287,62560,1,2,0:0:0:0:
272,233,62781,1,8,0:0:0:0:
326,137,63001,1,2,0:0:0:0:
122,81,63222,5,0,0:0:0:0:
122,191,63443,1,0,0:0:0:0:
176,287,63664,1,8,0:0:0:0:
272,341,63884,1,0,0:0:0:0:
366,290,64104,5,0,0:0:0:0:
272,233,64324,1,2,0:0:0:0:
272,341,64545,1,10,0:0:0:0:
272,341,64987,5,0,0:0:0:0:
272,233,65208,1,8,0:0:0:0:
366,290,65428,1,0,0:0:0:0:
272,341,65648,1,8,0:0:0:0:
168,195,65869,6,0,P|100:179|57:138,1,100,0|2,0:0|0:0,0:0:0:0:
60,136,66200,1,0,0:0:0:0:
43,110,66310,2,0,P|111:126|134:143,1,100,8|2,0:0|0:0,0:0:0:0:
146,252,66751,1,0,0:0:0:0:
197,349,66972,1,0,0:0:0:0:
60,320,67192,1,8,0:0:0:0:
284,281,67413,6,0,B|302:318|302:318|321:321|315:343|354:359,1,100
424,259,67854,2,0,B|391:262|386:239|368:245|368:245|336:220,1,100,2|8,0:0|0:0,0:0:0:0:
348,140,68295,2,0,B|388:148|388:148|402:135|415:153|452:132,1,100,2|0,0:0|0:0,0:0:0:0:
409,18,68737,2,0,B|391:46|370:36|363:54|363:54|324:64,1,100,0|8,0:0|0:0,0:0:0:0:
248,128,69178,1,0,0:0:0:0:
324,63,69398,5,0,0:0:0:0:
409,18,69619,1,2,0:0:0:0:
444,136,69839,1,8,0:0:0:0:
348,140,70060,1,2,0:0:0:0:
336,220,70281,1,0,0:0:0:0:
424,259,70501,1,0,0:0:0:0:
345,355,70722,1,8,0:0:0:0:
284,281,70942,1,0,0:0:0:0:
200,232,71163,5,8,0:0:0:0:
256,136,71384,1,8,0:0:0:0:
312,232,71604,1,8,0:0:0:0:
256,328,71825,5,8,0:0:0:0:
120,192,72045,1,2,0:0:0:0:
256,56,72266,1,2,0:0:0:0:
392,192,72486,1,0,0:0:0:0:
392,192,72928,6,0,P|408:264|308:316,1,200,4|8,0:0|0:0,0:0:0:0:
256,192,73589,1,2,0:0:0:0:
120,192,73810,2,0,P|104:120|204:68,1,200,0|8,0:0|0:0,0:0:0:0:
256,192,74472,1,0,0:0:0:0:
220,292,74692,6,0,B|184:276|184:276|156:296|124:296,1,100,0|2,0:0|0:0,0:0:0:0:
292,92,75134,2,0,B|328:108|328:108|356:88|388:88,1,100,8|2,0:0|0:0,0:0:0:0:
292,92,75575,1,0,0:0:0:0:
256,192,75795,1,0,0:0:0:0:
256,192,75906,1,0,0:0:0:0:
256,192,76016,1,8,0:0:0:0:
220,292,76237,1,0,0:0:0:0:
296,328,76457,6,0,P|324:265|318:233,1,100,0|2,0:0|0:0,0:0:0:0:
216,56,76898,2,0,P|187:118|193:150,1,100,8|2,0:0|0:0,0:0:0:0:
408,212,77339,2,0,P|367:158|335:148,1,100
104,172,77781,2,0,P|145:226|177:236,1,100,8|0,0:0|0:0,0:0:0:0:
256,140,78222,5,0,0:0:0:0:
256,276,78553,1,0,0:0:0:0:
256,276,78663,2,0,P|232:324|188:356,1,100,8|2,0:0|0:0,0:0:0:0:
168,228,79104,1,0,0:0:0:0:
256,140,79325,1,8,0:0:0:0:
344,228,79545,1,0,0:0:0:0:
315,352,79766,2,0,P|280:324|256:276,1,100,8|0,0:0|0:0,0:0:0:0:
256,140,80207,6,0,L|256:72,2,50,2|0|8,0:0|0:0|0:0,0:0:0:0:
256,256,80648,1,2,0:0:0:0:
316,352,80869,2,0,P|352:296|352:240,1,100
156,263,81310,2,0,P|160:296|196:352,1,100,8|0,0:0|0:0,0:0:0:0:
168,156,81751,5,0,0:0:0:0:
256,89,81972,2,0,L|256:139,2,50,2|0|8,0:0|0:0|0:0,0:0:0:0:
323,226,82413,2,0,P|332:232|356:263,2,50,2|0|0,0:0|0:0|0:0,0:0:0:0:
156,263,82854,2,0,P|180:232|216:216,2,50,0|0|8,0:0|0:0|0:0,0:0:0:0:
256,336,83295,1,0,0:0:0:0:
365,344,83516,5,4,0:0:0:0:
235,168,83737,1,2,0:0:0:0:
287,265,83957,1,8,0:0:0:0:
224,59,84178,1,2,0:0:0:0:
288,59,84398,5,8,0:0:0:0:
225,265,84619,1,0,0:0:0:0:
277,168,84839,1,8,0:0:0:0:
147,344,85060,1,0,0:0:0:0:
192,166,85281,6,0,P|156:187|126:235,1,100,8|8,0:0|0:0,0:0:0:0:
386,235,85722,2,0,P|356:187|319:166,1,100,8|8,0:0|0:0,0:0:0:0:
256,336,86163,2,0,B|256:296|256:296|260:288|260:288|252:288|252:288|256:280|256:280|256:244,2,100,2|2|0,0:0|0:0|0:0,0:0:0:0:
256,116,87045,1,4,0:0:0:0:
53,227,101163,5,4,0:0:0:0:
129,281,101384,1,2,0:0:0:0:
182,203,101604,2,0,P|194:168|179:114,1,85.0000016212464,8|2,0:0|0:0,0:0:0:0:
53,227,102045,5,0,0:0:0:0:
182,203,102266,1,2,0:0:0:0:
251,311,102487,2,0,P|308:332|386:301,1,127.50000243187,8|0,0:0|0:0,0:0:0:0:
423,261,102928,5,0,0:0:0:0:
390,173,103148,2,0,L|406:82,1,85.0000016212464,2|8,0:0|0:0,0:0:0:0:
277,196,103589,1,2,0:0:0:0:
277,196,103700,1,0,0:0:0:0:
277,196,103810,2,0,L|300:291,1,85.0000016212464,0|2,0:0|0:0,0:0:0:0:
203,117,104251,6,0,P|131:106|77:138,1,127.50000243187,8|0,0:0|0:0,0:0:0:0:
69,154,104692,2,0,L|86:60,1,85.0000016212464,0|2,0:0|0:0,0:0:0:0:
136,299,105134,1,8,0:0:0:0:
225,271,105354,1,2,0:0:0:0:
145,384,105575,2,0,P|101:381|68:346,1,85.0000016212464,0|2,0:0|0:0,0:0:0:0:
162,216,106016,6,0,B|182:170|182:170|139:113|162:43,1,170.000003242493,8|0,0:0|0:0,0:0:0:0:
254,147,106678,1,2,0:0:0:0:
84,180,106898,1,8,0:0:0:0:
190,312,107119,1,2,0:0:0:0:
190,312,107560,5,2,0:0:0:0:
381,357,107781,2,0,P|324:375|262:345,1,127.50000243187,8|0,0:0|0:0,0:0:0:0:
112,283,108222,2,0,P|72:268|17:285,1,85.0000016212464,2|2,0:0|0:0,0:0:0:0:
222,239,108663,2,0,P|245:179|218:105,1,127.50000243187,8|0,0:0|0:0,0:0:0:0:
164,76,109104,2,0,P|196:48|261:50,1,85.0000016212464,0|2,0:0|0:0,0:0:0:0:
166,173,109545,1,8,0:0:0:0:
166,173,109987,5,0,0:0:0:0:
316,241,110208,1,2,0:0:0:0:
373,84,110428,1,8,0:0:0:0:
391,297,110648,2,0,P|354:325|268:315,1,127.50000243187,2|0,0:0|0:0,0:0:0:0:
367,175,111089,2,8,P|324:159|280:169,1,85.0000016212464,2|8,0:0|0:0,0:0:0:0:
282,175,111751,5,0,0:0:0:0:
239,337,111972,1,2,0:0:0:0:
118,232,112192,1,8,0:0:0:0:
51,297,112413,2,0,B|11:248|41:179|41:179|-5:193,1,170.000003242493,2|2,0:0|0:0,0:0:0:0:
150,110,113075,1,8,0:0:0:0:
150,110,113516,5,0,0:0:0:0:
198,272,113737,1,2,0:2:0:0:
375,228,113957,1,8,0:2:0:0:
323,53,114178,1,2,0:2:0:0:
329,55,114619,1,2,0:2:0:0:
315,286,114839,6,0,P|388:312|446:271,1,150.000005722046,8|0,0:0|0:0,0:0:0:0:
258,169,115281,5,6,0:0:0:0:
226,250,115501,1,2,0:0:0:0:
263,330,115722,1,8,0:0:0:0:
346,356,115942,2,0,P|385:366|433:352,1,75.0000028610231,2|0,0:0|0:0,0:0:0:0:
199,265,116384,5,2,0:0:0:0:
276,306,116604,1,8,0:0:0:0:
363,295,116825,1,2,0:0:0:0:
453,142,117045,5,0,0:0:0:0:
374,101,117266,1,2,0:0:0:0:
289,125,117487,1,8,0:0:0:0:
345,320,117707,5,2,0:0:0:0:
429,344,117928,1,0,0:0:0:0:
498,290,118148,1,2,0:0:0:0:
305,103,118369,5,8,0:0:0:0:
217,96,118589,1,2,0:0:0:0:
163,168,118810,2,0,P|124:174|83:155,1,75.0000028610231,0|2,0:0|0:0,0:0:0:0:
24,101,119251,1,8,0:0:0:0:
218,230,119472,6,0,P|241:201|247:160,1,75.0000028610231,2|0,0:0|0:0,0:0:0:0:
157,38,119913,1,2,0:0:0:0:
158,284,120134,6,0,P|186:307|225:310,1,75.0000028610231,8|2,0:0|0:0,0:0:0:0:
312,224,120575,1,0,0:0:0:0:
108,371,120795,6,0,P|131:320|109:228,1,150.000005722046,2|2,0:0|0:0,0:0:0:0:
10,176,121457,1,0,0:0:0:0:
44,346,121678,6,0,P|96:367|189:341,1,150.000005722046,2|2,0:0|0:0,0:0:0:0:
295,249,122339,1,0,0:0:0:0:
311,264,122560,1,2,0:0:0:0:
327,279,122781,1,8,0:0:0:0:
343,294,123001,1,2,0:0:0:0:
286,166,123222,5,0,0:0:0:0:
263,164,123442,1,2,0:0:0:0:
241,169,123663,1,8,0:0:0:0:
225,185,123884,1,2,0:0:0:0:
218,205,124104,6,0,L|164:142,1,75,0|2,0:0|0:0,0:0:0:0:
170,268,124545,2,0,L|106:195,1,89.9999972534181,8|0,0:0|0:0,0:0:0:0:
110,324,124987,6,0,P|182:350|247:297,1,150.000005722046,2|8,0:0|0:0,0:0:0:0:
258,192,125648,1,2,0:0:0:0:
62,139,125869,1,4,0:0:0:0:
355,119,127634,6,0,L|372:55,1,59.9999981689454
157,119,128075,2,0,L|140:55,1,59.9999981689454
323,205,128516,2,0,P|363:210|400:193,1,59.9999981689454
189,205,128957,2,0,P|149:210|112:193,1,59.9999981689454,8|0,0:2|0:0,0:0:0:0:
255,329,129398,5,4,1:2:0:0:
89,367,129619,2,0,P|114:374|166:371,1,75.0000028610231,2|8,0:0|0:0,0:0:0:0:
189,205,130060,1,2,0:0:0:0:
85,57,130281,6,0,P|78:110|117:170,1,112.500004291535,0|0,1:0|0:0,0:0:0:0:
283,169,130722,2,0,L|364:161,1,75.0000028610231,8|2,0:0|0:0,0:0:0:0:
452,318,131163,2,0,L|313:310,1,112.500004291535,0|2,1:0|0:0,0:0:0:0:
262,349,131604,2,0,P|228:351|188:326,1,75.0000028610231,8|2,0:0|0:0,0:0:0:0:
56,369,132045,5,0,1:0:0:0:
194,333,132266,1,2,0:0:0:0:
72,291,132487,1,8,0:0:0:0:
212,257,132707,1,2,0:0:0:0:
12,195,132928,2,0,B|45:216|45:216|80:159|43:95,1,150.000005722046,0|8,1:0|0:0,0:0:0:0:
3,33,133589,1,2,0:0:0:0:
141,145,133810,6,0,P|210:166|280:125,1,150.000005722046,0|8,1:0|0:0,0:0:0:0:
332,61,134472,1,2,0:0:0:0:
159,76,134692,6,0,P|141:155|202:218,1,150.000005722046,0|8,1:0|0:0,0:0:0:0:
257,251,135354,1,2,0:0:0:0:
464,190,135575,5,0,1:0:0:0:
421,268,135795,1,2,0:0:0:0:
352,104,136016,5,8,0:0:0:0:
313,22,136237,1,0,1:0:0:0:
256,252,136457,6,0,P|246:312|286:365,1,112.500004291535,0|2,1:0|0:0,0:0:0:0:
311,191,136898,2,0,P|277:172|229:176,1,75.0000028610231,8|2,0:0|0:0,0:0:0:0:
38,307,137339,5,0,1:0:0:0:
153,226,137560,1,2,0:0:0:0:
107,358,137781,1,8,0:0:0:0:
66,224,138001,1,2,0:0:0:0:
178,308,138222,1,0,1:0:0:0:
311,191,138442,5,2,0:0:0:0:
241,370,138663,2,0,P|263:382|319:368,1,75.0000028610231,8|2,0:0|0:0,0:0:0:0:
245,245,139104,2,0,P|225:230|170:221,1,75.0000028610231,0|2,1:0|0:0,0:0:0:0:
391,224,139545,2,0,P|398:196|391:151,1,75.0000028610231,8|2,0:0|0:0,0:0:0:0:
414,379,139987,1,0,1:0:0:0:
459,301,140207,1,2,0:0:0:0:
273,326,140428,5,8,0:0:0:0:
362,310,140648,1,2,0:0:0:0:
181,350,140869,6,2,L|96:334,1,75.0000028610231,0|2,1:0|0:0,0:0:0:0:
362,310,141310,2,0,P|378:264|355:197,1,112.500004291535,8|2,0:0|0:0,0:0:0:0:
414,135,141751,5,0,1:0:0:0:
298,260,141972,1,2,0:0:0:0:
446,216,142192,1,8,0:0:0:0:
273,180,142413,1,2,0:0:0:0:
159,357,142634,6,0,L|102:369,1,50,0|2,0:0|0:0,0:0:0:0:
34,190,143075,2,0,P|17:151|33:92,1,100,8|6,0:0|0:0,0:0:0:0:
116,68,143737,5,2,0:0:0:0:
148,152,143957,2,0,L|200:220,1,75.0000028610231,0|2,0:0|0:0,0:0:0:0:
364,309,144398,2,0,P|312:284|224:296,1,150.000005722046,0|0,1:0|0:0,0:0:0:0:
128,256,145060,1,2,0:0:0:0:
148,152,145281,6,0,P|200:136|232:104,1,75.0000028610231,0|2,1:0|0:0,0:0:0:0:
364,308,145722,2,0,P|312:292|280:260,1,75.0000028610231,0|2,0:0|0:0,0:0:0:0:
128,256,146163,1,0,1:0:0:0:
219,129,146384,1,2,0:0:0:0:
219,129,146494,1,0,0:0:0:0:
219,129,146604,1,0,0:0:0:0:
113,346,146825,1,2,0:0:0:0:
148,152,147045,6,0,P|197:132|241:129,1,75.0000028610231,0|0,1:0|1:0,0:0:0:0:
113,346,147487,2,0,P|86:337|52:308,1,75.0000028610231,0|0,1:0|1:0,0:0:0:0:
60,120,147928,2,0,P|40:70|37:26,1,75.0000028610231,0|0,1:0|1:0,0:0:0:0:
148,152,148369,1,0,1:0:0:0:
128,256,148589,1,0,1:0:0:0:
220,312,148810,6,0,P|264:336|352:348,1,112.500004291535,4|0,0:0|0:0,0:0:0:0:
233,226,149251,2,0,P|177:238|144:263,1,75.0000028610231,0|6,0:0|0:0,0:0:0:0:
353,199,149692,5,0,0:0:0:0:
465,283,149913,1,2,0:0:0:0:
424,149,150133,1,0,0:0:0:0:
378,281,150354,1,2,0:0:0:0:
493,200,150575,2,0,P|501:121|456:68,1,150.000005722046,4|0,0:0|0:0,0:0:0:0:
353,199,151237,1,2,0:0:0:0:
307,337,151457,5,0,1:0:0:0:
378,281,151677,1,2,0:0:0:0:
194,237,151898,5,0,0:0:0:0:
283,254,152118,1,2,0:0:0:0:
114,279,152339,2,0,P|77:233|61:193,1,75.0000028610231,0|2,1:0|0:0,0:0:0:0:
191,323,152781,2,0,P|125:365|44:333,1,150.000005722046,0|0,0:0|1:0,0:0:0:0:
238,177,153442,2,0,P|231:191|194:237,1,75.0000028610231,2|0,0:0|0:0,0:0:0:0:
104,52,153884,1,2,0:0:0:0:
177,108,154104,6,0,P|230:88|271:90,1,75.0000028610231,0|0,1:0|1:0,0:0:0:0:
108,211,154545,2,0,P|88:158|90:117,1,75.0000028610231,0|0,1:0|1:0,0:0:0:0:
238,177,154987,2,0,P|258:230|256:271,1,75.0000028610231,0|0,1:0|1:0,0:0:0:0:
169,280,155428,2,0,P|116:300|75:298,1,75.0000028610231,0|0,1:0|1:0,0:0:0:0:
108,211,155869,5,0,1:0:0:0:
238,177,156089,1,0,1:0:0:0:
168,280,156310,1,0,1:0:0:0:
298,246,156530,1,0,1:0:0:0:
169,363,156751,2,0,P|136:360|104:336,1,75.0000028610231,0|0,1:0|1:0,0:0:0:0:
238,177,157192,2,0,B|260:168|272:152|272:152|332:148|376:192,1,150.000005722046
28,96,173516,5,4,0:0:0:0:
52,204,173737,1,2,0:0:0:0:
124,288,173957,1,0,0:0:0:0:
216,348,174178,1,2,0:0:0:0:
484,288,174398,5,2,0:0:0:0:
460,180,174619,1,0,0:0:0:0:
388,96,174839,1,2,0:0:0:0:
296,36,175060,1,2,0:0:0:0:
484,72,175280,5,0,0:0:0:0:
388,264,175501,1,2,0:0:0:0:
460,180,175721,1,0,0:0:0:0:
296,324,175942,1,2,0:0:0:0:
28,312,176163,5,2,0:0:0:0:
124,120,176384,1,2,0:0:0:0:
52,204,176604,1,0,0:0:0:0:
216,60,176825,1,2,0:0:0:0:
396,72,177045,5,0,0:0:0:0:
304,132,177266,1,2,0:0:0:0:
232,216,177486,1,0,0:0:0:0:
208,324,177707,1,2,0:0:0:0:
304,324,177928,5,0,0:0:0:0:
280,216,178149,1,2,0:0:0:0:
208,132,178369,1,0,0:0:0:0:
116,72,178590,1,2,0:0:0:0:
184,24,178810,5,0,0:0:0:0:
280,216,179031,1,2,0:0:0:0:
208,132,179251,1,0,0:0:0:0:
372,276,179472,1,2,0:0:0:0:
140,276,179692,5,2,0:0:0:0:
304,132,179913,1,2,0:0:0:0:
232,216,180133,1,0,0:0:0:0:
328,24,180354,1,2,0:0:0:0:
380,128,180575,5,4,0:0:0:0:
302,80,180795,1,2,0:0:0:0:
209,80,181016,1,0,0:0:0:0:
132,128,181236,1,2,0:0:0:0:
200,264,181457,2,0,B|288:296|256:344|224:296|312:264,1,150
304,176,181898,2,0,P|256:164|208:176,1,100,2|2,0:0|0:0,0:0:0:0:
132,256,182339,5,0,0:0:0:0:
209,304,182559,1,2,0:0:0:0:
302,304,182780,1,0,0:0:0:0:
380,256,183000,1,2,0:0:0:0:
304,176,183222,2,0,L|320:104,1,50,0|2,0:0|0:0,0:0:0:0:
208,176,183553,2,0,L|192:104,1,50,0|2,0:0|0:0,0:0:0:0:
256,44,183884,6,0,L|256:148,1,100,2|4,0:0|0:0,0:0:0:0:
256,144,184766,1,2,0:0:0:0:
163,97,184987,1,0,0:0:0:0:
256,44,185207,1,2,0:0:0:0:
348,97,185428,5,0,0:0:0:0:
335,135,185575,1,2,0:0:0:0:
311,167,185722,1,0,0:0:0:0:
236,322,185870,5,0,0:0:0:0:
225,283,186017,1,2,0:0:0:0:
225,244,186164,1,0,0:0:0:0:
194,75,186310,5,0,0:0:0:0:
226,99,186457,1,2,0:0:0:0:
250,131,186604,1,0,0:0:0:0:
374,250,186751,5,0,0:0:0:0:
333,249,186898,1,2,0:0:0:0:
296,237,187045,1,0,0:0:0:0:
126,214,187192,5,2,0:0:0:0:
159,191,187339,1,2,0:0:0:0:
197,179,187486,1,0,0:0:0:0:
296,148,187634,6,0,P|269:89|232:45,1,100,4|2,0:0|0:0,0:0:0:0:
274,248,188075,2,0,P|337:254|394:244,1,100,8|2,0:0|0:0,0:0:0:0:
197,179,188516,2,0,P|160:231|132:312,1,150,0|0,0:0|0:0,0:0:0:0:
176,348,188957,2,0,P|116:304|56:292,1,100,8|0,0:0|0:0,0:0:0:0:
24,104,189398,6,0,P|84:148|144:160,1,100,0|2,0:0|0:0,0:0:0:0:
107,155,189729,1,0,0:0:0:0:
107,155,189839,1,8,0:0:0:0:
156,256,190060,1,2,0:0:0:0:
212,352,190281,2,0,P|268:264|228:176,1,200,0|8,0:0|0:0,0:0:0:0:
196,80,190942,1,0,0:0:0:0:
156,256,191163,6,0,P|220:236|272:204,1,100,0|2,0:0|0:0,0:0:0:0:
484,308,191604,2,0,P|420:328|368:360,1,100,8|2,0:0|0:0,0:0:0:0:
280,128,192045,2,0,P|344:108|396:76,1,100
480,184,192487,2,0,P|416:204|364:236,1,100,8|0,0:0|0:0,0:0:0:0:
300,288,192928,5,0,0:0:0:0:
197,245,193148,1,2,0:0:0:0:
283,177,193369,1,8,0:0:0:0:
208,348,193590,1,2,0:0:0:0:
100,200,193810,1,0,0:0:0:0:
197,245,194031,1,10,0:0:0:0:
108,308,194251,1,2,0:0:0:0:
12,264,194472,1,8,0:0:0:0:
4,156,194692,6,0,P|76:92|180:132,1,200,0|8,0:0|0:0,0:0:0:0:
236,204,195354,1,2,0:0:0:0:
160,284,195575,2,0,B|176:324|176:324|204:328|236:364,1,100
312,124,196016,2,0,B|296:84|296:84|268:80|236:44,1,100,8|0,0:0|0:0,0:0:0:0:
160,124,196457,5,0,0:0:0:0:
236,204,196678,1,2,0:0:0:0:
280,304,196898,2,0,B|324:300|324:300|364:324|420:336|420:336|480:324,1,200,8|0,0:0|0:0,0:0:0:0:
456,130,197560,2,0,P|480:168|500:220,1,100,0|8,0:0|0:0,0:0:0:0:
384,44,198001,1,0,0:0:0:0:
296,108,198222,6,0,P|236:76|204:20,1,100,0|2,0:0|0:0,0:0:0:0:
320,192,198663,2,0,P|252:197|194:168,1,100,8|2,0:0|0:0,0:0:0:0:
396,240,199104,2,0,P|342:281|278:288,1,100
492,230,199545,2,0,P|469:294|419:334,1,100,8|0,0:0|0:0,0:0:0:0:
396,240,199987,5,8,0:0:0:0:
320,192,200208,1,8,0:0:0:0:
228,176,200428,1,8,0:0:0:0:
140,192,200648,1,8,0:0:0:0:
140,192,200869,6,0,P|168:264|200:308,1,112.500004291535,2|0,0:0|0:0,0:0:0:0:
308,368,201310,2,0,P|280:296|248:252,1,112.500004291535,2|0,0:0|0:0,0:0:0:0:
187,292,201751,6,0,P|253:271|288:227,1,100,4|2,0:0|0:0,0:0:0:0:
377,200,202192,2,0,P|326:153|270:146,1,100,8|2,0:0|0:0,0:0:0:0:
202,82,202634,2,0,P|187:150|209:202,1,100
176,192,202964,1,0,0:0:0:0:
156,204,203075,2,0,P|163:231|148:300,1,100,8|0,0:0|0:0,0:0:0:0:
56,244,203516,5,0,0:0:0:0:
72,136,203737,1,2,0:0:0:0:
72,136,203847,1,0,0:0:0:0:
72,136,203957,1,8,0:0:0:0:
156,204,204178,1,2,0:0:0:0:
56,244,204398,1,0,0:0:0:0:
171,97,204619,1,0,0:0:0:0:
240,270,204839,1,8,0:0:0:0:
140,312,205060,1,0,0:0:0:0:
156,204,205281,6,0,P|141:150|145:73,1,100,0|2,0:0|0:0,0:0:0:0:
356,180,205722,2,0,P|370:233|366:310,1,100,8|2,0:0|0:0,0:0:0:0:
244,92,206163,2,0,P|297:77|374:81,1,100
268,292,206604,2,0,P|214:306|137:302,1,100,8|0,0:0|0:0,0:0:0:0:
176,196,207045,5,0,0:0:0:0:
292,120,207266,1,2,0:0:0:0:
299,259,207487,1,8,0:0:0:0:
256,192,207707,1,2,0:0:0:0:
359,186,207928,5,0,0:0:0:0:
208,284,208149,1,10,0:0:0:0:
199,104,208370,1,2,0:0:0:0:
268,171,208589,1,8,0:0:0:0:
176,196,208810,5,0,0:0:0:0:
199,104,209031,1,2,0:0:0:0:
199,104,209141,1,0,0:0:0:0:
199,104,209251,2,0,P|128:116|96:148,1,100,8|2,0:0|0:0,0:0:0:0:
16,88,209692,5,0,0:0:0:0:
199,104,209913,1,0,0:0:0:0:
84,155,210134,1,8,0:0:0:0:
268,172,210355,1,0,0:0:0:0:
124,240,210575,6,0,P|164:200|220:172,1,100,0|2,0:0|0:0,0:0:0:0:
208,60,211016,2,0,P|248:100|276:156,1,100,8|2,0:0|0:0,0:0:0:0:
388,144,211457,2,0,P|348:184|292:212,1,100
304,324,211898,2,0,P|264:284|236:228,1,100,8|0,0:0|0:0,0:0:0:0:
124,240,212339,5,4,0:0:0:0:
318,207,212560,1,2,0:0:0:0:
304,324,212781,5,8,0:0:0:0:
271,128,213001,1,2,0:0:0:0:
388,144,213222,5,8,0:0:0:0:
192,175,213442,1,0,0:0:0:0:
208,60,213663,5,8,0:0:0:0:
239,254,213884,1,0,0:0:0:0:
256,192,214104,12,0,215428,0:0:0:0:
256,316,215869,5,2,0:0:0:0:
138,230,216310,1,2,0:0:0:0:
256,192,216531,1,2,0:0:0:0:
373,230,216751,1,2,0:0:0:0:
328,91,217413,1,2,0:0:0:0:
183,91,217634,1,2,0:0:0:0:
