osu file format v12

[General]
AudioFilename: Daijoubu Bokura (TV Size).mp3
AudioLeadIn: 1500
PreviewTime: 48108
Countdown: 0
SampleSet: Soft
StackLeniency: 0.7
Mode: 0
LetterboxInBreaks: 0

[Editor]
Bookmarks: 14244,22387,27101,54530
DistanceSpacing: 1.2
BeatDivisor: 4
GridSize: 4

[Metadata]
Title:Daijoubu, Bokura (TV Size)
TitleUnicode:大丈夫、僕ら (TV Size)
Artist:RAM WIRE
ArtistUnicode:RAM WIRE
Creator:pimpG
Version:Jonin
Source:Naruto SD: Rock Lee no Seishun Full-Power Ninden
Tags:Shippuuden Spin-off Super Deformed ending Chibi Ninja Shinobi Akatsuki
BeatmapID:219456
BeatmapSetID:78427

[Difficulty]
HPDrainRate:6
CircleSize:3
OverallDifficulty:6
ApproachRate:7
SliderMultiplier:1.6
SliderTickRate:2

[Events]
//Background and Video events
0,0,"BG.jpg",0,0
Video,0,"Daijoubu Bokura (TV Size).flv"
//Break Periods
2,14442,21485
//Storyboard Layer 0 (Background)
//Storyboard Layer 1 (Fail)
//Storyboard Layer 2 (Pass)
//Storyboard Layer 3 (Foreground)
//Storyboard Sound Samples
//Background Colour Transformations
3,100,0,0,0

[TimingPoints]
528,428.571428571429,4,2,0,50,1,0
1385,-100,4,2,1,50,0,0
1492,-100,4,2,0,50,0,0
4813,-100,4,2,1,50,0,0
4920,-100,4,2,0,50,0,0
8242,-100,4,2,1,50,0,0
8349,-100,4,2,0,50,0,0
11670,-100,4,2,1,50,0,0
11778,-100,4,2,0,50,0,0
24099,-100,4,2,1,50,0,0
24206,-100,4,2,0,50,0,0
27742,-100,4,2,0,15,0,0
27956,-100,4,2,0,50,0,0
35670,-100,4,2,2,50,0,0
35778,-100,4,2,0,50,0,0
37385,-100,4,2,2,50,0,0
37492,-100,4,2,0,50,0,0
55385,-100,4,2,0,50,0,1
71242,-100,4,2,2,50,0,1
71349,-100,4,2,0,50,0,1
74670,-100,4,2,2,50,0,1
74778,-100,4,2,0,50,0,1
82813,-100,4,2,0,50,0,0
84528,-100,4,2,0,40,0,0
85385,-100,4,2,0,30,0,0
86242,-100,4,2,0,20,0,0
87099,-100,4,2,0,10,0,0
87956,-100,4,2,0,5,0,0

[Colours]
Combo1 : 255,152,13
Combo2 : 78,78,252
Combo3 : 92,217,0
Combo4 : 251,60,60
SliderBorder : 40,40,40

[HitObjects]
252,60,528,1,4,0:0:0:0:
412,68,956,2,0,P|484:124|492:188,2,160,0|2|2,0:0|0:0|0:0,0:0:0:0:
332,56,2028,1,0,0:0:0:0:
191,132,2456,1,0,0:0:0:0:
228,288,2885,1,2,0:0:0:0:
336,172,3313,6,0,P|384:160|436:180,2,80
264,208,3956,2,0,P|184:240|96:204,2,160,0|2|2,0:0|0:0|0:0,0:0:0:0:
377,94,5242,1,2,0:0:0:0:
441,46,5456,2,0,B|473:94|441:142|441:142|441:202,1,160,0|2,0:0|0:0,0:0:0:0:
441,199,6313,1,0,0:0:0:0:
413,274,6528,5,0,0:0:0:0:
413,274,6742,1,0,0:0:0:0:
337,302,6956,1,2,0:0:0:0:
337,302,7170,1,0,0:0:0:0:
257,294,7385,1,4,0:0:0:0:
116,220,7813,6,0,P|188:164|268:172,2,160,0|2|2,0:0|0:0|0:0,0:0:0:0:
116,220,8885,1,0,0:0:0:0:
256,300,9313,1,0,0:0:0:0:
396,220,9742,1,2,0:0:0:0:
256,139,10170,6,0,L|256:219,2,80,0|2|0,0:0|0:0|0:0,0:0:0:0:
192,91,10813,2,0,B|144:91|144:91|84:123|84:123|40:123,2,160,0|2|2,0:0|0:0|0:0,0:0:0:0:
344,147,12099,1,2,0:0:0:0:
368,223,12313,2,0,P|336:267|224:267,1,160,2|0,0:0|0:0,0:0:0:0:
167,235,12956,5,2,0:0:0:0:
87,243,13170,2,0,P|91:163|151:107,1,160,0|0,0:0|0:0,0:0:0:0:
213,67,13813,1,2,0:0:0:0:
285,102,14027,1,0,0:0:0:0:
354,62,14242,5,4,0:0:0:0:
334,68,22385,5,2,0:0:0:0:
256,52,22599,2,0,P|144:80|100:188,1,240,0|2,0:0|0:0,0:0:0:0:
136,260,23456,2,0,P|80:308|0:296,2,160
189,200,24528,1,0,0:0:0:0:
257,160,24742,2,0,P|313:144|361:164,1,80,2|2,0:0|0:0,0:0:0:0:
480,212,25385,5,0,0:0:0:0:
424,269,25599,2,0,P|472:293|532:269,2,80,0|2|0,0:0|0:0|0:0,0:0:0:0:
372,208,26242,1,4,0:0:0:0:
200,368,27742,5,8,0:0:0:0:
200,368,27956,2,0,B|152:328|152:328|192:288|168:240,1,160,6|0,0:0|0:0,0:0:0:0:
256,216,28599,2,0,L|256:300,1,80,2|8,0:0|0:0,0:0:0:0:
312,368,29028,2,0,B|360:328|360:328|320:288|344:240,1,160,0|2,0:0|0:0,0:0:0:0:
356,148,29670,2,0,B|416:164|416:164|440:216,2,120,0|0|2,0:0|0:0|0:0,0:0:0:0:
264,136,30528,1,8,0:0:0:0:
259,228,30742,2,0,B|202:224|181:183|181:183|125:218,1,160,2|0,0:0|0:0,0:0:0:0:
76,140,31385,6,0,P|88:68|156:20,1,160,0|2,0:0|0:0,0:0:0:0:
284,32,32028,2,0,B|280:72|280:72|256:104,1,80,0|8,0:0|0:0,0:0:0:0:
402,168,32670,1,2,0:0:0:0:
379,246,32885,2,0,P|287:262|235:226,1,160,0|0,0:0|0:0,0:0:0:0:
133,136,33528,2,0,P|225:120|277:156,1,160,0|8,0:0|0:0,0:0:0:0:
364,292,34385,5,2,0:0:0:0:
256,240,34599,1,0,0:0:0:0:
148,292,34813,2,0,P|104:272|80:212,2,80,4|0|0,0:0|0:0|0:0,0:0:0:0:
176,176,35456,2,0,P|168:116|80:72,1,160,2|0,0:0|0:0,0:0:0:0:
20,116,36099,5,0,0:0:0:0:
84,164,36313,2,0,L|204:56,1,160,2|0,0:0|0:0,0:0:0:0:
256,117,36956,1,0,0:0:0:0:
309,56,37170,2,0,L|428:164,1,160,2|0,0:0|0:0,0:0:0:0:
492,116,37813,1,0,0:0:0:0:
492,116,38028,1,2,0:0:0:0:
256,192,38242,12,0,39742,0:0:0:0:
152,152,40385,6,0,B|100:116|52:188|0:152,1,160,2|8,0:0|0:0,0:0:0:0:
36,80,41028,1,0,0:0:0:0:
226,55,41456,5,0,0:0:0:0:
262,127,41670,2,0,P|337:138|386:79,1,160,4|8,0:0|0:0,0:0:0:0:
308,60,42313,2,0,L|365:210,1,160,2|0,0:0|0:0,0:0:0:0:
364,209,42956,1,8,0:0:0:0:
472,328,43385,6,0,P|358:335|316:283,1,160,0|8,0:0|0:0,0:0:0:0:
276,249,44027,2,0,P|247:223|133:230,1,160,2|0,0:0|0:0,0:0:0:0:
68,276,44670,1,8,0:0:0:0:
68,276,45099,6,0,L|36:120,1,160,0|8,0:0|0:0,0:0:0:0:
136,188,45742,2,0,L|104:32,1,160,2|0,0:0|0:0,0:0:0:0:
204,100,46385,1,8,0:0:0:0:
296,232,46813,6,0,B|352:232|352:232|400:192|400:192|472:192,1,160,0|8,0:0|0:0,0:0:0:0:
328,152,47456,2,0,B|272:152|272:152|224:192|224:192|152:192,1,160,2|0,0:0|0:0,0:0:0:0:
104,180,48099,1,8,0:0:0:0:
60,112,48313,1,0,0:0:0:0:
108,48,48527,6,0,B|148:4|216:92|256:52,1,160,4|8,0:0|0:0,0:0:0:0:
333,28,49170,2,0,P|407:54|436:125,1,160,2|0,0:0|0:0,0:0:0:0:
404,200,49813,1,8,0:0:0:0:
440,272,50027,2,0,B|400:320|332:236|288:280,1,160,2|0,0:0|0:0,0:0:0:0:
290,277,50563,1,0,0:0:0:0:
290,277,50670,1,8,0:0:0:0:
246,345,50885,5,2,0:0:0:0:
166,353,51099,2,0,P|94:313|106:225,1,160,0|8,0:0|0:0,0:0:0:0:
150,186,51742,1,2,0:0:0:0:
256,192,51956,12,4,53670,0:0:0:0:
368,120,55385,5,4,0:0:0:0:
432,284,55813,2,0,P|344:292|292:232,1,160,8|0,0:0|0:0,0:0:0:0:
236,180,56456,1,0,0:0:0:0:
152,152,56670,1,8,0:0:0:0:
152,152,56885,2,0,P|112:152|80:176,1,80,2|0,0:0|0:0,0:0:0:0:
0,208,57313,2,0,P|32:248|58:253,1,80,2|8,0:0|0:0,0:0:0:0:
124,312,57742,2,0,P|140:280|136:236,1,80,2|0,0:0|0:0,0:0:0:0:
24,132,58170,6,0,P|12:84|32:32,2,80,0|8|0,0:0|0:0|0:0,0:0:0:0:
24,132,58813,1,0,0:0:0:0:
107,74,59027,2,0,P|120:34|152:-1,1,80,0|8,0:0|0:0,0:0:0:0:
204,72,59456,2,0,P|240:52|284:48,2,80,0|2|0,0:0|0:0|0:0,0:0:0:0:
256,144,60099,1,8,0:0:0:0:
256,232,60313,2,0,L|328:192,1,80
256,232,60742,2,0,L|184:192,1,80,2|8,0:0|0:0,0:0:0:0:
256,232,61170,2,0,L|256:312,1,80
176,276,61599,5,2,0:0:0:0:
336,276,61813,1,8,0:0:0:0:
192,368,62027,1,2,0:0:0:0:
320,368,62242,1,4,0:0:0:0:
436,236,62670,6,0,P|364:180|284:188,1,160,8|0,0:0|0:0,0:0:0:0:
216,212,63313,1,0,0:0:0:0:
148,268,63527,2,0,P|104:304|52:304,2,80,8|0|0,0:0|0:0|0:0,0:0:0:0:
72,224,64170,2,0,P|36:180|36:128,1,80,2|8,0:0|0:0,0:0:0:0:
120,148,64599,2,0,P|156:104|156:52,1,80,2|0,0:0|0:0,0:0:0:0:
236,24,65027,5,0,0:0:0:0:
236,24,65242,1,10,0:0:0:0:
236,24,65456,1,0,0:0:0:0:
332,20,65670,2,0,B|380:20|380:20|440:52|440:52|484:52,2,160,0|10|0,0:0|0:0|0:0,0:0:0:0:
304,112,66742,1,0,0:0:0:0:
216,152,66956,2,0,L|128:152,2,80,8|0|0,0:0|0:0|0:0,0:0:0:0:
232,248,67599,1,0,0:0:0:0:
316,296,67813,6,0,L|400:296,2,80,8|2|0,0:0|0:0|0:0,0:0:0:0:
231,341,68456,1,8,0:0:0:0:
231,341,68670,1,8,0:0:0:0:
136,192,69099,5,4,0:0:0:0:
292,112,69527,2,0,B|336:148|400:76|444:112,2,160,8|0|8,0:0|0:0|0:0,0:0:0:0:
216,68,70599,2,0,B|172:32|108:104|64:68,2,160,2|2|2,0:0|0:0|0:0,0:0:0:0:
320,208,71885,5,0,0:0:0:0:
256,268,72099,1,8,0:0:0:0:
192,208,72313,1,2,0:0:0:0:
256,148,72527,1,2,0:0:0:0:
340,292,72742,6,0,L|424:292,1,80,0|8,0:0|0:0,0:0:0:0:
172,292,73170,2,0,L|92:292,1,80,0|2,0:0|0:0,0:0:0:0:
128,120,73813,5,8,0:0:0:0:
184,52,74027,2,0,P|256:23|328:52,2,160,2|2|2,0:0|0:0|0:0,0:0:0:0:
256,116,75099,5,0,0:0:0:0:
316,192,75313,2,0,P|344:224|388:240,1,80,2|8,0:0|0:0,0:0:0:0:
196,192,75742,2,0,P|168:224|124:240,1,80,2|4,0:0|0:0,0:0:0:0:
256,368,76385,5,8,0:0:0:0:
372,216,76813,1,0,0:0:0:0:
140,216,77242,1,8,0:0:0:0:
208,284,77456,2,0,B|192:320|192:320|156:340,1,80,2|0,0:0|0:0,0:0:0:0:
304,284,77885,2,0,B|320:320|320:320|356:340,1,80,0|8,0:0|0:0,0:0:0:0:
256,212,78313,2,0,L|256:128,1,80,2|0,0:0|0:0,0:0:0:0:
304,56,78742,5,0,0:0:0:0:
208,56,78956,1,8,0:0:0:0:
340,148,79170,1,0,0:0:0:0:
172,148,79385,1,2,0:0:0:0:
256,212,79599,5,0,0:0:0:0:
340,148,79813,1,8,0:0:0:0:
304,56,80027,1,0,0:0:0:0:
208,56,80242,1,2,0:0:0:0:
108,220,80670,5,10,0:0:0:0:
67,307,80885,2,0,P|165:302|201:255,1,160,2|0,0:0|0:0,0:0:0:0:
216,163,81527,2,0,L|304:163,1,80,8|0,0:0|0:0,0:0:0:0:
352,84,81956,5,0,0:0:0:0:
444,114,82170,1,0,0:0:0:0:
444,210,82385,1,8,0:0:0:0:
352,240,82599,1,0,0:0:0:0:
296,162,82813,1,4,0:0:0:0:
256,192,83242,12,0,88599,0:0:0:0:
