osu file format v12

[General]
AudioFilename: Daijoubu Bokura (TV Size).mp3
AudioLeadIn: 1500
PreviewTime: 48108
Countdown: 0
SampleSet: Soft
StackLeniency: 0.7
Mode: 0
LetterboxInBreaks: 0

[Editor]
Bookmarks: 14244,22387,27101,54530
DistanceSpacing: 1
BeatDivisor: 4
GridSize: 4

[Metadata]
Title:Daijoubu, Bokura (TV Size)
TitleUnicode:大丈夫、僕ら (TV Size)
Artist:RAM WIRE
ArtistUnicode:RAM WIRE
Creator:pimpG
Version:Chunin
Source:Naruto SD: Rock Lee no Seishun Full-Power Ninden
Tags:Shippuuden Spin-off Super Deformed ending Chibi Ninja Shinobi Akatsuki
BeatmapID:219454
BeatmapSetID:78427

[Difficulty]
HPDrainRate:4
CircleSize:2
OverallDifficulty:4
ApproachRate:4
SliderMultiplier:1.4
SliderTickRate:2

[Events]
//Background and Video events
0,0,"BG.jpg",0,0
Video,0,"Daijoubu Bokura (TV Size).flv"
//Break Periods
2,14444,21065
//Storyboard Layer 0 (Background)
//Storyboard Layer 1 (Fail)
//Storyboard Layer 2 (Pass)
//Storyboard Layer 3 (Foreground)
//Storyboard Sound Samples
//Background Colour Transformations
3,100,0,0,0

[TimingPoints]
528,428.571428571429,4,2,0,50,1,0
1385,-100,4,2,3,50,0,0
1492,-100,4,2,0,50,0,0
1813,-100,4,2,1,50,0,0
1920,-100,4,2,0,50,0,0
4813,-100,4,2,1,50,0,0
4920,-100,4,2,0,50,0,0
6956,-100,4,2,1,50,0,0
7063,-100,4,2,0,50,0,0
8242,-100,4,2,1,50,0,0
8349,-100,4,2,0,50,0,0
10385,-100,4,2,1,50,0,0
10492,-100,4,2,0,50,0,0
11670,-100,4,2,1,50,0,0
11778,-100,4,2,0,50,0,0
12099,-100,4,2,1,50,0,0
12206,-100,4,2,0,50,0,0
23242,-100,4,2,1,50,0,0
23349,-100,4,2,0,50,0,0
24099,-100,4,2,1,50,0,0
24206,-100,4,2,0,50,0,0
25813,-100,4,2,1,50,0,0
25920,-100,4,2,0,50,0,0
27742,-100,4,2,0,15,0,0
27956,-100,4,2,0,50,0,0
28813,-100,4,2,2,50,0,0
28920,-100,4,2,0,50,0,0
35670,-100,4,2,2,50,0,0
35778,-100,4,2,0,50,0,0
37385,-100,4,2,2,50,0,0
37492,-100,4,2,0,50,0,0
40813,-100,4,2,2,50,0,0
40920,-100,4,2,0,50,0,0
47242,-100,4,2,2,50,0,0
47349,-100,4,2,0,50,0,0
50670,-100,4,2,2,50,0,0
50778,-100,4,2,0,50,0,0
55385,-100,4,2,0,50,0,1
57528,-100,4,2,2,50,0,1
57635,-100,4,2,0,50,0,1
60956,-100,4,2,2,50,0,1
61063,-100,4,2,0,50,0,1
61813,-100,4,2,2,50,0,1
62028,-100,4,2,1,50,0,1
62135,-100,4,2,0,50,0,1
64385,-100,4,2,2,50,0,1
64492,-100,4,2,0,50,0,1
71242,-100,4,2,2,50,0,1
71349,-100,4,2,0,50,0,1
74670,-100,4,2,2,50,0,1
74778,-100,4,2,0,50,0,1
78099,-100,4,2,2,50,0,1
78206,-100,4,2,0,50,0,1
82385,-100,4,2,2,50,0,1
82492,-100,4,2,0,50,0,1
82813,-100,4,2,0,50,0,0
84528,-100,4,2,0,40,0,0
85385,-100,4,2,0,30,0,0
86242,-100,4,2,0,20,0,0
87099,-100,4,2,0,10,0,0
87956,-100,4,2,0,5,0,0

[Colours]
Combo1 : 255,152,13
Combo2 : 78,78,252
Combo3 : 92,217,0
Combo4 : 251,60,60
SliderBorder : 40,40,40

[HitObjects]
112,279,956,2,0,P|256:363|400:279,1,350
326,159,2456,1,0,0:0:0:0:
186,159,2885,1,2,0:0:0:0:
160,21,3313,6,0,B|224:21|256:57|256:57|288:21|352:21,1,210
468,100,4385,1,2,0:0:0:0:
431,235,4813,1,2,0:0:0:0:
291,246,5242,2,0,L|219:246,1,70,2|0,0:0|0:0,0:0:0:0:
81,235,5885,1,2,0:0:0:0:
44,100,6313,1,0,0:0:0:0:
184,104,6742,6,0,B|176:60|232:84|256:40|256:40|280:84|336:60|328:104,1,210,0|4,0:0|0:0,0:0:0:0:
256,224,7813,6,0,L|396:224,1,140,0|2,0:0|0:0,0:0:0:0:
290,316,8670,2,0,L|218:316,1,70,2|0,0:0|0:0,0:0:0:0:
116,224,9313,2,0,L|256:224,1,140,0|2,0:0|0:0,0:0:0:0:
304,92,10170,6,0,P|388:157|392:264,1,210
256,275,11242,1,2,0:0:0:0:
116,254,11670,2,0,P|123:157|208:92,2,210,2|2|0,0:0|0:0|0:0,0:0:0:0:
256,192,13170,12,4,14242,0:0:0:0:
124,192,22385,5,2,0:0:0:0:
124,192,22599,2,0,B|200:120|328:280|408:148,2,280
220,294,24742,2,0,P|256:302|292:294,1,70,0|2,0:0|0:0,0:0:0:0:
436,148,25599,6,0,P|388:96|316:92,1,140
256,116,26242,1,4,0:0:0:0:
316,358,27742,5,8,0:0:0:0:
384,370,27956,2,0,P|440:318|432:246,1,140,6|0,0:0|0:0,0:0:0:0:
388,210,28599,2,0,B|344:210|344:210|300:238|300:238|256:238,1,140,2|0,0:0|0:0,0:0:0:0:
127,297,29456,2,0,P|95:237|126:177,1,140,2|0,0:0|0:0,0:0:0:0:
256,128,30313,2,0,L|256:38,1,70,2|8,0:0|0:0,0:0:0:0:
186,48,30742,6,0,P|122:20|62:48,2,140,2|0|0,0:0|0:0|0:0,0:0:0:0:
186,48,31813,1,0,0:0:0:0:
256,169,32242,1,8,0:0:0:0:
326,48,32885,6,0,P|390:20|450:48,2,140,2|0|0,0:0|0:0|0:0,0:0:0:0:
326,48,33956,1,8,0:0:0:0:
256,244,34599,5,0,0:0:0:0:
256,244,34813,2,0,L|256:172,2,70,6|0|0,0:0|0:0|0:0,0:0:0:0:
296,302,35456,2,0,P|356:334|416:302,1,140,2|0,0:0|0:0,0:0:0:0:
358,175,36313,2,0,P|339:110|274:91,1,140,0|2,0:0|0:0,0:0:0:0:
144,36,37170,2,0,P|112:97|145:156,2,140,0|2|2,0:0|0:0|0:0,0:0:0:0:
256,192,38242,12,0,39742,0:0:0:0:
144,196,40385,6,0,B|162:277|242:279|242:279|263:316|252:363,1,210,2|0,0:0|0:0,0:0:0:0:
392,368,41456,5,0,0:0:0:0:
460,352,41670,2,0,P|504:300|492:216,1,140,6|8,0:0|0:0,0:0:0:0:
368,180,42528,2,0,P|360:220|376:264,2,70,2|2|8,0:0|0:0|0:0,0:0:0:0:
436,56,43385,2,0,P|368:32|304:60,1,140,2|8,0:0|0:0,0:0:0:0:
212,160,44242,2,0,P|248:184|292:188,2,70,0|2|8,0:0|0:0|0:0,0:0:0:0:
110,63,45099,5,0,0:0:0:0:
36,184,45527,2,0,B|21:216|21:216|27:254,1,70,8|0,0:0|0:0,0:0:0:0:
144,324,46170,2,0,B|158:291|158:291|152:253,1,70,0|8,0:0|0:0,0:0:0:0:
156,116,46813,6,0,B|224:72|284:164|356:116,2,210,0|2|8,0:0|0:0|0:0,0:0:0:0:
80,236,48527,5,4,0:0:0:0:
216,196,48956,2,0,P|252:220|268:256,1,70,8|2,0:0|0:0,0:0:0:0:
384,320,49599,2,0,P|360:356|324:372,2,70,0|10|0,0:0|0:0|0:0,0:0:0:0:
424,264,50242,2,0,B|476:184|372:144|424:64,2,210,0|2|8,0:0|0:0|0:0,0:0:0:0:
256,192,51956,12,4,53670,0:0:0:0:
208,64,55385,5,4,0:0:0:0:
316,156,55813,2,0,B|368:156|368:156|392:116|440:112,2,140,8|0|8,0:0|0:0|0:0,0:0:0:0:
245,153,56885,2,0,P|181:169|189:277,2,140,2|2|2,0:0|0:0|0:0,0:0:0:0:
340,256,58170,6,0,L|268:256,2,70,0|8|0,0:0|0:0|0:0,0:0:0:0:
392,304,58813,2,0,P|460:272|432:200,2,140,0|8|2,0:0|0:0|0:0,0:0:0:0:
256,336,60099,1,8,0:0:0:0:
256,336,60313,1,0,0:0:0:0:
120,304,60742,2,0,P|52:272|80:200,1,140,2|0,0:0|0:0,0:0:0:0:
76,80,61599,6,0,B|160:80|168:124|176:168|256:168,1,210,2|4,0:0|0:0,0:0:0:0:
340,56,62670,6,0,B|380:36|424:56|424:56|476:56,1,140,8|0,0:0|0:0,0:0:0:0:
380,160,63527,2,0,L|416:236,1,70,8|0,0:0|0:0,0:0:0:0:
476,348,64170,2,0,B|436:368|392:348|392:348|340:348,1,140,2|2,0:0|0:0,0:0:0:0:
256,236,65027,6,0,L|256:308,2,70,0|10|0,0:0|0:0|0:0,0:0:0:0:
192,208,65670,2,0,B|152:208|152:208|108:244|108:244|64:244,2,140,0|10|0,0:0|0:0|0:0,0:0:0:0:
332,208,66956,2,0,P|376:224|400:256,2,70,8|0|0,0:0|0:0|0:0,0:0:0:0:
221,293,67813,6,0,P|189:321|133:329,2,70,8|2|0,0:0|0:0|0:0,0:0:0:0:
291,293,68456,2,0,P|323:321|379:329,2,70,8|8|0,0:0|0:0|0:0,0:0:0:0:
256,224,69099,5,4,0:0:0:0:
256,84,69527,2,0,P|324:60|392:80,1,140,8|0,0:0|0:0,0:0:0:0:
256,84,70385,2,0,L|188:64,1,70,8|2,0:0|0:0,0:0:0:0:
52,28,71027,2,0,B|96:40|96:40|80:96|120:128,1,140,2|2,0:0|0:0,0:0:0:0:
256,144,71885,5,0,0:0:0:0:
236,211,72099,1,8,0:0:0:0:
180,252,72313,2,0,P|148:260|112:252,1,70,0|2,0:0|0:0,0:0:0:0:
76,192,72742,2,0,L|0:192,2,70,0|8|0,0:0|0:0|0:0,0:0:0:0:
128,144,73385,2,0,P|192:120|256:144,1,140,2|8,0:0|0:0,0:0:0:0:
256,144,74027,1,2,0:0:0:0:
192,268,74456,2,0,P|256:292|320:268,1,140,2|2,0:0|0:0,0:0:0:0:
460,292,75313,6,0,B|452:328|452:328|424:348,2,70,2|8|2,0:0|0:0|0:0,0:0:0:0:
416,236,75956,1,4,0:0:0:0:
389,97,76385,6,0,B|421:65|421:65|473:57|473:57|501:25,2,140,8|0|8,0:0|0:0|0:0,0:0:0:0:
408,164,77456,2,0,P|348:204|292:164,2,140,2|0|2,0:0|0:0|0:0,0:0:0:0:
349,36,78742,6,0,L|291:75,3,70,0|8|0|2,0:0|0:0|0:0|0:0,0:0:0:0:
221,76,79599,2,0,L|163:36,3,70,0|8|0|2,0:0|0:0|0:0|0:0,0:0:0:0:
184,176,80670,1,10,0:0:0:0:
184,176,80885,1,2,0:0:0:0:
324,176,81313,1,0,0:0:0:0:
324,176,81527,1,8,0:0:0:0:
376,306,81956,6,0,P|256:367|136:306,1,280,0|4,0:0|0:0,0:0:0:0:
256,192,83242,12,0,88599,0:0:0:0:
