osu file format v12

[General]
AudioFilename: .mp3
AudioLeadIn: 1500
PreviewTime: 75054
Countdown: 0
SampleSet: Normal
StackLeniency: 0.7
Mode: 0
LetterboxInBreaks: 0
EpilepsyWarning: 1
WidescreenStoryboard: 0

[Editor]
Bookmarks: 28883
DistanceSpacing: 0.15
BeatDivisor: 6
GridSize: 4

[Metadata]
Title:Amaotoko
TitleUnicode:雨音子
Artist:RADWIMPS
ArtistUnicode:RADWIMPS
Creator:Zero__wind
Version:Insane
Source:
Tags:アルトコロニーの定理 Sun Rainbow
BeatmapID:269033
BeatmapSetID:101577

[Difficulty]
HPDrainRate:7
CircleSize:4
OverallDifficulty:7
ApproachRate:8
SliderMultiplier:1.1
SliderTickRate:1

[Events]
//Background and Video events
0,0,"bg.jpg",0,0
//Break Periods
2,157383,163995
//Storyboard Layer 0 (Background)
//Storyboard Layer 1 (Fail)
//Storyboard Layer 2 (Pass)
//Storyboard Layer 3 (Foreground)
//Storyboard Sound Samples
//Background Colour Transformations
3,100,255,255,255

[TimingPoints]
1087.06501104057,487.80487804878,4,2,2,30,1,0
1574,-100,4,2,3,30,0,0
4989,-100,4,2,2,30,0,0
5477,-100,4,2,3,30,0,0
6940,-100,4,2,2,30,0,0
7428,-100,4,2,3,30,0,0
8891,-100,4,2,2,30,0,0
10843,-100,4,2,3,30,0,0
12794,-100,4,2,2,30,0,0
13282,-100,4,2,3,30,0,0
14745,-100,4,2,2,30,0,0
15233,-100,4,2,3,30,0,0
15721,-100,4,2,3,10,0,0
16696,-50,4,1,7,50,0,0
16818,-50,4,1,1,50,0,0
20111,-50,4,1,2,50,0,0
20233,-50,4,1,1,50,0,0
20355,-50,4,1,2,50,0,0
20599,-50,4,1,1,50,0,0
24013,-50,4,1,2,50,0,0
24135,-50,4,1,1,50,0,0
24257,-50,4,1,2,50,0,0
24379,-50,4,1,1,50,0,0
24501,-50,4,1,7,50,0,0
24623,-50,4,1,1,50,0,0
27916,-50,4,1,2,50,0,0
28038,-50,4,1,1,50,0,0
28160,-50,4,1,2,50,0,0
28404,-50,4,1,1,50,0,0
31818,-50,4,1,2,50,0,0
31940,-50,4,1,1,50,0,0
32062,-50,4,2,2,50,0,0
32306,-66.6666666666667,4,2,6,50,0,0
43648,-66.6666666666667,4,2,6,30,0,0
43769,-66.6666666666667,4,2,6,50,0,0
47916,-66.6666666666667,4,2,7,60,0,0
51574,-66.6666666666667,4,2,7,50,0,0
51818,-66.6666666666667,4,2,7,60,0,0
55477,-66.6666666666667,4,2,7,50,0,0
55721,-66.6666666666667,4,2,7,60,0,0
59379,-66.6666666666667,4,2,7,50,0,0
59623,-66.6666666666667,4,2,7,60,0,0
62550,-100,4,2,17,30,0,0
63038,-100,4,2,17,25,0,0
63526,-55.5555555555556,4,2,9,35,0,0
63769,-55.5555555555556,4,2,9,50,0,0
67428,-76.9230769230769,4,2,9,30,0,0
67672,-76.9230769230769,4,2,9,30,0,0
67916,-76.9230769230769,4,2,16,40,0,0
70111,-76.9230769230769,4,2,6,60,0,0
70355,-76.9230769230769,4,2,16,35,0,0
71087,-76.9230769230769,4,2,16,40,0,0
71330,-55.5555555555556,4,2,9,35,0,0
71574,-55.5555555555556,4,2,9,50,0,0
74501,-55.5555555555556,4,2,9,60,0,0
74745,-55.5555555555556,4,2,5,60,0,0
74989,-55.5555555555556,4,2,9,50,0,0
75233,-55.5555555555556,4,1,7,50,0,1
75477,-55.5555555555556,4,1,14,70,0,1
79501,-55.5555555555556,4,1,14,10,0,1
79623,-55.5555555555556,4,1,14,70,0,1
90111,-55.5555555555556,4,2,7,90,0,1
90355,-55.5555555555556,4,1,14,70,0,1
90843,-50,4,1,7,50,0,0
90965,-50,4,1,1,50,0,0
94257,-50,4,1,2,50,0,0
94379,-50,4,1,1,50,0,0
94501,-50,4,1,2,50,0,0
94745,-50,4,1,1,50,0,0
98648,-66.6666666666667,4,2,8,40,0,0
101818,-66.6666666666667,4,2,18,50,0,0
102550,-66.6666666666667,4,2,8,40,0,0
105721,-66.6666666666667,4,2,18,50,0,0
106452,-66.6666666666667,4,2,8,40,0,0
109623,-66.6666666666667,4,2,18,50,0,0
110355,-66.6666666666667,4,2,8,40,0,0
113282,-66.6666666666667,4,2,21,50,0,0
114257,-55.5555555555556,4,2,9,35,0,0
114501,-55.5555555555556,4,2,9,50,0,0
118160,-55.5555555555556,4,2,8,40,0,0
121330,-55.5555555555556,4,2,21,40,0,0
121452,-55.5555555555556,4,2,9,50,0,0
121574,-55.5555555555556,4,2,21,40,0,0
122062,-55.5555555555556,4,1,7,40,0,0
122062,-55.5555555555556,4,2,9,35,0,0
122306,-55.5555555555556,4,2,9,50,0,0
125233,-55.5555555555556,4,1,23,60,0,0
125965,-55.5555555555556,4,1,7,50,0,1
126209,-55.5555555555556,4,1,14,70,0,1
130233,-55.5555555555556,4,1,14,10,0,1
130355,-55.5555555555556,4,1,14,70,0,1
134135,-55.5555555555556,4,1,14,10,0,1
134257,-55.5555555555556,4,1,14,70,0,1
141574,-66.6666666666667,4,2,7,50,0,0
141818,-66.6666666666667,4,2,19,50,0,0
143038,-66.6666666666667,4,2,9,70,0,0
143282,-66.6666666666667,4,2,19,50,0,0
144013,-66.6666666666667,4,2,9,70,0,0
144257,-66.6666666666667,4,2,19,50,0,0
144989,-66.6666666666667,4,2,9,70,0,0
145233,-66.6666666666667,4,2,19,50,0,0
146940,-66.6666666666667,4,2,9,70,0,0
147184,-66.6666666666667,4,2,19,50,0,0
147916,-66.6666666666667,4,2,9,70,0,0
147997,-66.6666666666667,4,2,19,50,0,0
148891,-66.6666666666667,4,2,9,70,0,0
148973,-66.6666666666667,4,2,19,50,0,0
149461,-66.6666666666667,4,2,19,40,0,0
149867,-66.6666666666667,4,2,9,70,0,0
149948,-66.6666666666667,4,2,19,40,0,0
150355,-66.6666666666667,4,2,19,50,0,0
150436,-66.6666666666667,4,2,19,40,0,0
150843,-66.6666666666667,4,2,9,70,0,0
150924,-66.6666666666667,4,2,19,40,0,0
151330,-66.6666666666667,4,2,19,50,0,0
151412,-66.6666666666667,4,2,19,40,0,0
151818,-66.6666666666667,4,2,9,70,0,0
151900,-66.6666666666667,4,2,19,40,0,0
152306,-66.6666666666667,4,2,19,50,0,0
152387,-66.6666666666667,4,2,19,40,0,0
152794,-66.6666666666667,4,2,9,70,0,0
152916,-66.6666666666667,4,2,19,40,0,0
153282,-55.5555555555556,4,2,19,50,0,0
153769,-66.6666666666667,4,2,9,70,0,0
154013,-66.6666666666667,4,2,19,50,0,0
155721,-66.6666666666667,4,2,9,70,0,0
155843,-66.6666666666667,4,2,19,50,0,0
156696,-66.6666666666667,4,2,16,50,0,0
164745,-66.6666666666667,4,2,25,40,0,0
170111,-66.6666666666667,4,2,25,45,0,0
172794,-66.6666666666667,4,2,25,55,0,0
173769,-55.5555555555556,4,2,9,50,0,0
174013,-55.5555555555556,4,2,15,60,0,0
185477,-55.5555555555556,4,2,5,40,0,0
185965,-100,4,2,5,20,0,0
189867,-50,4,1,7,50,0,1
190111,-50,4,1,14,70,0,1
194135,-50,4,1,14,10,0,1
194257,-50,4,1,14,70,0,1
201940,-50,4,1,14,10,0,1
202062,-50,4,1,14,70,0,1
204989,-50,4,1,14,60,0,1
212794,-66.6666666666667,4,1,14,60,0,1
213282,-100,4,2,7,40,0,0

[Colours]
Combo1 : 168,98,143
Combo2 : 245,234,126
Combo3 : 94,94,174
Combo4 : 202,205,184
Combo5 : 73,54,41

[HitObjects]
172,148,1087,2,0,P|232:160|292:136,1,110,2|0,0:0|0:0,0:0:0:0:
408,44,2062,2,0,P|438:92|444:148,1,110,0|0,0:0|0:0,0:0:0:0:
468,308,3038,2,0,P|400:296|372:264,1,110,2|0,0:0|0:0,0:0:0:0:
328,200,3769,1,2,0:0:0:0:
255,242,4013,2,0,L|199:274,1,55
199,186,4501,2,0,L|250:156,1,55
324,124,4989,6,0,P|274:78|230:75,1,110,2|2,0:0|0:0,0:0:0:0:
80,132,5965,2,0,P|48:72|48:28,2,110,0|0|2,0:0|0:0|0:0,0:0:0:0:
192,252,7428,2,0,P|226:311|226:353,2,110,2|0|0,0:0|0:0|0:0,0:0:0:0:
40,364,8891,6,0,P|80:363|138:328,1,110,2|0,0:0|0:0,0:0:0:0:
214,164,9867,2,0,P|174:165|116:200,1,110
280,224,10843,1,2,0:0:0:0:
280,224,11330,2,0,L|335:224,1,55,0|2,0:0|0:0,0:0:0:0:
369,147,11818,2,0,L|314:147,1,55
406,269,12306,2,0,P|414:249|420:216,2,55,0|0|2,0:0|0:0|0:0,0:0:0:0:
244,288,13282,6,0,P|268:344|304:376,2,110,2|0|0,0:0|0:0|0:0,0:0:0:0:
108,192,14745,1,2,0:0:0:0:
244,96,15233,2,0,P|268:40|304:8,2,110,2|0|0,0:0|0:0|0:0,0:0:0:0:
388,48,16696,6,0,P|390:22|387:-6,1,55,4|0,0:0|0:0,0:0:0:0:
360,124,16940,2,0,P|392:127|426:122,1,55
287,65,17184,2,0,P|271:112|281:170,1,110,2|0,0:0|0:0,0:0:0:0:
344,228,17550,1,0,0:0:0:0:
344,228,17672,2,0,P|344:260|336:288,1,55
280,336,17916,6,0,P|220:336|164:324,1,110,2|0,0:2|0:0,0:0:0:0:
84,288,18282,2,0,P|60:304|40:324,1,55
160,220,18526,2,0,P|134:198|109:187,1,55,0|2,0:0|0:0,0:0:0:0:
308,8,18891,2,0,P|303:39|306:63,1,55
240,248,19135,2,0,P|245:217|242:193,1,55
405,103,19379,2,0,P|368:140|312:158,1,110,2|0,0:2|0:0,0:0:0:0:
244,112,19745,1,0,0:0:0:0:
244,112,19867,2,0,P|214:100|192:88,1,55
28,40,20111,2,0,P|48:68|62:82,2,55,2|2|2,0:0|0:0|0:2,0:0:0:0:
108,184,20599,5,4,0:0:0:0:
108,184,20721,1,0,0:0:0:0:
108,184,20843,2,0,P|135:167|157:142,1,55
8,192,21087,2,0,P|26:241|76:278,1,110,2|0,0:0|0:0,0:0:0:0:
111,281,21452,1,0,0:0:0:0:
152,277,21574,1,0,0:0:0:0:
190,262,21696,1,0,0:0:0:0:
228,244,21818,1,2,0:2:0:0:
364,156,22062,5,0,0:0:0:0:
385,191,22184,1,0,0:0:0:0:
394,231,22306,1,0,0:0:0:0:
391,272,22428,1,0,0:0:0:0:
376,309,22550,1,2,0:0:0:0:
276,108,22794,2,0,P|282:137|292:160,1,55
408,80,23038,2,0,P|375:72|351:71,1,55
252,324,23282,2,0,P|296:292|312:240,1,110,2|0,0:2|0:0,0:0:0:0:
292,160,23648,1,0,0:0:0:0:
292,160,23769,2,0,P|286:131|276:108,1,55
236,12,24013,2,0,P|224:40|204:64,1,55,2|2,0:0|0:0,0:0:0:0:
200,152,24257,6,0,P|140:120|120:83,1,110,2|4,0:2|0:0,0:0:0:0:
32,80,24623,1,0,0:0:0:0:
32,80,24745,2,0,P|42:47|55:27,1,55
128,90,24989,2,0,P|177:136|187:177,1,110,2|0,0:0|0:0,0:0:0:0:
132,244,25355,2,0,P|113:265|88:284,1,55
200,324,25599,2,0,P|224:336|252:344,1,55,0|2,0:0|0:2,0:0:0:0:
404,244,25965,6,0,P|379:222|361:212,1,55
276,148,26209,2,0,P|265:173|255:203,1,55
232,352,26452,2,0,P|292:332|327:302,1,110,2|0,0:0|0:0,0:0:0:0:
396,248,26818,1,0,0:0:0:0:
396,248,26940,2,0,P|424:232|448:224,1,55
327,302,27184,2,0,P|308:244|324:197,1,110,2|0,0:2|0:0,0:0:0:0:
388,140,27550,2,0,P|412:128|439:123,1,55
497,12,27794,2,0,P|485:48|473:68,1,55,0|2,0:0|0:0,0:0:0:0:
388,140,28038,2,0,P|356:132|336:124,1,55,2|2,0:0|0:2,0:0:0:0:
228,232,28404,5,4,0:0:0:0:
190,203,28526,1,0,0:0:0:0:
172,158,28648,1,0,0:0:0:0:
188,107,28769,1,0,0:0:0:0:
252,156,28891,2,0,P|264:95|243:51,1,110,2|0,0:0|0:0,0:0:0:0:
160,32,29257,1,0,0:0:0:0:
160,32,29379,2,0,P|128:24|104:16,1,55
16,40,29623,6,0,P|45:88|96:111,1,110,2|0,0:2|0:0,0:0:0:0:
166,159,29989,1,0,0:0:0:0:
166,159,30111,2,0,P|154:189|128:216,1,55
72,320,30355,2,0,P|75:269|120:227,1,110,2|0,0:0|0:0,0:0:0:0:
166,159,30721,1,0,0:0:0:0:
166,159,30843,2,0,P|196:167|220:172,1,55
288,112,31087,2,0,P|306:168|296:220,1,110,2|0,0:2|0:0,0:0:0:0:
236,280,31452,1,0,0:0:0:0:
236,280,31574,2,0,P|216:308|200:324,1,55
316,288,31818,2,0,P|340:284|372:284,1,55,2|2,0:0|0:0,0:0:0:0:
304,316,32062,6,0,P|347:309|400:308,1,82.5,2|0,0:0|0:0,0:0:0:0:
408,336,32306,6,0,P|431:315|439:265,2,82.5000031471254,2|0|0,0:0|0:0|0:0,0:0:0:0:
316,288,33038,1,8,0:0:0:0:
289,172,33282,1,0,0:0:0:0:
388,108,33526,1,2,0:0:0:0:
388,108,34013,2,0,P|345:89|313:64,1,82.5000031471254,0|2,0:0|0:0,0:0:0:0:
200,12,34501,1,0,0:0:0:0:
200,12,34623,1,2,0:0:0:0:
200,12,34745,2,0,P|212:52|208:92,1,82.5000031471254,0|8,0:0|0:0,0:0:0:0:
208,192,35233,2,0,P|252:172|276:140,2,82.5000031471254,0|2|8,0:0|0:0|0:0,0:0:0:0:
108,200,35965,1,0,0:0:0:0:
112,100,36209,6,0,P|108:48|92:12,1,82.5000031471254,2|0,0:0|0:0,0:0:0:0:
16,76,36696,2,0,P|20:128|36:164,1,82.5000031471254,0|8,0:0|0:0,0:0:0:0:
56,252,37184,1,0,0:0:0:0:
4,336,37428,1,2,0:0:0:0:
4,336,37916,2,0,P|50:351|93:346,1,82.5000031471254,0|2,0:0|0:0,0:0:0:0:
192,280,38404,1,0,0:0:0:0:
192,280,38526,1,2,0:0:0:0:
192,280,38648,1,0,0:0:0:0:
256,356,38891,1,8,0:0:0:0:
352,340,39135,2,0,P|392:316|416:280,1,82.5000031471254
508,264,39623,1,8,0:0:0:0:
464,372,39867,1,0,0:0:0:0:
352,340,40111,6,0,P|316:308|302:273,1,82.5000031471254,2|0,0:0|0:0,0:0:0:0:
292,180,40599,1,0,0:0:0:0:
244,88,40843,1,8,0:0:0:0:
292,180,41087,2,0,P|243:188|209:182,1,82.5000031471254,0|2,0:0|0:0,0:0:0:0:
376,96,41818,1,0,0:0:0:0:
376,96,41940,1,0,0:0:0:0:
376,96,42062,2,0,P|403:141|406:178,1,82.5000031471254,2|0,0:0|0:0,0:0:0:0:
464,88,42428,2,0,P|458:65|458:43,1,41.2500015735627,2|0,0:0|0:0,0:0:0:0:
304,4,42794,1,8,0:0:0:0:
212,36,43038,2,0,P|164:44|128:40,1,82.5000031471254,0|2,0:0|0:0,0:0:0:0:
60,112,43526,1,8,0:0:0:0:
39,77,43648,1,8,0:0:0:0:
31,37,43769,1,0,0:0:0:0:
156,164,44013,6,0,P|128:200|92:224,1,82.5000031471254,2|0,0:0|0:0,0:0:0:0:
180,276,44501,1,0,0:0:0:0:
24,168,44745,1,8,0:0:0:0:
20,268,44989,2,0,P|54:303|91:313,1,82.5000031471254,0|2,0:0|0:0,0:0:0:0:
284,284,45721,1,0,0:0:0:0:
324,380,45965,2,0,P|368:364|404:360,1,82.5000031471254
408,288,46330,1,2,0:0:0:0:
408,288,46452,2,0,P|378:250|370:213,1,82.5000031471254,0|8,0:0|0:0,0:0:0:0:
468,208,46940,1,0,0:0:0:0:
284,284,47184,1,2,0:0:0:0:
312,68,47428,1,8,0:0:0:0:
396,132,47672,1,0,0:0:0:0:
264,208,47916,6,0,P|219:190|196:165,1,82.5000031471254,4|2,0:1|0:0,0:0:0:0:
140,260,48404,1,8,0:0:0:0:
264,232,48648,1,8,0:1:0:0:
228,324,48891,2,0,P|195:353|157:364,1,82.5000031471254,2|4,0:0|0:0,0:0:0:0:
12,48,49623,1,0,0:0:0:0:
112,84,49867,2,0,P|148:84|191:67,1,82.5000031471254,2|0,0:0|0:0,0:0:0:0:
12,140,50355,2,0,P|48:176|84:192,1,82.5000031471254,4|0,0:0|0:0,0:0:0:0:
208,192,50843,1,2,0:0:0:0:
40,336,51087,1,4,0:0:0:0:
176,292,51330,1,8,0:1:0:0:
176,292,51574,1,8,0:1:0:0:
416,320,51818,6,0,P|380:344|340:348,1,82.5000031471254,2|2,0:0|0:0,0:0:0:0:
208,192,52306,2,0,P|246:219|270:251,1,82.5000031471254,8|8,0:0|0:1,0:0:0:0:
252,344,52794,1,2,0:0:0:0:
348,244,53038,1,4,0:0:0:0:
348,244,53526,1,0,0:0:0:0:
392,156,53769,2,0,P|424:116|464:92,1,82.5000031471254,2|0,0:0|0:0,0:0:0:0:
360,56,54257,2,0,P|316:60|276:52,1,82.5000031471254,4|0,0:0|0:0,0:0:0:0:
188,12,54745,1,2,0:0:0:0:
92,184,54989,1,4,0:0:0:0:
216,112,55233,1,8,0:1:0:0:
96,32,55477,1,8,0:1:0:0:
28,124,55721,54,0,P|8:172|10:211,1,82.5000031471254,2|2,0:0|0:0,0:0:0:0:
176,324,56209,1,8,0:0:0:0:
196,216,56452,1,8,0:1:0:0:
72,292,56696,2,0,P|42:316|26:356,1,82.5000031471254,2|4,0:0|0:0,0:0:0:0:
416,184,57428,1,0,0:0:0:0:
432,280,57672,2,0,P|432:328|416:364,1,82.5000031471254,2|0,0:0|0:0,0:0:0:0:
448,84,58160,2,0,P|487:110|511:143,1,82.5000031471254,4|0,0:0|0:0,0:0:0:0:
416,184,58648,1,2,0:0:0:0:
308,220,58891,1,4,0:0:0:0:
180,184,59135,1,8,0:1:0:0:
96,60,59379,1,8,0:1:0:0:
204,84,59623,6,0,P|246:104|270:141,1,82.5000031471254,2|2,0:0|0:0,0:0:0:0:
88,228,60111,1,8,0:0:0:0:
32,64,60355,1,8,0:1:0:0:
180,184,60599,2,0,P|184:230|172:268,1,82.5000031471254,2|4,0:0|0:0,0:0:0:0:
8,372,61330,2,0,P|56:365|87:343,1,82.5000031471254,0|2,0:0|0:0,0:0:0:0:
173,264,61818,1,0,0:0:0:0:
172,96,62062,1,0,0:0:0:0:
76,220,62306,1,4,0:0:0:0:
256,192,62550,53,8,0:0:0:0:
267,203,63038,1,8,0:0:0:0:
472,20,63526,22,0,P|456:76|432:108,1,98.9999969787599,4|0,2:1|0:0,0:0:0:0:
352,20,64013,1,8,0:0:0:0:
344,152,64257,1,0,0:0:0:0:
367,184,64379,1,0,0:0:0:0:
402,204,64501,1,2,0:0:0:0:
441,212,64623,1,0,0:0:0:0:
480,208,64745,1,0,0:0:0:0:
231,224,64989,2,0,P|205:166|214:126,1,98.9999969787599,8|0,0:0|0:0,0:0:0:0:
288,64,65477,21,2,0:0:0:0:
108,224,65721,1,0,0:0:0:0:
344,152,65965,1,8,0:0:0:0:
314,301,66209,1,0,0:0:0:0:
284,326,66330,1,0,0:0:0:0:
246,339,66452,1,2,0:0:0:0:
207,340,66574,1,0,0:0:0:0:
169,329,66696,1,0,0:0:0:0:
108,224,66940,1,8,0:0:0:0:
164,124,67184,1,0,0:0:0:0:
17,272,67428,6,0,P|32:296|68:320,1,71.4999967269899,4|0,2:1|0:0,0:0:0:0:
164,124,67916,1,8,0:0:0:0:
164,124,68160,1,8,0:0:0:0:
96,56,68404,5,0,0:0:0:0:
32,172,68648,1,2,0:0:0:0:
180,220,68891,2,0,P|216:209|246:178,1,71.4999967269899
330,41,69379,1,2,0:0:0:0:
420,84,69623,1,0,0:0:0:0:
420,84,69745,1,2,0:0:0:0:
420,84,69867,1,0,0:0:0:0:
324,228,70111,1,8,0:0:0:0:
380,320,70355,2,0,P|408:352|440:364,1,71.4999967269899,0|2,0:0|0:0,0:0:0:0:
376,160,70843,1,12,0:0:0:0:
208,148,71087,1,0,0:0:0:0:
44,336,71330,22,0,P|88:300|104:256,1,98.9999969787599,4|0,2:1|0:0,0:0:0:0:
32,112,71818,1,8,0:0:0:0:
23,258,72062,1,0,0:0:0:0:
51,286,72184,1,0,0:0:0:0:
85,306,72306,1,2,0:0:0:0:
122,321,72428,1,0,0:0:0:0:
160,330,72550,1,0,0:0:0:0:
368,340,72794,2,0,P|428:316|456:284,1,98.9999969787599,8|0,0:0|0:0,0:0:0:0:
408,120,73282,5,2,0:0:0:0:
256,252,73526,1,8,0:0:0:0:
104,120,73769,1,8,0:0:0:0:
256,12,74013,1,8,0:3:0:0:
256,52,74135,1,8,0:3:0:0:
256,92,74257,1,8,0:3:0:0:
256,132,74379,1,8,0:3:0:0:
256,172,74501,1,2,0:0:0:0:
88,320,74745,5,8,0:0:0:0:
4,132,74989,1,2,0:0:0:0:
256,12,75233,22,0,P|312:16|348:40,1,98.9999969787599,4|0,0:0|2:0,0:0:0:0:
400,248,75721,2,0,P|415:298|456:330,1,98.9999969787599,8|0,0:0|2:0,0:0:0:0:
288,312,76209,1,0,0:0:0:0:
500,240,76452,1,4,2:0:0:0:
276,280,76696,1,8,0:0:0:0:
360,180,76940,1,4,2:0:0:0:
232,380,77184,2,0,P|182:329|188:224,1,148.49999546814,0|0,0:0|2:0,0:0:0:0:
208,192,77672,5,8,0:0:0:0:
76,16,77916,1,4,2:0:0:0:
65,26,78038,1,4,2:0:0:0:
60,40,78160,2,0,P|56:96|76:132,1,98.9999969787599,0|4,0:0|2:0,0:0:0:0:
16,268,78648,1,8,0:0:0:0:
164,80,78891,1,0,2:0:0:0:
104,308,79135,2,0,P|180:316|248:284,1,148.49999546814,0|0,0:0|2:0,0:0:0:0:
285,164,79623,6,0,P|292:208|272:258,1,98.9999969787599,8|0,0:0|2:0,0:0:0:0:
196,116,80111,2,0,P|236:74|283:64,1,98.9999969787599,0|4,0:0|2:0,0:0:0:0:
420,24,80599,1,8,0:0:0:0:
285,164,80843,1,4,2:0:0:0:
60,40,81087,1,0,0:0:0:0:
60,40,81574,6,0,P|52:96|20:136,1,98.9999969787599,8|4,0:0|2:0,0:0:0:0:
48,198,81940,1,4,2:0:0:0:
31,267,82062,2,0,P|81:260|115:223,1,98.9999969787599,0|4,0:0|2:0,0:0:0:0:
228,348,82550,2,0,P|274:373|328:376,1,98.9999969787599,8|2,0:0|2:0,0:0:0:0:
392,212,83038,6,0,P|411:261|451:285,1,98.9999969787599,0|0,0:0|2:0,0:0:0:0:
352,124,83526,1,8,0:0:0:0:
303,276,83769,1,0,2:0:0:0:
488,192,84013,1,0,0:0:0:0:
448,8,84257,1,4,2:0:0:0:
336,200,84501,2,0,P|386:190|420:159,1,98.9999969787599,8|4,0:0|2:0,0:0:0:0:
204,212,84989,1,0,0:0:0:0:
204,212,85477,5,8,0:0:0:0:
352,124,85721,1,4,2:0:0:0:
352,124,85843,1,4,2:0:0:0:
352,124,85965,1,0,0:0:0:0:
424,244,86209,1,4,2:0:0:0:
492,128,86452,1,8,0:0:0:0:
352,124,86696,1,0,2:0:0:0:
236,252,86940,2,0,P|199:286|147:300,1,98.9999969787599,0|0,0:0|2:0,0:0:0:0:
208,44,87428,6,0,P|256:16|300:12,1,98.9999969787599,8|0,0:0|2:0,0:0:0:0:
68,148,87916,2,0,P|34:103|37:57,1,98.9999969787599,0|4,0:0|2:0,0:0:0:0:
184,148,88404,1,8,0:0:0:0:
16,256,88648,1,4,2:0:0:0:
252,348,88891,1,0,0:0:0:0:
252,348,89379,6,0,P|304:348|348:328,1,98.9999969787599,8|4,0:0|2:0,0:0:0:0:
456,156,89867,1,0,0:0:0:0:
240,64,90111,1,4,0:0:0:0:
280,65,90233,1,4,0:0:0:0:
318,54,90355,1,0,0:0:0:0:
96,136,90599,1,0,0:0:0:0:
106,175,90721,1,0,0:0:0:0:
97,214,90843,6,0,P|87:251|73:269,1,55,4|0,0:0|0:0,0:0:0:0:
96,136,91087,2,0,P|133:135|176:140,1,55
8,188,91330,2,0,P|-4:122|11:78,1,110,2|0,0:0|0:0,0:0:0:0:
120,64,91696,2,0,P|96:53|76:32,1,55
232,68,91940,2,0,P|248:39|247:12,1,55,0|2,0:0|0:2,0:0:0:0:
97,214,92306,6,0,P|120:244|144:256,1,55
224,252,92550,2,0,P|220:288|208:310,1,55
183,166,92794,2,0,P|236:164|292:181,1,110,2|0,0:0|0:0,0:0:0:0:
371,201,93160,1,0,0:0:0:0:
371,201,93282,2,0,P|397:198|427:185,1,55
496,128,93526,2,0,P|516:196|500:244,1,110,2|0,0:2|0:0,0:0:0:0:
455,295,93891,1,0,0:0:0:0:
392,348,94013,2,0,P|364:363|346:384,1,55
455,295,94257,2,0,P|431:275|405:265,2,55,2|2|2,0:0|0:0|0:2,0:0:0:0:
164,336,94745,6,0,P|191:348|219:348,1,55,4|0,0:0|0:0,0:0:0:0:
104,264,94989,2,0,P|81:291|73:318,1,55
208,252,95233,2,0,P|183:196|144:164,1,110,2|0,0:0|0:0,0:0:0:0:
79,119,95599,1,0,0:0:0:0:
28,56,95721,2,0,P|8:36|0:12,1,55
140,64,95965,6,0,P|160:99|146:165,1,110,2|0,0:2|0:0,0:0:0:0:
115,241,96330,2,0,P|107:273|109:297,1,55
241,300,96574,2,0,P|224:290|192:278,1,55,0|2,0:0|0:0,0:0:0:0:
440,168,96940,1,0,0:0:0:0:
467,133,97062,1,0,0:0:0:0:
481,91,97184,1,0,0:0:0:0:
479,47,97306,1,0,0:0:0:0:
462,6,97428,1,2,0:2:0:0:
312,72,97672,5,0,0:0:0:0:
272,52,97794,1,0,0:0:0:0:
237,24,97916,1,2,1:2:0:0:
168,112,98160,5,0,0:0:0:0:
140,78,98282,1,0,0:0:0:0:
127,36,98404,1,0,0:0:0:0:
116,205,98648,6,0,P|160:221|201:208,1,82.5000031471254,10|0,0:0|0:0,0:0:0:0:
269,153,99135,1,4,0:0:0:0:
269,153,99217,1,0,0:0:0:0:
269,153,99298,1,0,0:0:0:0:
269,153,99379,1,0,0:0:0:0:
63,135,99623,2,0,P|31:187|31:223,1,82.5000031471254,2|0,0:0|0:0,0:0:0:0:
108,304,100111,1,4,0:0:0:0:
126,316,100192,1,0,0:0:0:0:
144,329,100274,1,0,0:0:0:0:
162,341,100355,1,0,0:0:0:0:
236,276,100599,5,2,0:0:0:0:
408,356,100843,1,0,0:0:0:0:
336,164,101087,1,4,0:0:0:0:
352,260,101330,1,0,0:0:0:0:
448,224,101574,1,2,0:0:0:0:
396,48,101818,5,8,0:0:0:0:
389,44,102062,1,12,0:0:0:0:
382,40,102306,1,8,0:0:0:0:
252,44,102550,6,0,P|208:52|172:80,1,82.5000031471254,10|0,0:0|0:0,0:0:0:0:
268,166,103038,2,0,L|252:145,3,27.5000010490418,4|0|0|0,0:0|0:0|0:0|0:0,0:0:0:0:
44,24,103526,1,2,0:0:0:0:
96,108,103769,2,0,P|117:156|116:192,1,82.5000031471254,0|4,0:0|0:0,0:0:0:0:
92,252,104095,1,0,0:0:0:0:
92,252,104176,1,0,0:0:0:0:
92,252,104257,1,0,0:0:0:0:
4,300,104501,6,0,P|31:334|71:348,1,82.5000031471254,2|0,0:0|0:0,0:0:0:0:
224,228,104989,1,4,0:0:0:0:
172,320,105233,1,0,0:0:0:0:
280,320,105477,6,0,P|309:314|357:293,1,82.5000031471254,2|8,0:0|0:0,0:0:0:0:
365,295,105965,1,12,0:0:0:0:
372,297,106209,1,8,0:0:0:0:
252,76,106452,6,0,P|216:44|180:32,1,82.5000031471254,10|0,0:0|0:0,0:0:0:0:
72,88,106940,1,4,0:0:0:0:
57,71,107022,1,0,0:0:0:0:
43,54,107103,1,0,0:0:0:0:
29,38,107184,1,0,0:0:0:0:
172,116,107428,2,0,P|154:148|117:175,1,82.5000031471254,2|0,0:0|0:0,0:0:0:0:
32,344,107916,2,0,L|47:321,3,27.5000010490418,4|0|0|0,0:0|0:0|0:0|0:0,0:0:0:0:
24,208,108404,5,2,0:0:0:0:
160,328,108648,1,0,0:0:0:0:
340,308,108891,1,4,0:0:0:0:
434,153,109135,1,0,0:0:0:0:
264,88,109379,1,2,0:0:0:0:
348,216,109623,5,8,0:0:0:0:
353,221,109867,1,12,0:0:0:0:
359,227,110111,1,8,0:0:0:0:
164,176,110355,6,0,P|131:134|128:100,1,82.5000031471254,10|0,0:0|0:0,0:0:0:0:
264,88,110843,1,4,0:0:0:0:
264,88,110924,1,0,0:0:0:0:
264,88,111005,1,0,0:0:0:0:
264,88,111087,1,0,0:0:0:0:
260,224,111330,2,0,P|224:260|188:276,1,82.5000031471254,2|0,0:0|0:0,0:0:0:0:
329,347,111818,2,0,L|343:371,3,27.5000010490418,4|0|0|0,0:0|0:0|0:0|0:0,0:0:0:0:
260,224,112306,5,2,0:0:0:0:
236,320,112550,1,0,0:0:0:0:
152,372,112794,1,4,0:0:0:0:
53,379,113038,1,0,0:0:0:0:
36,356,113526,53,0,0:0:0:0:
8,176,113769,1,8,0:3:0:0:
120,32,114013,1,4,0:3:0:0:
288,8,114257,22,0,P|332:8|384:28,1,98.9999969787599,6|0,0:0|0:0,0:0:0:0:
468,316,114745,1,8,0:0:0:0:
308,250,114989,1,0,0:0:0:0:
296,213,115111,1,0,0:0:0:0:
294,173,115233,1,2,0:0:0:0:
306,136,115355,1,0,0:0:0:0:
325,102,115477,1,0,0:0:0:0:
500,56,115721,1,8,0:0:0:0:
424,192,115965,1,0,0:0:0:0:
288,8,116209,37,2,0:0:0:0:
128,104,116452,1,0,0:0:0:0:
56,12,116696,1,8,0:0:0:0:
224,72,116940,1,0,0:0:0:0:
226,112,117062,1,0,0:0:0:0:
216,151,117184,1,2,0:0:0:0:
191,182,117306,1,0,0:0:0:0:
158,204,117428,1,0,0:0:0:0:
128,104,117672,1,8,0:0:0:0:
304,204,117916,1,0,0:0:0:0:
120,300,118160,22,0,P|78:276|58:227,1,98.9999969787599,2|8,0:0|0:0,0:0:0:0:
248,296,118648,1,4,0:0:0:0:
266,308,118729,1,0,0:0:0:0:
284,321,118810,1,0,0:0:0:0:
302,333,118891,1,0,0:0:0:0:
448,300,119135,1,10,0:0:0:0:
488,88,119379,1,0,0:0:0:0:
370,127,119623,1,4,0:0:0:0:
463,209,119867,1,0,0:0:0:0:
192,40,120355,37,0,0:0:0:0:
248,208,120599,1,12,0:0:0:0:
116,328,120843,1,0,0:0:0:0:
56,240,121087,1,2,0:0:0:0:
28,124,121330,2,0,P|15:103|8:76,2,49.4999984893799,2|0|6,0:0|0:0|0:0,0:0:0:0:
142,158,121818,1,2,0:0:0:0:
248,312,122062,22,0,P|305:297|331:269,1,98.9999969787599,4|0,0:1|0:0,0:0:0:0:
368,92,122550,1,8,0:0:0:0:
464,8,122794,1,0,0:0:0:0:
487,41,122916,1,0,0:0:0:0:
497,80,123038,1,2,0:0:0:0:
494,120,123160,1,0,0:0:0:0:
482,158,123282,1,0,0:0:0:0:
331,268,123526,1,8,0:0:0:0:
482,158,123769,1,0,0:0:0:0:
416,328,124013,38,0,P|371:364|329:369,1,98.9999969787599,2|0,0:0|0:0,0:0:0:0:
168,168,124501,1,8,0:0:0:0:
296,232,124745,2,0,L|331:268,2,49.4999984893799,0|0|2,0:0|0:0|0:0,0:0:0:0:
176,324,125233,1,8,0:0:0:0:
140,340,125355,1,8,0:0:0:0:
100,340,125477,1,4,0:0:0:0:
16,180,125721,1,4,0:0:0:0:
140,48,125965,54,0,P|186:23|234:18,1,98.9999969787599,4|0,0:0|2:0,0:0:0:0:
112,216,126452,2,0,P|84:259|40:279,1,98.9999969787599,8|0,0:0|2:0,0:0:0:0:
36,64,126940,1,0,0:0:0:0:
220,116,127184,1,4,2:0:0:0:
112,216,127428,1,8,0:0:0:0:
140,48,127672,1,4,2:0:0:0:
312,28,127916,2,0,P|336:84|320:176,1,148.49999546814,0|0,0:0|2:0,0:0:0:0:
280,224,128404,5,8,0:0:0:0:
416,76,128648,1,4,2:0:0:0:
416,76,128769,1,4,2:0:0:0:
416,76,128891,1,0,0:0:0:0:
220,116,129135,1,4,2:0:0:0:
400,244,129379,1,8,0:0:0:0:
264,352,129623,1,0,2:0:0:0:
128,244,129867,2,0,P|84:184|88:108,1,148.49999546814,0|0,0:0|2:0,0:0:0:0:
128,244,130355,6,0,P|72:268|32:264,1,98.9999969787599,8|0,0:0|2:0,0:0:0:0:
212,148,130843,1,0,0:0:0:0:
128,244,131087,1,4,2:0:0:0:
336,356,131330,2,0,P|372:326|390:278,1,98.9999969787599,8|4,0:0|2:0,0:0:0:0:
460,120,131818,1,0,0:0:0:0:
460,120,132306,6,0,P|452:184|464:224,1,98.9999969787599,8|4,0:0|2:0,0:0:0:0:
484,284,132672,1,4,2:0:0:0:
510,351,132794,2,0,P|460:352|423:323,1,98.9999969787599,0|4,0:0|2:0,0:0:0:0:
304,272,133282,2,0,P|332:233|386:217,1,98.9999969787599,8|2,0:0|2:0,0:0:0:0:
248,376,133769,6,0,P|168:356|136:296,1,148.49999546814,0|0,0:0|2:0,0:0:0:0:
158,226,134257,2,0,P|196:245|223:293,1,98.9999969787599,8|0,0:0|2:0,0:0:0:0:
24,348,134745,1,0,0:0:0:0:
158,226,134989,1,4,2:0:0:0:
20,136,135233,1,8,0:0:0:0:
154,14,135477,1,4,2:0:0:0:
56,224,135721,1,0,0:0:0:0:
56,224,136209,5,8,0:0:0:0:
128,108,136452,1,4,2:0:0:0:
143,108,136574,1,4,2:0:0:0:
158,108,136696,2,0,P|210:92|238:56,1,98.9999969787599,0|4,0:0|2:0,0:0:0:0:
300,24,137062,1,0,2:0:0:0:
367,0,137184,2,0,P|363:56|335:86,1,98.9999969787599,8|0,0:0|2:0,0:0:0:0:
216,256,137672,2,0,P|248:296|292:320,1,98.9999969787599,0|0,0:0|2:0,0:0:0:0:
112,364,138160,6,0,P|75:319|72:280,1,98.9999969787599,8|0,0:0|2:0,0:0:0:0:
311,221,138648,1,0,0:0:0:0:
151,295,138891,1,4,2:0:0:0:
236,152,139135,2,0,P|274:117|324:112,1,98.9999969787599,8|4,0:0|2:0,0:0:0:0:
356,364,139623,1,0,0:0:0:0:
356,364,140111,6,0,P|408:336|436:296,1,98.9999969787599,8|4,0:0|2:0,0:0:0:0:
348,24,140599,2,0,P|395:59|411:95,1,98.9999969787599,0|4,0:0|2:0,0:0:0:0:
338,262,141087,2,0,P|285:243|263:207,1,98.9999969787599,8|0,0:0|2:0,0:0:0:0:
311,121,141574,5,4,1:0:0:0:
263,208,141818,1,0,0:0:0:0:
172,248,142062,1,2,0:0:0:0:
140,256,142184,1,0,0:0:0:0:
107,255,142306,1,0,0:0:0:0:
77,242,142428,1,0,0:0:0:0:
51,221,142550,1,8,1:2:0:0:
176,168,142794,1,0,0:0:0:0:
128,336,143038,1,0,0:0:0:0:
51,221,143282,1,2,0:0:0:0:
56,56,143526,6,0,P|96:28|136:20,1,82.5000031471254,4|0,1:2|0:0,0:0:0:0:
180,68,143891,1,0,0:0:0:0:
244,98,144013,2,0,P|247:51|230:18,1,82.5000031471254
168,236,144501,1,8,1:2:0:0:
312,176,144745,2,0,L|332:204,3,27.5000010490418
216,336,145233,1,0,0:0:0:0:
369,335,145477,6,0,P|404:320|430:284,1,82.5000031471254,4|0,1:2|0:0,0:0:0:0:
446,147,145965,1,2,0:0:0:0:
413,142,146087,1,0,0:0:0:0:
380,146,146209,1,0,0:0:0:0:
351,162,146330,1,0,0:0:0:0:
328,186,146452,1,8,1:2:0:0:
430,284,146696,1,0,0:0:0:0:
416,64,146940,1,0,0:0:0:0:
328,186,147184,1,2,0:0:0:0:
446,147,147428,6,0,P|490:114|504:78,1,82.5000031471254,4|0,1:2|0:0,0:0:0:0:
354,19,147916,1,0,0:0:0:0:
336,31,147997,1,0,0:0:0:0:
318,44,148078,1,0,0:0:0:0:
300,56,148160,1,0,0:0:0:0:
196,196,148404,2,0,P|152:156|144:124,1,82.5000031471254,4|0,1:2|0:0,0:0:0:0:
16,212,148891,1,0,0:0:0:0:
34,224,148973,1,0,0:0:0:0:
52,237,149054,1,0,0:0:0:0:
70,249,149135,1,0,0:0:0:0:
148,345,149379,6,0,L|128:372,5,27.5000010490418,6|0|0|0|0|0,1:2|0:0|0:0|0:0|0:0|0:0,0:0:0:0:
169,333,149867,1,0,0:0:0:0:
172,331,149948,1,0,0:0:0:0:
176,329,150030,1,0,0:0:0:0:
179,327,150111,1,0,0:0:0:0:
183,325,150192,2,0,L|213:307,1,27.5000010490418
270,349,150355,6,0,L|256:372,5,27.5000010490418,8|0|0|0|0|0,1:2|0:0|0:0|0:0|0:0|0:0,0:0:0:0:
291,337,150843,1,0,0:0:0:0:
294,335,150924,1,0,0:0:0:0:
298,333,151005,1,0,0:0:0:0:
301,331,151087,1,0,0:0:0:0:
305,329,151168,2,0,L|335:311,1,27.5000010490418
405,335,151330,6,0,L|428:321,5,27.5000010490418,6|0|0|0|0|0,1:2|0:0|0:0|0:0|0:0|0:0,0:0:0:0:
448,248,151818,2,0,L|472:222,5,27.5000010490418
468,152,152306,2,0,L|483:125,5,27.5000010490418,12|0|0|0|0|0,1:2|0:0|0:0|0:0|0:0|0:0,0:0:0:0:
460,56,152794,2,0,L|468:16,3,41.2500015735627
392,12,153282,6,0,P|341:13|296:39,1,98.9999969787599,6|0,1:2|0:0,0:0:0:0:
154,129,153769,2,0,P|196:120|228:92,1,82.5000031471254,0|0,0:0|0:0,0:0:0:0:
56,212,154257,2,0,P|52:256|64:296,1,82.5000031471254,8|0,1:2|0:0,0:0:0:0:
154,129,154745,2,0,P|130:87|100:68,1,82.5000031471254,2|0,0:0|0:0,0:0:0:0:
165,231,155233,5,6,0:0:0:0:
197,223,155355,1,0,0:0:0:0:
225,205,155477,1,0,0:0:0:0:
245,178,155599,1,0,0:0:0:0:
260,148,155721,1,0,0:0:0:0:
282,173,155843,1,0,0:0:0:0:
313,187,155965,1,2,0:0:0:0:
346,194,156087,1,0,0:0:0:0:
379,192,156209,2,0,P|424:188|456:164,1,82.5000031471254,8|2,1:2|0:0,0:0:0:0:
448,312,156696,5,2,0:0:0:0:
430,324,156778,1,0,0:0:0:0:
412,337,156859,1,0,0:0:0:0:
394,349,156940,2,0,L|312:360,1,82.5000031471254,8|0,1:2|0:0,0:0:0:0:
108,140,164745,5,8,0:0:0:0:
108,140,164989,6,0,P|108:188|84:228,1,82.5000031471254,2|2,0:0|0:0,0:0:0:0:
9,162,165477,1,8,0:0:0:0:
36,68,165721,2,0,P|70:44|112:40,1,82.5000031471254,2|2,0:0|0:0,0:0:0:0:
184,92,166209,2,0,P|256:126|328:92,1,165.000006294251,8|0,0:0|0:0,0:0:0:0:
404,140,166940,6,0,P|404:188|428:228,1,82.5000031471254,2|2,0:0|0:0,0:0:0:0:
503,162,167428,1,8,0:0:0:0:
476,68,167672,2,0,P|442:44|400:40,2,82.5000031471254,2|2|8,0:0|0:0|0:0,0:0:0:0:
404,244,168648,5,0,0:0:0:0:
404,244,168891,2,0,P|404:196|428:156,1,82.5000031471254,2|2,0:0|0:0,0:0:0:0:
503,222,169379,1,8,0:0:0:0:
476,316,169623,2,0,P|442:340|400:344,1,82.5000031471254,2|2,0:0|0:0,0:0:0:0:
328,292,170111,2,0,P|256:258|184:292,1,165.000006294251,8|0,0:0|0:0,0:0:0:0:
108,244,170843,6,0,P|108:196|84:156,1,82.5000031471254,2|2,0:0|0:0,0:0:0:0:
9,222,171330,1,8,0:0:0:0:
36,316,171574,2,0,P|70:340|112:344,1,82.5000031471254,2|2,0:0|0:0,0:0:0:0:
256,360,172062,1,8,0:0:0:0:
256,260,172306,2,0,L|256:176,1,82.5000031471254,2|8,0:0|0:0,0:0:0:0:
168,272,172794,5,0,0:0:0:0:
80,204,173038,1,0,0:0:0:0:
112,84,173282,1,0,0:0:0:0:
244,47,173526,1,0,0:0:0:0:
344,272,173769,6,0,P|397:258|427:228,1,98.9999969787599,4|0,1:0|0:0,0:0:0:0:
422,79,174257,1,0,0:0:0:0:
334,159,174501,1,0,0:0:0:0:
180,188,174745,2,0,P|113:135|118:27,1,197.99999395752,8|0,1:0|0:0,0:0:0:0:
205,86,175477,1,8,0:0:0:0:
180,188,175721,2,0,P|148:244|112:264,1,98.9999969787599,0|8,0:0|0:0,0:0:0:0:
16,312,176209,2,0,P|49:350|96:372,1,98.9999969787599,8|0,0:0|0:0,0:0:0:0:
236,292,176696,2,0,P|292:228|276:118,1,197.99999395752,8|0,1:0|0:0,0:0:0:0:
192,32,177428,1,0,0:0:0:0:
89,213,177672,6,0,P|128:216|180:188,1,98.9999969787599,4|0,1:2|0:0,0:0:0:0:
88,336,178160,1,0,0:0:0:0:
212,376,178404,1,8,0:0:0:0:
360,308,178648,2,0,P|320:208|238:178,1,197.99999395752,8|0,1:0|0:0,0:0:0:0:
244,296,179379,1,8,0:0:0:0:
360,308,179623,2,0,P|411:289|442:253,1,98.9999969787599,0|8,0:0|0:0,0:0:0:0:
412,124,180111,1,8,0:0:0:0:
344,196,180355,1,0,0:0:0:0:
344,40,180599,2,0,P|432:20|511:82,1,197.99999395752,8|0,1:0|0:0,0:0:0:0:
508,212,181330,1,0,0:0:0:0:
324,160,181574,6,0,P|360:132|412:124,1,98.9999969787599,4|0,1:2|0:0,0:0:0:0:
224,220,182062,1,0,0:0:0:0:
264,68,182306,1,8,0:0:0:0:
400,224,182550,2,0,P|348:324|268:336,1,197.99999395752,8|0,1:0|0:0,0:0:0:0:
296,236,183282,1,8,0:0:0:0:
440,340,183526,1,0,0:0:0:0:
456,172,183769,1,8,0:0:0:0:
296,236,184013,1,8,0:0:0:0:
152,288,184257,1,0,0:0:0:0:
78,87,184501,2,0,P|176:120|200:204,1,197.99999395752,8|0,1:0|0:0,0:0:0:0:
100,188,185233,1,0,0:0:0:0:
228,36,185477,5,4,0:0:0:0:
324,56,185965,1,0,0:0:0:0:
404,116,186452,1,0,0:0:0:0:
448,204,186940,1,0,0:0:0:0:
284,348,187428,5,0,0:0:0:0:
188,328,187916,1,0,0:0:0:0:
108,268,188404,1,0,0:0:0:0:
64,180,188891,2,0,P|48:152|44:128,1,55
44,129,189867,6,0,P|68:184|116:208,1,110,4|0,0:0|2:0,0:0:0:0:
320,256,190355,2,0,P|308:320|280:353,1,110,8|0,0:0|2:0,0:0:0:0:
64,296,190843,1,0,0:0:0:0:
152,104,191087,1,4,2:0:0:0:
208,268,191330,1,8,0:0:0:0:
44,129,191574,1,4,2:0:0:0:
212,24,191818,2,0,P|255:92|228:168,1,165,0|0,0:0|2:0,0:0:0:0:
165,200,192306,5,8,0:0:0:0:
64,296,192550,1,4,2:0:0:0:
64,296,192672,1,4,2:0:0:0:
64,296,192794,1,0,0:0:0:0:
152,104,193038,1,4,2:0:0:0:
344,232,193282,1,8,0:0:0:0:
416,128,193526,1,0,2:0:0:0:
226,225,193769,2,0,P|247:299|317:346,1,165,0|0,0:0|2:0,0:0:0:0:
450,368,194257,54,0,P|408:332|352:332,1,110,8|0,0:0|2:0,0:0:0:0:
161,320,194745,1,0,0:0:0:0:
344,232,194989,1,4,2:0:0:0:
268,372,195233,1,8,0:0:0:0:
77,236,195477,1,4,2:0:0:0:
236,64,195721,1,0,0:0:0:0:
236,64,196209,6,0,P|188:108|180:152,1,110,8|4,0:0|2:0,0:0:0:0:
217,211,196574,1,4,2:0:0:0:
241,278,196696,2,0,P|191:277|150:237,1,110,0|4,0:0|2:0,0:0:0:0:
112,72,197184,1,8,0:0:0:0:
64,212,197428,1,2,2:0:0:0:
260,142,197672,53,0,0:0:0:0:
376,24,197916,1,0,2:0:0:0:
444,176,198160,2,0,P|385:154|352:113,1,110,8|0,0:0|2:0,0:0:0:0:
508,96,198648,1,0,0:0:0:0:
344,268,198891,1,4,2:0:0:0:
355,119,199135,1,8,0:0:0:0:
488,252,199379,1,4,2:0:0:0:
296,376,199623,2,0,P|236:332|216:244,1,165,0|0,0:0|2:0,0:0:0:0:
233,178,200111,5,8,0:0:0:0:
233,328,200355,1,4,2:0:0:0:
233,328,200477,1,4,2:0:0:0:
233,328,200599,2,0,P|180:360|132:368,1,110,0|4,0:0|2:0,0:0:0:0:
96,160,201087,1,8,0:0:0:0:
148,264,201330,1,0,2:0:0:0:
12,208,201574,2,0,P|0:132|48:60,1,165,0|0,0:0|2:0,0:0:0:0:
188,14,202062,54,0,P|143:51|94:58,1,110,8|0,0:0|2:0,0:0:0:0:
300,172,202550,2,0,P|290:114|308:68,1,110,0|4,0:0|2:0,0:0:0:0:
105,190,203038,2,0,P|159:210|190:249,1,110,8|4,0:0|2:0,0:0:0:0:
188,14,203526,1,0,0:0:0:0:
188,14,204013,6,0,L|288:60,1,110,8|4,0:0|2:0,0:0:0:0:
400,218,204501,2,0,L|300:172,1,110,0|4,0:0|2:0,0:0:0:0:
488,144,204989,1,8,0:0:0:0:
502,186,205111,1,4,2:0:0:0:
503,230,205233,1,0,0:0:0:0:
491,273,205355,1,4,2:0:0:0:
468,312,205477,54,0,L|360:348,1,110,0|0,0:0|2:0,0:0:0:0:
294,242,205965,1,8,0:0:0:0:
279,198,206087,1,4,2:0:0:0:
288,155,206209,1,0,0:0:0:0:
315,121,206330,1,4,2:0:0:0:
356,102,206452,1,0,0:0:0:0:
400,218,206696,1,0,0:0:0:0:
279,198,206940,5,8,0:0:0:0:
247,169,207062,1,4,2:0:0:0:
228,129,207184,1,0,0:0:0:0:
229,84,207306,1,4,2:0:0:0:
249,45,207428,1,0,0:0:0:0:
356,102,207672,1,0,0:0:0:0:
247,169,207916,53,8,0:0:0:0:
203,161,208038,1,4,2:0:0:0:
165,140,208160,1,0,0:0:0:0:
139,105,208282,1,4,2:0:0:0:
124,64,208404,1,0,0:0:0:0:
249,45,208648,1,0,0:0:0:0:
203,161,208891,5,8,0:0:0:0:
163,180,209013,1,4,2:0:0:0:
120,187,209135,1,0,0:0:0:0:
77,178,209257,1,4,2:0:0:0:
38,158,209379,1,0,0:0:0:0:
124,64,209623,1,0,0:0:0:0:
163,180,209867,54,0,L|137:232,1,55,8|4,0:0|2:0,0:0:0:0:
72,83,210111,2,0,L|124:64,1,55,0|4,0:0|2:0,0:0:0:0:
244,248,210355,2,0,P|221:297|176:331,1,110
200,153,210843,6,0,L|256:141,1,55,8|4,0:0|2:0,0:0:0:0:
129,40,211087,2,0,L|97:85,1,55,0|4,0:0|2:0,0:0:0:0:
244,248,211330,2,0,P|297:238|341:203,1,110
141,231,211818,54,0,L|144:289,1,55,8|4,0:0|2:0,0:0:0:0:
13,191,212062,2,0,L|48:148,1,55,0|4,0:0|2:0,0:0:0:0:
244,248,212306,2,0,P|248:301|226:353,1,110
424,280,212794,6,0,P|485:228|500:148,1,165.000006294251,0|4,0:0|0:1,0:0:0:0:
