osu file format v14

[General]
AudioFilename: Kagerou Days r3mb.mp3
AudioLeadIn: 0
PreviewTime: 91
Countdown: 0
SampleSet: Soft
StackLeniency: 0.7
Mode: 0
LetterboxInBreaks: 0
WidescreenStoryboard: 0

[Editor]
DistanceSpacing: 1.2
BeatDivisor: 1
GridSize: 32
TimelineZoom: 1

[Metadata]
Title:Kagerou Daze
TitleUnicode:カゲロウデイズ
Artist:R3 Music Box
ArtistUnicode:R3 Music Box
Creator:ChuuritsuTv
Version:Easy
Source:メカクシティアクターズ
Tags:メカクシティレコーズ mekakucity actors reload jin sidu hibiya hiyori kuroneko black cat hatsune miku ia heat-haze days 初音ミク -Project DIVA- F 2nd 自然の敵P Shizen no Teki P Teki-P TekiP じん Blindfold
BeatmapID:1540101
BeatmapSetID:729649

[Difficulty]
HPDrainRate:1.8
CircleSize:2.8
OverallDifficulty:2
ApproachRate:3
SliderMultiplier:0.8
SliderTickRate:1

[Events]
//Background and Video events
0,0,"BG.jpg",0,0
//Break Periods
//Storyboard Layer 0 (Background)
//Storyboard Layer 1 (Fail)
//Storyboard Layer 2 (Pass)
//Storyboard Layer 3 (Foreground)
//Storyboard Sound Samples

[TimingPoints]
91,416.666666666667,4,2,1,40,1,0
53424,447.761194029851,4,2,1,40,1,0
54319,495.867768595041,4,2,1,40,1,0
55806,600,4,2,1,40,1,0
56406,652.173913043478,4,2,1,40,1,0
57058,461.538461538462,4,2,1,40,1,0

[Colours]
Combo1 : 236,151,151
Combo2 : 94,81,62
Combo3 : 238,240,162
Combo4 : 64,54,92

[HitObjects]
139,273,91,6,0,P|116:199|161:132,1,160,2|0,0:0|0:0,0:0:0:0:
253,129,1341,1,8,0:0:0:0:
219,217,1757,2,0,P|262:226|304:215,2,80,2|0|2,0:0|0:0|0:0,0:0:0:0:
146,154,3007,1,8,0:0:0:0:
182,66,3424,6,0,P|255:31|323:62,1,160,2|0,0:0|0:0,0:0:0:0:
253,129,4674,1,8,0:0:0:0:
293,216,5091,2,0,B|334:231|379:208,2,80,2|0|2,0:0|0:0|0:0,0:0:0:0:
143,95,6757,6,0,P|185:29|261:16,1,160,8|0,0:0|0:0,0:0:0:0:
238,109,8007,1,2,0:0:0:0:
329,138,8424,2,0,B|405:173|405:109|488:138,1,160,8|0,0:0|0:0,0:0:0:0:
461,229,9674,1,2,0:0:0:0:
495,318,10091,6,0,P|412:314|365:248,1,160,8|0,0:0|0:0,0:0:0:0:
360,161,11341,1,2,0:0:0:0:
439,107,11757,1,2,0:0:0:0:
372,37,12174,2,0,P|407:12|456:5,2,80,2|0|6,0:0|0:0|0:0,0:0:0:0:
292,95,13424,6,0,B|211:99|225:46|137:53,1,160,2|0,0:0|0:0,0:0:0:0:
134,148,14674,1,8,0:0:0:0:
45,184,15091,2,0,P|35:149|56:90,2,80,2|0|2,0:0|0:0|0:0,0:0:0:0:
123,239,16341,1,8,0:0:0:0:
220,231,16757,6,0,P|197:306|123:339,1,160,2|0,0:0|0:0,0:0:0:0:
123,239,18007,1,8,0:0:0:0:
164,148,18424,2,0,P|198:130|247:132,2,80,2|0|2,0:0|0:0|0:0,0:0:0:0:
345,209,20091,6,0,P|413:202|462:130,1,160,8|0,0:0|0:0,0:0:0:0:
432,39,21341,1,2,0:0:0:0:
366,109,21757,2,0,B|284:78|289:134|200:102,1,160,8|0,0:0|0:0,0:0:0:0:
128,54,23007,1,2,0:0:0:0:
62,123,23424,6,0,L|86:214,1,80,2|10,0:0|0:0,0:0:0:0:
177,210,24257,2,0,P|180:245|165:287,1,80,2|2,0:0|0:0,0:0:0:0:
145,380,25091,2,0,P|101:361|80:333,2,80,2|0|2,0:0|0:0|0:0,0:0:0:0:
164,287,26341,1,12,0:0:0:0:
122,199,26757,6,0,P|197:191|255:247,1,160,2|0,0:0|0:0,0:0:0:0:
164,287,28007,1,8,0:0:0:0:
68,282,28424,2,0,P|35:246|27:206,2,80,2|0|2,0:0|0:0|0:0,0:0:0:0:
122,199,29674,1,8,0:0:0:0:
82,111,30091,6,0,B|164:80|159:136|248:104,1,160,2|0,0:0|0:0,0:0:0:0:
304,37,31341,1,8,0:0:0:0:
213,6,31757,2,0,P|170:17|133:7,2,80,2|0|2,0:0|0:0|0:0,0:0:0:0:
404,25,33424,6,0,B|373:107|429:102|400:181,1,160,8|0,0:0|0:0,0:0:0:0:
309,148,34674,1,2,0:0:0:0:
300,52,35091,2,0,P|230:94|218:169,1,160,8|0,0:0|0:0,0:0:0:0:
281,238,36341,1,2,0:0:0:0:
353,300,36757,6,0,P|284:335|209:303,1,160,8|0,0:0|0:0,0:0:0:0:
137,245,38007,1,2,0:0:0:0:
205,178,38424,1,2,0:0:0:0:
281,238,38841,2,0,P|299:196|295:150,2,80,2|0|6,0:0|0:0|0:0,0:0:0:0:
205,178,40091,6,0,B|135:129|126:185|54:133,1,160,2|0,0:0|0:0,0:0:0:0:
108,54,41341,1,8,0:0:0:0:
200,77,41757,2,0,P|201:34|181:-8,2,80,2|0|2,0:0|0:0|0:0,0:0:0:0:
108,54,43007,1,8,0:0:0:0:
42,124,43424,6,0,P|-9:184|12:261,1,160,2|0,0:0|0:0,0:0:0:0:
91,207,44674,1,8,0:0:0:0:
143,123,45091,2,0,P|131:83|106:52,2,80,2|0|2,0:0|0:0|0:0,0:0:0:0:
8,257,46757,6,8,P|-10:181|41:123,1,160
135,123,48007,1,2,0:0:0:0:
90,208,48424,2,0,B|166:245|166:188|243:227,1,160,8|0,0:0|0:0,0:0:0:0:
195,310,49674,1,2,0:0:0:0:
282,348,50091,5,8,0:0:0:0:
335,268,50507,2,0,B|358:233|414:237,2,80,2|8|2,0:0|0:0|0:0,0:0:0:0:
404,334,51757,1,2,0:0:0:0:
483,280,52174,2,0,B|504:239|493:197,2,80,2|2|2,0:0|0:0|0:0,0:0:0:0:
404,236,53424,6,0,L|404:149,1,80,8|0,0:0|0:0,0:0:0:0:
393,69,54319,6,0,P|355:80|328:109,1,80,8|0,0:0|0:0,0:0:0:0:
311,203,55310,6,0,L|311:283,1,80,8|0,0:0|0:0,0:0:0:0:
237,332,56406,5,8,0:0:0:0:
111,279,57058,6,0,P|133:240|166:217,1,80,0|4,0:0|0:0,0:0:0:0:
