osu file format v14

[General]
AudioFilename: Kagerou Days r3mb.mp3
AudioLeadIn: 0
PreviewTime: 91
Countdown: 0
SampleSet: Soft
StackLeniency: 0.7
Mode: 0
LetterboxInBreaks: 0
WidescreenStoryboard: 0

[Editor]
DistanceSpacing: 0.8
BeatDivisor: 2
GridSize: 32
TimelineZoom: 1

[Metadata]
Title:Kagerou Daze
TitleUnicode:カゲロウデイズ
Artist:R3 Music Box
ArtistUnicode:R3 Music Box
Creator:ChuuritsuTv
Version:14th August
Source:メカクシティアクターズ
Tags:メカクシティレコーズ mekakucity actors reload jin sidu hibiya hiyori kuroneko black cat hatsune miku ia heat-haze days 初音ミク -Project DIVA- F 2nd 自然の敵P Shizen no Teki P Teki-P TekiP じん Blindfold
BeatmapID:1542392
BeatmapSetID:729649

[Difficulty]
HPDrainRate:2.8
CircleSize:3.6
OverallDifficulty:3.4
ApproachRate:4
SliderMultiplier:1.1
SliderTickRate:1

[Events]
//Background and Video events
0,0,"BG.jpg",0,0
//Break Periods
//Storyboard Layer 0 (Background)
//Storyboard Layer 1 (Fail)
//Storyboard Layer 2 (Pass)
//Storyboard Layer 3 (Foreground)
//Storyboard Sound Samples

[TimingPoints]
91,416.666666666667,4,2,1,40,1,0
5507,-100,4,2,1,25,0,0
5924,-100,4,2,1,30,0,0
6757,-100,4,2,1,40,0,0
7591,-100,4,2,1,25,0,0
8007,-100,4,2,1,30,0,0
8424,-100,4,2,1,40,0,0
9257,-100,4,2,1,25,0,0
9674,-100,4,2,1,30,0,0
10091,-100,4,2,1,40,0,0
10924,-100,4,2,1,25,0,0
11341,-100,4,2,1,30,0,0
11757,-100,4,2,1,40,0,0
18841,-100,4,2,1,25,0,0
19257,-100,4,2,1,30,0,0
20091,-100,4,2,1,40,0,0
20924,-100,4,2,1,25,0,0
21341,-100,4,2,1,30,0,0
21757,-100,4,2,1,40,0,0
22591,-100,4,2,1,25,0,0
23007,-100,4,2,1,30,0,0
23424,-100,4,2,1,40,0,0
25091,-100,4,2,1,25,0,0
25507,-100,4,2,1,30,0,0
25924,-100,4,2,1,40,0,0
32174,-100,4,2,1,25,0,0
32591,-100,4,2,1,30,0,0
33424,-100,4,2,1,40,0,0
34257,-100,4,2,1,25,0,0
34674,-100,4,2,1,30,0,0
35091,-100,4,2,1,40,0,0
35924,-100,4,2,1,25,0,0
36341,-100,4,2,1,30,0,0
36757,-100,4,2,1,40,0,0
37591,-100,4,2,1,25,0,0
38007,-100,4,2,1,30,0,0
38424,-100,4,2,1,40,0,0
45507,-100,4,2,1,25,0,0
45924,-100,4,2,1,30,0,0
46757,-100,4,2,1,40,0,0
47591,-100,4,2,1,25,0,0
48007,-100,4,2,1,30,0,0
48424,-100,4,2,1,40,0,0
49257,-100,4,2,1,25,0,0
49674,-100,4,2,1,30,0,0
50091,-100,4,2,1,40,0,0
51757,-100,4,2,1,25,0,0
52174,-100,4,2,1,30,0,0
52591,-100,4,2,1,40,0,0
53424,447.761194029851,4,2,1,40,1,0
54319,495.867768595041,4,2,1,40,1,0
55806,600,4,2,1,40,1,0
56406,652.173913043478,4,2,1,40,1,0
57058,461.538461538462,4,2,1,40,1,0

[Colours]
Combo1 : 236,151,151
Combo2 : 94,81,62
Combo3 : 238,240,162
Combo4 : 64,54,92

[HitObjects]
48,113,91,6,0,B|104:144|173:108,1,110,2|0,0:0|0:0,0:0:0:0:
211,61,716,1,8,0:0:0:0:
289,66,924,2,0,L|348:81,1,55,2|8,0:0|0:0,0:0:0:0:
311,148,1341,2,0,L|370:163,1,55,2|8,0:0|0:0,0:0:0:0:
332,231,1757,2,0,L|391:246,1,55,2|8,0:0|0:0,0:0:0:0:
357,316,2174,2,0,L|416:331,2,55,2|8|2,0:0|0:0|0:0,0:0:0:0:
225,371,3007,5,2,0:0:0:0:
166,323,3216,1,8,0:0:0:0:
104,364,3424,2,0,P|46:372|6:344,1,110,2|8,0:0|0:0,0:0:0:0:
67,297,4049,1,8,0:0:0:0:
127,251,4257,2,0,P|81:221|29:231,1,110,2|8,0:0|0:0,0:0:0:0:
166,323,5091,6,0,P|194:301|205:264,1,55,2|0,0:0|0:0,0:0:0:0:
193,207,5507,2,0,P|206:183|229:168,1,55,2|0,0:0|0:0,0:0:0:0:
304,152,5924,1,2,0:0:0:0:
447,273,6757,5,8,0:0:0:0:
365,384,7174,2,0,P|330:382|304:369,1,55,2|0,0:0|0:0,0:0:0:0:
291,298,7591,2,0,P|266:286|233:284,1,55,2|0,0:0|0:0,0:0:0:0:
170,320,8007,2,0,P|136:316|118:306,1,55,2|0,0:0|0:0,0:0:0:0:
111,228,8424,5,8,0:0:0:0:
193,117,8841,2,0,P|228:119|254:132,1,55,2|0,0:0|0:0,0:0:0:0:
267,203,9258,2,0,P|292:215|325:217,1,55,2|0,0:0|0:0,0:0:0:0:
388,181,9674,2,0,P|422:185|440:195,1,55,2|0,0:0|0:0,0:0:0:0:
459,270,10091,5,8,0:0:0:0:
333,322,10507,2,0,P|301:320|274:304,1,55,2|0,0:0|0:0,0:0:0:0:
206,316,10924,2,0,P|207:284|223:257,1,55,2|0,0:0|0:0,0:0:0:0:
216,185,11341,2,0,P|247:189|272:209,2,55,2|0|2,0:0|0:0|0:0,0:0:0:0:
84,215,12174,5,2,0:0:0:0:
98,141,12382,1,8,0:0:0:0:
76,70,12591,2,0,P|44:68|17:52,2,55,2|0|6,0:0|0:0|0:0,0:0:0:0:
197,22,13424,6,0,P|251:6|302:29,1,110,2|0,0:0|0:0,0:0:0:0:
328,97,14049,1,8,0:0:0:0:
330,175,14257,2,0,L|330:237,1,55,2|8,0:0|0:0,0:0:0:0:
255,203,14674,2,0,L|255:265,1,55,2|8,0:0|0:0,0:0:0:0:
180,231,15091,2,0,L|180:293,1,55,2|8,0:0|0:0,0:0:0:0:
105,263,15507,2,0,L|105:325,2,55,2|8|2,0:0|0:0|0:0,0:0:0:0:
47,141,16341,5,2,0:0:0:0:
79,73,16549,1,8,0:0:0:0:
145,30,16757,2,0,P|195:9|252:36,1,110,2|8,0:0|0:0,0:0:0:0:
196,87,17382,1,8,0:0:0:0:
148,146,17591,2,0,P|198:165|247:144,1,110,2|8,0:0|0:0,0:0:0:0:
79,73,18424,6,0,P|58:94|49:133,1,55,2|0,0:0|0:0,0:0:0:0:
82,190,18841,2,0,P|87:219|82:253,1,55,2|0,0:0|0:0,0:0:0:0:
49,314,19257,1,2,0:0:0:0:
194,378,20091,5,8,0:0:0:0:
322,320,20507,2,0,L|331:256,1,55,2|0,0:0|0:0,0:0:0:0:
401,241,20924,2,0,L|382:179,1,55,2|0,0:0|0:0,0:0:0:0:
426,125,21341,2,0,L|375:85,1,55,2|2,0:0|0:0,0:0:0:0:
319,46,21757,5,8,0:0:0:0:
191,104,22173,2,0,L|182:168,1,55,2|0,0:0|0:0,0:0:0:0:
112,183,22590,2,0,L|131:245,1,55,2|0,0:0|0:0,0:0:0:0:
87,299,23007,2,0,L|138:339,1,55,2|2,0:0|0:0,0:0:0:0:
194,378,23423,5,8,0:0:0:0:
303,310,23841,1,2,0:0:0:0:
411,378,24257,1,2,0:0:0:0:
508,299,24674,2,0,P|513:269|505:238,1,55,2|0,0:0|0:0,0:0:0:0:
455,188,25091,2,0,P|450:158|458:127,1,55,2|0,0:0|0:0,0:0:0:0:
494,66,25507,2,0,P|499:36|491:5,2,55,2|0|2,0:0|0:0|0:0,0:0:0:0:
373,37,26341,1,12,0:0:0:0:
252,66,26757,6,0,P|192:77|129:66,1,110,2|0,0:0|0:0,0:0:0:0:
67,67,27382,1,8,0:0:0:0:
2,111,27591,2,0,L|2:179,1,55,2|8,0:0|0:0,0:0:0:0:
77,149,28007,2,0,L|77:217,1,55,2|8,0:0|0:0,0:0:0:0:
153,182,28424,2,0,L|153:250,1,55,2|8,0:0|0:0,0:0:0:0:
229,216,28841,2,0,L|229:284,2,55,2|8|2,0:0|0:0|0:0,0:0:0:0:
354,151,29674,5,2,0:0:0:0:
417,197,29882,1,8,0:0:0:0:
445,272,30091,2,0,P|461:324|436:376,1,110,2|8,0:0|0:0,0:0:0:0:
382,320,30716,1,8,0:0:0:0:
319,273,30924,2,0,P|302:324|324:373,1,110,2|8,0:0|0:0,0:0:0:0:
416,196,31757,6,0,P|398:174|363:159,1,55,2|0,0:0|0:0,0:0:0:0:
305,194,32174,2,0,P|281:180|263:159,1,55,2|0,0:0|0:0,0:0:0:0:
258,84,32591,1,2,0:0:0:0:
84,4,33424,5,8,0:0:0:0:
25,132,33841,2,0,P|36:150|78:171,1,55,2|0,0:0|0:0,0:0:0:0:
138,181,34257,2,0,P|161:195|176:216,1,55,2|0,0:0|0:0,0:0:0:0:
199,291,34674,2,0,P|213:312|237:326,1,55,2|0,0:0|0:0,0:0:0:0:
316,323,35091,5,8,0:0:0:0:
375,195,35508,2,0,P|364:177|322:156,1,55,2|0,0:0|0:0,0:0:0:0:
262,146,35924,2,0,P|239:132|224:111,1,55,2|0,0:0|0:0,0:0:0:0:
201,36,36341,2,0,P|187:15|163:1,1,55,2|0,0:0|0:0,0:0:0:0:
84,3,36757,5,8,0:0:0:0:
16,124,37174,2,0,P|12:155|28:190,1,55,2|0,0:0|0:0,0:0:0:0:
0,250,37591,2,0,P|31:253|66:237,1,55,2|0,0:0|0:0,0:0:0:0:
127,269,38007,2,0,P|130:237|114:202,2,55,2|0|2,0:0|0:0|0:0,0:0:0:0:
77,375,38841,5,2,0:0:0:0:
152,358,39049,1,8,0:0:0:0:
226,376,39257,2,0,P|257:380|286:373,2,55,2|0|6,0:0|0:0|0:0,0:0:0:0:
252,252,40091,6,0,P|304:233|359:246,1,110,2|0,0:0|0:0,0:0:0:0:
431,267,40716,1,8,0:0:0:0:
496,221,40924,2,0,L|496:152,1,55,2|8,0:0|0:0,0:0:0:0:
421,181,41341,2,0,L|421:112,1,55,2|8,0:0|0:0,0:0:0:0:
347,145,41757,2,0,L|347:76,1,55,2|8,0:0|0:0,0:0:0:0:
272,113,42174,2,0,L|272:44,2,55,2|8|2,0:0|0:0|0:0,0:0:0:0:
138,161,43007,5,2,0:0:0:0:
75,207,43215,1,8,0:0:0:0:
47,282,43424,2,0,P|31:334|56:386,1,110,2|8,0:0|0:0,0:0:0:0:
110,330,44049,1,8,0:0:0:0:
173,282,44257,2,0,P|190:333|168:382,1,110,2|8,0:0|0:0,0:0:0:0:
75,207,45091,6,0,P|93:185|128:170,1,55,2|0,0:0|0:0,0:0:0:0:
186,205,45508,2,0,P|210:191|228:170,1,55,2|0,0:0|0:0,0:0:0:0:
233,95,45925,1,2,0:0:0:0:
395,59,46757,5,8,0:0:0:0:
495,161,47174,2,0,L|455:204,1,55,2|0,0:0|0:0,0:0:0:0:
478,276,47591,2,0,L|420:288,1,55,2|0,0:0|0:0,0:0:0:0:
397,359,48007,2,0,L|342:336,1,55,2|0,0:0|0:0,0:0:0:0:
277,304,48424,5,8,0:0:0:0:
177,202,48841,2,0,L|217:159,1,55,2|0,0:0|0:0,0:0:0:0:
194,87,49258,2,0,L|252:75,1,55,2|0,0:0|0:0,0:0:0:0:
275,4,49674,2,0,L|330:27,1,55,2|0,0:0|0:0,0:0:0:0:
395,59,50091,5,8,0:0:0:0:
340,173,50507,1,2,0:0:0:0:
395,287,50924,1,2,0:0:0:0:
310,380,51341,2,0,P|277:385|249:377,1,55,2|0,0:0|0:0,0:0:0:0:
201,325,51757,2,0,P|174:320|147:325,1,55,2|0,0:0|0:0,0:0:0:0:
89,376,52174,2,0,P|56:381|28:373,2,55,2|0|2,0:0|0:0|0:0,0:0:0:0:
70,248,53007,1,12,0:0:0:0:
89,112,53424,6,0,B|136:150|208:118,1,110,8|0,0:0|0:0,0:0:0:0:
306,41,54319,6,0,P|333:90|332:143,1,110,8|0,0:0|0:0,0:0:0:0:
248,231,55310,6,0,P|228:281|238:340,1,110,8|0,0:0|0:0,0:0:0:0:
363,380,56406,5,8,0:0:0:0:
505,318,57058,6,0,L|505:261,2,55,0|0|4,0:0|0:0|0:0,0:0:0:0:
