osu file format v5

[General]
AudioFilename: Rondo Alla Turca.mp3
AudioLeadIn: 0
PreviewTime: -1
Countdown: 1
SampleSet: Normal
StackLeniency: 0.7
Mode: 0
LetterboxInBreaks: 1

[Metadata]
Title:Kischer Marsch
Artist:R2beat
Creator:osu_CN_yaya
Version:Normal
Source:
Tags:R2beat

[Difficulty]
HPDrainRate:0
CircleSize:2
OverallDifficulty:2
SliderMultiplier:1
SliderTickRate:4

[Events]
//Background and Video events
0,0,"115552.jpg"
//Break Periods
2,65351,71147
2,93795,99591
//Storyboard Layer 0 (Background)
//Storyboard Layer 1 (Failing)
//Storyboard Layer 2 (Passing)
//Storyboard Layer 3 (Foreground)
//Storyboard Sound Samples
//Background Colour Transformations
3,100,163,162,255

[TimingPoints]
2490,444.444444444444,4,1,0,71,1
51373,444.444444444444,4,2,0,71,0
86929,444.444444444444,4,1,0,71,0
87818,444.444444444444,4,1,0,71,0
90484,444.444444444444,4,1,0,71,0
91373,444.444444444444,4,1,0,71,0
93373,444.444444444444,4,2,0,71,0
101151,444.444444444444,4,1,0,71,0

[Colours]
Combo1 : 2,253,190
Combo2 : 233,12,62
Combo3 : 105,117,254
Combo4 : 242,252,65

[HitObjects]
72,288,15823,1,0
152,160,16267,1,0
248,40,16712,1,0
336,160,17156,1,0
416,288,17601,1,0
264,296,18045,2,0,B|232:224|184:312,2,100,0|0|4
416,296,19378,5,0
408,144,19823,1,0
256,128,20267,1,0
264,280,20712,1,0
112,272,21156,1,0
112,120,21601,2,0,B|152:56|216:256,1,200,0|4
80,312,22934,6,0,B|192:312,1,100,0|0
328,312,23823,2,0,B|440:312,1,100,0|0
440,160,24712,5,0
336,56,25156,1,0
232,168,25601,2,0,B|160:184|168:96,1,100,0|0
72,224,26489,5,0
144,96,26934,1,0
296,96,27378,1,0
376,224,27823,1,0
224,232,28267,1,0
224,80,28712,2,0,B|224:152,1,50
296,128,29156,2,0,B|264:120|304:176,2,50,0|0|4
424,208,30045,5,8
272,208,30489,1,0
120,208,30934,2,0,B|72:168|112:160,2,50,0|0|4
112,56,31823,5,8
216,160,32267,1,0
328,264,32712,1,0
328,264,32934,1,0
328,264,33156,1,4
456,344,33601,5,8
456,192,34045,1,0
456,40,34489,2,0,B|424:72|352:24,1,100,0|4
216,48,35378,5,8
112,160,35823,1,0
216,264,36267,2,0,B|272:152,1,100,0|4
384,96,37156,6,2,B|384:208,1,100
392,344,38045,2,2,B|288:344,1,100,8|2
256,192,38934,12,0,40267
72,72,40712,5,0
224,72,41156,1,0
376,72,41601,1,0
384,224,42045,1,0
232,224,42489,1,0
80,224,42934,1,0
152,96,43378,2,2,B|128:32|216:136,1,100,2|6
344,56,44267,5,0
344,208,44712,1,0
352,360,45156,2,8,B|336:328|256:384,1,100,8|4
112,368,46045,5,0
112,216,46489,1,0
112,64,46934,2,8,B|104:0|176:72,1,100,8|4
328,48,47823,6,0,B|304:24|408:112|400:112,1,100,0|0
272,192,48712,1,0
136,248,49156,1,4
256,328,49601,6,0,B|296:352|360:288,1,100,0|0
456,200,50489,1,0
376,72,50934,1,4
224,64,51378,6,0,B|192:104|240:112,2,50,8|0|8
208,216,52267,1,8
360,216,52712,1,2
440,88,53156,1,8
288,96,53601,1,2
224,192,54045,1,8
104,96,54489,1,2
88,248,54934,6,0,B|64:280|152:328,1,100,8|2
272,328,55823,1,8
416,280,56267,1,2
464,136,56712,1,8
336,64,57156,2,4,B|304:48|328:112,4,50,0|0|0|0|4
184,48,58489,5,8
88,168,58934,1,2
88,320,59378,2,0,B|192:320,1,100,8|2
336,328,60267,2,0,B|392:336|408:264,1,100,8|2
440,120,61156,1,4
296,80,61601,1,4
144,64,62045,6,0,B|112:104|184:64,2,50,8|0|2
136,216,62934,1,8
136,368,63378,1,2
288,368,63823,1,8
440,368,64267,1,2
432,216,64712,2,0,B|432:104,1,100,8|4
56,64,72712,6,0,B|160:104,1,100,8|2
168,248,73601,2,0,B|80:336,1,100,8|2
248,328,74489,1,8
400,328,74934,1,2
472,192,75378,1,8
392,64,75823,1,2
240,64,76267,1,8
88,72,76712,1,8
88,224,77156,1,8
240,216,77601,2,4,B|344:232|344:232|336:232,4,100
360,304,79823,5,8
456,184,80267,1,2
352,72,80712,1,8
200,80,81156,1,2
80,168,81601,5,8
152,296,82045,1,2
304,296,82489,1,8
456,312,82934,2,4,B|456:248,1,50
448,184,83378,5,8
448,32,83823,1,2
296,32,84267,1,8
144,40,84712,1,2
224,160,85156,1,0
336,256,85601,2,0,B|384:312|272:264,2,100,2|0|4
200,320,86934,5,0
80,224,87378,1,0
80,72,87823,2,0,B|72:40|176:96,1,100,0|0
312,112,88712,2,0,B|288:56|400:120,1,100,0|0
440,256,89601,1,0
288,256,90045,1,0
136,264,90489,6,0,B|104:296|152:168,1,100,0|0
56,64,91378,1,0
208,80,91823,1,0
360,88,92267,1,0
448,208,92712,2,0,B|464:208|416:256,4,50,0|0|0|4|4
56,72,101156,6,2,B|80:32|160:96,1,100,0|0
296,72,102045,2,2,B|304:40|400:80,1,100,0|4
440,216,102934,2,2,L|432:208|424:216|416:208|408:216|400:208|392:216|384:208|376:216|368:208,3,100,0|0|0|4
216,216,104712,6,0,L|152:216,3,50
144,144,105601,2,0,L|144:72|144:72|144:80,3,50
216,88,106489,2,0,L|280:88,3,50
344,88,107378,2,0,L|456:88,1,100,0|4
448,240,108267,6,2,L|464:208|392:240,1,100,0|4
256,240,109156,2,2,L|232:200|296:168,1,100,0|4
424,136,110045,2,2,B|448:104|384:152,6,50,0|0|0|0|0|4|4
456,280,111823,6,0,B|352:280,1,100
208,280,112712,2,0,B|104:280,1,100
104,128,113601,2,0,B|216:128,1,100
360,120,114489,2,0,B|400:96|416:192,1,100,0|4
456,328,115378,6,0,L|344:328,1,100,8|0
200,328,116267,2,0,B|96:328,1,100,8|0
56,184,117156,1,8
152,72,117601,1,0
304,72,118045,2,0,B|336:40|360:144,1,100,8|0
400,280,118934,5,8
256,248,119378,1,0
112,200,119823,2,0,B|72:232|112:120,1,100,8|0
248,64,120712,5,8
400,72,121156,1,0
424,216,121601,2,0,B|440:280|352:208,1,100,8|0
296,72,122489,6,2,B|256:88|344:120|288:168,1,100,8|0
304,312,123378,6,2,B|288:272|256:360|208:304,1,100,12|0
64,328,124267,6,2,B|104:312|16:280|72:232,3,100,8|0|0|4
64,88,126045,5,0
216,88,126489,1,0
368,88,126934,1,0
448,208,127378,1,0
376,336,127823,1,0
224,336,128267,1,0
72,328,128712,2,0,L|80:320|72:312|80:304|72:296|80:288|72:280|80:272|72:264|80:256|72:248|80:240,1,100,8|0
368,320,130045,5,0
448,192,130489,1,0
376,64,130934,1,0
280,184,131378,1,0
128,184,131823,1,0
128,32,132267,2,0,L|136:40|144:32|152:40|160:32|168:40|176:32|184:40|192:32|200:40|208:32|216:40,1,100,8|0
376,280,133601,5,0
224,280,134045,1,0
296,152,134489,1,0
168,64,134934,1,0
72,168,135378,1,0
160,288,135823,2,0,L|152:296|144:288|136:296|128:288|120:296|112:288|104:296|96:288|88:296,1,100,0|0
392,288,137156,5,4
