osu file format v12

[General]
AudioFilename: Burn it up.mp3
AudioLeadIn: 0
PreviewTime: 38332
Countdown: 0
SampleSet: Soft
StackLeniency: 0.7
Mode: 0
LetterboxInBreaks: 1
WidescreenStoryboard: 0

[Editor]
Bookmarks: 20025,72525,90025,100025
DistanceSpacing: 1.7
BeatDivisor: 4
GridSize: 4
TimelineZoom: 1

[Metadata]
Title:Burn It Up
TitleUnicode:Burn It Up
Artist:R. Kelly ft. Wisin & Yandel
ArtistUnicode:R. Kelly ft. Wisin & Yandel
Creator:eldnl
Version:Normal
Source:
Tags:reggaeton english
BeatmapID:143013
BeatmapSetID:45744

[Difficulty]
HPDrainRate:4
CircleSize:3
OverallDifficulty:4
ApproachRate:5
SliderMultiplier:2
SliderTickRate:2

[Events]
//Background and Video events
0,0,"Beach.jpg",0,0
//Break Periods
2,90229,98829
//Storyboard Layer 0 (Background)
//Storyboard Layer 1 (Fail)
//Storyboard Layer 2 (Pass)
//Storyboard Layer 3 (Foreground)
//Storyboard Sound Samples
//Background Colour Transformations
3,100,163,162,255

[TimingPoints]
80,625,4,2,0,70,1,0
20080,-200,4,2,1,70,0,0
28790,625,4,2,1,70,1,0
28790,-200,4,2,1,70,0,0
29883,-133.333333333333,4,2,0,70,0,0
30029,625,4,2,0,80,1,1
30185,-133.333333333333,4,1,0,80,0,0
35966,-133.333333333333,4,1,0,80,0,0
38779,-192.307692307692,4,2,1,70,0,0
40029,-100,4,1,0,80,0,1
60029,-133.333333333333,4,1,0,80,0,0
88779,-200,4,1,0,80,0,0
88935,-200,4,1,1,50,0,0
90029,-200,4,1,1,80,0,0
100029,-133.333333333333,4,1,1,80,0,1
100185,-133.333333333333,4,1,1,80,0,0
105966,-133.333333333333,4,1,1,80,0,0
106435,-133.333333333333,4,2,1,70,0,0
107216,-133.333333333333,4,1,1,80,0,0
107685,-133.333333333333,4,2,1,70,0,0
108779,-192.307692307692,4,2,0,70,0,0
110029,-100,4,1,0,80,0,1
128779,-100,4,2,0,70,0,1
130029,-100,4,2,0,70,0,0

[Colours]
Combo1 : 255,150,0
Combo2 : 255,17,17
Combo3 : 0,126,187
Combo4 : 36,255,36
SliderBorder : 0,0,0

[HitObjects]
160,344,20080,2,0,B|76:280,1,100,2|0,0:0|0:0,0:0:0:0:
96,136,21330,2,0,B|180:200,1,100,2|0,0:0|0:0,0:0:0:0:
324,184,22580,2,0,B|352:138|406:134,1,100,2|2,0:0|0:0,0:0:0:0:
484,264,23830,2,0,B|455:309|401:313,1,100,2|2,0:0|0:0,0:0:0:0:
252,304,25080,6,0,B|152:312,1,100,2|0,0:0|0:0,0:0:0:0:
52,200,26330,2,0,B|152:192,1,100,2|0,0:0|0:0,0:0:0:0:
256,84,27580,2,0,B|259:137|305:165,1,100,2|2,0:0|0:0,0:0:0:0:
452,204,28790,2,0,B|448:257|402:285,1,100,2|2,0:0|0:0,0:0:0:0:
224,280,30028,6,0,B|112:300,2,112.499996647239,4|8|8,0:0|0:0|0:0,0:0:0:0:
232,184,31279,2,0,B|120:204,2,112.499996647239,0|8|8,0:0|0:0|0:0,0:0:0:0:
316,136,32529,2,0,B|347:187|407:191,2,112.499996647239,0|8|8,0:0|0:0|0:0,0:0:0:0:
224,104,33779,2,0,B|76:132,1,149.999995529652
108,308,35029,6,0,B|256:280,1,149.999995529652,4|0,0:0|0:0,0:0:0:0:
416,192,36279,1,2,0:2:0:0:
256,56,37529,1,2,2:0:0:0:
96,192,38779,1,4,0:0:0:0:
256,328,40029,5,4,0:0:0:0:
356,316,40341,1,0,0:0:0:0:
408,232,40654,2,0,B|436:181|408:136|408:136|362:113|346:63,1,200,0|0,0:0|0:0,0:0:0:0:
256,40,41591,1,0,0:0:0:0:
166,61,41904,2,0,B|149:113|104:136|104:136|75:181|104:232,1,200,0|2,0:0|0:2,0:0:0:0:
256,344,43154,5,0,0:0:0:0:
256,244,43466,1,0,0:0:0:0:
312,164,43779,2,0,B|276:144|256:83|256:83|236:144|200:164,1,200
64,56,45029,6,0,B|84:260,1,200,4|0,0:0|0:0,0:0:0:0:
156,324,45966,1,0,0:0:0:0:
256,308,46279,1,0,0:0:0:0:
356,324,46591,1,0,0:0:0:0:
428,255,46904,2,0,B|448:56,1,200,0|2,0:0|0:2,0:0:0:0:
256,20,48154,2,0,B|256:224,2,200
160,172,50029,6,0,B|172:244|156:324,2,150,4|8|8,0:0|0:0|0:0,0:0:0:0:
256,128,51279,2,0,B|256:280,2,150,0|8|8,0:0|0:0|0:0,0:0:0:0:
352,172,52529,2,0,B|340:244|356:324,2,150,2|8|8,0:2|0:0|0:0,0:0:0:0:
296,100,53779,2,0,B|268:140|256:192|256:192|244:140|216:100,1,200
40,144,55029,6,0,B|109:228|80:330,1,200,4|0,0:0|0:0,0:0:0:0:
180,348,55966,1,0,0:0:0:0:
256,288,56279,1,0,0:0:0:0:
332,348,56591,1,0,0:0:0:0:
431,331,56904,2,0,B|402:228|472:144,1,200,0|4,0:0|0:0,0:0:0:0:
344,32,58154,6,0,B|300:20|256:72|256:72|212:20|168:32,1,200,0|4,0:0|0:0,0:0:0:0:
57,256,60029,6,0,B|115:270|136:328,1,112.499996647239,4|8,0:0|0:0,0:0:0:0:
168,344,60654,2,0,B|244:320,1,74.9999977648259,0|8,0:0|0:0,0:0:0:0:
368,304,61279,2,0,B|473:270,1,112.499996647239,0|8,0:0|0:0,0:0:0:0:
476,236,61904,2,0,B|447:207|455:166,1,74.9999977648259,0|8,0:0|0:0,0:0:0:0:
384,60,62529,6,0,B|278:93,1,112.499996647239,0|8,0:0|0:0,0:0:0:0:
252,120,63154,2,0,B|180:142,1,74.9999977648259,0|8,0:0|0:0,0:0:0:0:
84,228,63779,2,0,B|131:263|128:325,1,112.499996647239,0|8,0:0|0:0,0:0:0:0:
160,336,64404,2,0,B|232:314,1,74.9999977648259,0|8,0:0|0:0,0:0:0:0:
344,256,65029,6,0,B|452:222,2,112.499996647239,4|8|8,0:0|0:0|0:0,0:0:0:0:
292,172,66279,2,0,B|400:138,2,112.499996647239,0|8|8,0:0|0:0|0:0,0:0:0:0:
200,144,67529,2,0,B|165:196|106:197,2,112.499996647239,0|8|8,0:0|0:0|0:0,0:0:0:0:
272,80,68779,1,4,0:0:0:0:
448,180,70029,6,0,B|432:296,1,112.499996647239,4|8,0:0|0:0,0:0:0:0:
404,308,70654,2,0,B|375:279|334:287,1,74.9999977648259,0|8,0:0|0:0,0:0:0:0:
232,212,71279,2,0,B|197:259|135:256,1,112.499996647239,0|8,0:0|0:0,0:0:0:0:
104,240,71904,2,0,B|113:201|84:170,1,74.9999977648259,0|8,0:0|0:0,0:0:0:0:
208,56,72529,6,0,B|243:103|305:100,1,112.499996647239,0|8,0:0|0:0,0:0:0:0:
336,84,73154,2,0,B|326:45|355:14,1,74.9999977648259,0|8,0:0|0:0,0:0:0:0:
456,148,73779,2,0,B|448:264,1,112.499996647239,0|8,0:0|0:0,0:0:0:0:
420,280,74404,2,0,B|414:356,1,74.9999977648259,0|8,0:0|0:0,0:0:0:0:
260,320,75029,6,0,B|211:346|169:320|169:320|147:276|100:261,2,187.499994412065,4|0|0,0:0|0:0|0:0,0:0:0:0:
340,160,77216,2,0,B|428:164|460:88|460:88|420:88|388:72,1,224.999993294478
208,56,78779,1,4,0:0:0:0:
36,200,80029,6,0,B|93:247,1,75.0000028610231,4|0,0:0|0:0,0:0:0:0:
136,264,80497,2,0,B|165:288,1,37.5000014305115,8|0,0:0|0:0,0:0:0:0:
268,364,80966,1,8,0:0:0:0:
384,316,81279,2,0,B|387:274|426:253,1,75.0000028610231,0|0,0:0|0:0,0:0:0:0:
440,220,81747,2,0,B|430:173,1,37.5000014305115,8|0,0:0|0:0,0:0:0:0:
356,80,82216,1,8,0:0:0:0:
228,64,82529,6,0,B|142:72,1,75.0000028610231,0|0,0:0|0:0,0:0:0:0:
128,96,82997,2,0,B|147:122|135:157,1,37.5000014305115,8|0,0:0|0:0,0:0:0:0:
88,248,83466,1,8,0:0:0:0:
184,332,83779,2,0,B|269:323,1,75.0000028610231,0|0,0:0|0:0,0:0:0:0:
284,300,84247,2,0,B|264:273|276:238,1,37.5000014305115,8|0,0:0|0:0,0:0:0:0:
260,140,84716,1,8,0:0:0:0:
368,72,85029,6,0,B|440:92,1,74.9999977648259,4|0,0:0|0:0,0:0:0:0:
472,204,85654,2,0,B|399:183,1,74.9999977648259
376,280,86279,2,0,B|303:259,1,74.9999977648259
212,288,86904,2,0,B|139:267,1,74.9999977648259
88,184,87529,6,0,B|168:174|203:97,1,149.999995529652
388,40,88779,2,0,B|432:236,1,200,4|4,0:0|0:0,0:0:0:0:
288,104,100029,6,0,B|400:84,2,112.499996647239,4|8|8,0:0|0:0|0:0,0:0:0:0:
276,200,101279,2,0,B|388:180,2,112.499996647239,0|8|8,0:0|0:0|0:0,0:0:0:0:
192,248,102529,2,0,B|161:197|101:193,2,112.499996647239,0|8|8,0:0|0:0|0:0,0:0:0:0:
284,280,103779,2,0,B|432:252,1,149.999995529652
412,72,105029,6,0,B|338:86,1,74.9999977648259
240,80,105654,2,0,B|166:94,1,74.9999977648259
108,172,106279,2,0,B|85:210|108:244|108:244|142:262|154:300,1,149.999995529652,0|2,0:0|0:0,0:0:0:0:
357,299,107529,2,0,B|369:262|404:244|404:244|426:210|404:172,2,149.999995529652,0|2|4,0:0|0:0|0:0,0:0:0:0:
256,56,110029,5,4,0:0:0:0:
156,68,110341,1,0,0:0:0:0:
104,152,110654,2,0,B|76:203|104:248|104:248|150:271|166:321,1,200,0|0,0:0|0:0,0:0:0:0:
256,344,111591,1,0,0:0:0:0:
346,323,111904,2,0,B|363:271|408:248|408:248|437:203|408:152,1,200,0|2,0:0|0:2,0:0:0:0:
256,40,113154,5,0,0:0:0:0:
256,140,113466,1,0,0:0:0:0:
200,220,113779,2,0,B|236:240|256:301|256:301|276:240|312:220,1,200
448,328,115029,6,0,B|428:124,1,200,4|0,0:0|0:0,0:0:0:0:
356,60,115966,1,0,0:0:0:0:
256,76,116279,1,0,0:0:0:0:
156,60,116591,1,0,0:0:0:0:
84,129,116904,2,0,B|64:328,1,200,0|2,0:0|0:2,0:0:0:0:
256,364,118154,2,0,B|256:160,2,200
352,212,120029,6,0,B|340:140|356:60,2,150,4|8|8,0:0|0:0|0:0,0:0:0:0:
256,256,121279,2,0,B|256:104,2,150,0|8|8,0:0|0:0|0:0,0:0:0:0:
160,212,122529,2,0,B|172:140|156:60,2,150,2|8|8,0:2|0:0|0:0,0:0:0:0:
216,284,123779,2,0,B|244:244|256:192|256:192|268:244|296:284,1,200
472,240,125029,6,0,B|403:156|432:54,1,200,4|0,0:0|0:0,0:0:0:0:
332,36,125966,1,0,0:0:0:0:
256,96,126279,1,0,0:0:0:0:
180,36,126591,1,0,0:0:0:0:
81,53,126904,2,0,B|110:156|40:240,1,200,0|4,0:0|0:0,0:0:0:0:
168,352,128154,6,0,B|212:364|256:312|256:312|300:364|344:352,1,200,0|4,0:0|0:0,0:0:0:0:
376,160,129404,1,2,0:0:0:0:
136,160,130029,1,4,0:0:0:0:
