osu file format v12

[General]
AudioFilename: Burn it up.mp3
AudioLeadIn: 0
PreviewTime: 38332
Countdown: 0
SampleSet: Soft
StackLeniency: 0.7
Mode: 0
LetterboxInBreaks: 1
WidescreenStoryboard: 0

[Editor]
Bookmarks: 20025,86900,100025
DistanceSpacing: 1.5
BeatDivisor: 6
GridSize: 4
TimelineZoom: 0.4999999

[Metadata]
Title:Burn It Up
TitleUnicode:Burn It Up
Artist:R. Kelly ft. Wisin & Yandel
ArtistUnicode:R. Kelly ft. Wisin & Yandel
Creator:eldnl
Version:Hard
Source:
Tags:reggaeton english
BeatmapID:142883
BeatmapSetID:45744

[Difficulty]
HPDrainRate:6
CircleSize:4
OverallDifficulty:6
ApproachRate:7
SliderMultiplier:2.8
SliderTickRate:2

[Events]
//Background and Video events
0,0,"Beach.jpg",0,0
//Break Periods
2,90229,99129
//Storyboard Layer 0 (Background)
//Storyboard Layer 1 (Fail)
//Storyboard Layer 2 (Pass)
//Storyboard Layer 3 (Foreground)
//Storyboard Sound Samples
//Background Colour Transformations
3,100,163,162,255

[TimingPoints]
80,625,4,2,0,70,1,0
20080,-200,4,2,1,70,0,0
28790,625,4,2,0,70,1,0
28790,-200,4,2,0,70,0,0
29883,-133.333333333333,4,2,0,70,0,0
30029,625,4,2,0,80,1,1
30185,-133.333333333333,4,1,0,80,0,0
35966,-133.333333333333,4,1,0,80,0,0
36591,-133.333333333333,4,2,0,80,0,0
37216,-133.333333333333,4,1,0,80,0,0
37841,-133.333333333333,4,2,0,80,0,0
38466,-133.333333333333,4,1,0,80,0,0
38779,-192.307692307692,4,2,1,80,0,0
40029,-100,4,1,0,80,0,1
60029,-133.333333333333,4,1,0,80,0,0
68779,-200,4,1,0,80,0,0
68857,-200,4,2,1,60,0,0
70029,-133.333333333333,4,1,0,80,0,0
77529,-166.666666666667,4,1,0,80,0,0
78622,-133.333333333333,4,1,0,80,0,0
100029,-133.333333333333,4,1,1,80,0,1
100185,-133.333333333333,4,1,1,80,0,0
105966,-133.333333333333,4,1,1,80,0,0
106591,-133.333333333333,4,2,1,70,0,0
107216,-133.333333333333,4,1,1,80,0,0
107841,-133.333333333333,4,2,1,70,0,0
108466,-133.333333333333,4,1,1,80,0,0
108779,-192.307692307692,4,2,0,70,0,0
110029,-100,4,1,0,80,0,1
128779,-100,4,2,0,70,0,1
130029,-100,4,2,0,100,0,0

[Colours]
Combo1 : 255,150,0
Combo2 : 255,17,17
Combo3 : 0,126,187
Combo4 : 36,255,36
SliderBorder : 0,0,0

[HitObjects]
56,60,20080,2,0,B|76:204,1,140,2|0,0:0|0:0,0:0:0:0:
200,260,21330,2,0,B|180:116,1,140,2|0,0:0|0:0,0:0:0:0:
300,48,22580,6,0,B|324:60|356:56,2,46.6666666666667,2|0|0,0:0|0:0|0:0,0:0:0:0:
348,136,23205,2,0,B|374:135|401:116,2,46.6666666666667,2|0|0,0:0|0:0|0:0,0:0:0:0:
432,192,23830,2,0,B|455:179|471:151,2,46.6666666666667,2|0|0,0:0|0:0|0:0,0:0:0:0:
400,284,24455,2,0,P|356:272|312:276,1,70,2|0,0:0|0:0,0:0:0:0:
224,240,25080,6,0,B|76:252,1,140,2|0,0:0|0:0,0:0:0:0:
40,88,26330,2,0,B|188:76,1,140,2|0,0:0|0:0,0:0:0:0:
344,76,27580,6,0,B|392:72,2,46.6666666666667,2|0|0,0:0|0:0|0:0,0:0:0:0:
292,136,28205,1,2,0:0:0:0:
292,136,28517,1,0,0:0:0:0:
392,236,28790,2,0,B|440:232,2,46.6666666666667,2|0|0,0:0|0:0|0:0,0:0:0:0:
340,296,29415,1,2,0:0:0:0:
340,296,29727,1,2,0:0:0:0:
168,324,30028,6,0,B|151:241|76:202,1,157.499995306134,4|8,0:0|0:0,0:0:0:0:
40,132,30654,2,0,B|140:96,1,104.999996870756,0|8,0:0|0:0,0:0:0:0:
288,44,31279,2,0,B|344:105|428:100,1,157.499995306134,0|8,0:0|0:0,0:0:0:0:
468,172,31904,1,0,0:0:0:0:
468,172,32216,1,8,0:0:0:0:
364,292,32529,6,0,B|208:300,1,157.499995306134,0|8,0:0|0:0,0:0:0:0:
144,348,33154,2,0,P|84:332|48:272,1,105.000004005432,0|8,0:0|0:0,0:0:0:0:
132,164,33779,1,0,0:0:0:0:
260,76,34091,1,0,0:0:0:0:
340,72,34247,1,8,0:0:0:0:
404,120,34404,2,0,B|420:224,1,104.999996870756,0|8,0:0|0:0,0:0:0:0:
308,336,35029,6,0,B|284:181,1,157.499995306134,4|8,0:0|0:0,0:0:0:0:
212,144,35654,1,0,0:0:0:0:
80,56,35966,6,0,B|56:68|24:64,2,52.5,8|0|0,0:0|0:0|0:0,0:0:0:0:
116,208,36591,5,0,0:0:0:0:
116,208,36747,1,2,0:0:0:0:
116,208,36904,1,0,0:0:0:0:
256,280,37216,6,0,B|256:336,2,52.4999984353781,0|0|0,0:0|0:0|0:0,0:0:0:0:
396,208,37841,5,0,0:0:0:0:
396,208,37997,1,2,0:0:0:0:
396,208,38154,1,0,0:0:0:0:
432,56,38466,6,0,B|456:68|488:64,2,52.5,0|0|4,0:0|0:0|0:0,0:0:0:0:
256,60,40029,5,4,0:0:0:0:
92,100,40341,1,0,0:0:0:0:
32,160,40497,2,0,B|24:240,1,70,8|0,0:0|0:0,0:0:0:0:
144,348,40966,2,0,B|158:207,1,140,8|0,0:0|0:0,0:0:0:0:
420,100,41591,5,0,0:0:0:0:
480,160,41747,2,0,B|488:240,1,70,8|0,0:0|0:0,0:0:0:0:
368,348,42216,2,0,B|353:207,1,140,8|2,0:0|0:2,0:0:0:0:
256,60,42841,6,0,B|256:128,2,70,0|8|0,0:0|0:0|0:0,0:0:0:0:
112,160,43466,2,0,B|120:236,1,70,8|0,0:0|0:0,0:0:0:0:
392,229,43935,2,0,B|400:160,2,70,0|0|8,0:0|0:0|0:0,0:0:0:0:
324,280,44404,2,0,B|280:288|256:272|256:272|232:288|188:280,1,140,0|8,0:0|0:0,0:0:0:0:
256,60,45029,5,4,0:0:0:0:
96,112,45341,1,0,0:0:0:0:
56,184,45497,1,8,0:0:0:0:
56,184,45654,1,0,0:0:0:0:
112,344,45966,2,0,B|92:308|112:276|112:276|144:260|156:224,1,140,8|0,0:0|0:0,0:0:0:0:
416,112,46591,5,0,0:0:0:0:
456,184,46747,1,8,0:0:0:0:
456,184,46904,1,0,0:0:0:0:
400,344,47216,2,0,B|420:308|400:276|400:276|368:260|356:224,1,140,8|2,0:0|0:2,0:0:0:0:
256,40,47841,5,0,0:0:0:0:
180,76,47997,2,0,B|168:148,1,70,8|0,0:0|0:0,0:0:0:0:
332,76,48310,2,0,B|344:148,1,70,0|8,0:0|0:0,0:0:0:0:
308,224,48622,2,0,B|276:204|256:176|256:176|236:204|204:224,1,140
128,256,49091,1,0,0:0:0:0:
256,360,49404,1,0,0:0:0:0:
384,256,49716,1,8,0:0:0:0:
256,40,50029,5,4,0:0:0:0:
160,180,50341,2,0,B|135:210|103:220,1,70,0|8,0:0|0:0,0:0:0:0:
32,176,50654,2,0,B|96:328,1,140,0|8,0:0|0:0,0:0:0:0:
256,344,51279,5,0,0:0:0:0:
352,180,51591,2,0,B|376:210|408:220,1,70,0|8,0:0|0:0,0:0:0:0:
480,176,51904,2,0,B|416:328,1,140,0|8,0:0|0:0,0:0:0:0:
256,344,52529,6,0,B|256:204,1,140,2|0,0:2|0:0,0:0:0:0:
256,120,52997,1,8,0:0:0:0:
256,120,53154,1,0,0:0:0:0:
92,152,53466,2,0,B|112:80,1,70,8|0,0:0|0:0,0:0:0:0:
401,84,53935,2,0,B|420:152,2,70,0|0|8,0:0|0:0|0:0,0:0:0:0:
332,36,54404,1,0,0:0:0:0:
180,36,54716,1,8,0:0:0:0:
256,192,55029,6,0,B|256:248|256:248|256:292|220:320,1,140,4|0,0:0|0:0,0:0:0:0:
56,280,55654,2,0,B|56:224|56:224|56:180|92:152,1,140,0|8,0:0|0:0,0:0:0:0:
292,63,56279,6,0,B|256:92|256:136|256:136|256:192,1,140
419,232,56904,2,0,B|456:204|456:160|456:160|456:104,1,140,0|8,0:0|0:0,0:0:0:0:
176,332,57529,6,0,B|176:264,1,70,4|0,0:0|0:0,0:0:0:0:
132,192,57841,1,8,0:0:0:0:
336,332,58154,2,0,B|336:264,1,70,4|0,0:0|0:0,0:0:0:0:
380,192,58466,1,8,0:0:0:0:
256,80,58779,5,4,0:0:0:0:
132,192,59091,1,0,0:0:0:0:
256,304,59404,1,0,0:0:0:0:
380,192,59716,1,0,0:0:0:0:
256,80,60029,6,0,B|99:55,1,157.499995306134,4|8,0:0|0:0,0:0:0:0:
40,108,60654,1,0,0:0:0:0:
40,108,60966,1,8,0:0:0:0:
60,264,61279,2,0,B|125:210|208:227,1,157.499995306134,0|8,0:0|0:0,0:0:0:0:
244,296,61904,2,0,B|244:239|288:204,1,104.999996870756,0|8,0:0|0:0,0:0:0:0:
420,324,62529,5,0,0:0:0:0:
472,132,62841,1,0,0:0:0:0:
416,76,62997,1,8,0:0:0:0:
340,100,63154,2,0,B|232:108,1,104.999996870756,0|8,0:0|0:0,0:0:0:0:
76,96,63779,2,0,B|129:161|112:244,1,157.499995306134,0|8,0:0|0:0,0:0:0:0:
160,308,64404,1,0,0:0:0:0:
160,308,64716,1,8,0:0:0:0:
344,344,65029,5,4,0:0:0:0:
492,228,65341,1,0,0:0:0:0:
456,156,65497,1,8,0:0:0:0:
460,76,65654,2,0,B|432:124|376:133,1,104.999996870756,0|8,0:0|0:0,0:0:0:0:
236,60,66279,2,0,B|80:72,1,157.499995306134,0|8,0:0|0:0,0:0:0:0:
4,92,66904,2,0,B|59:101|87:149,1,104.999996870756,0|8,0:0|0:0,0:0:0:0:
72,308,67529,5,0,0:0:0:0:
304,340,67997,1,8,0:0:0:0:
380,320,68154,2,0,B|324:310|296:262,1,104.999996870756,0|8,0:0|0:0,0:0:0:0:
388,132,68779,2,0,B|443:141|471:189,2,104.999996870756,4|2|2,0:0|0:0|0:0,0:0:0:0:
252,52,70029,6,0,B|206:122|122:131,1,157.499995306134,4|8,0:0|0:0,0:0:0:0:
44,124,70654,2,0,B|91:154|98:212,1,104.999996870756,0|8,0:0|0:0,0:0:0:0:
208,324,71279,1,0,0:0:0:0:
416,332,71591,1,0,0:0:0:0:
432,256,71747,1,8,0:0:0:0:
404,184,71904,2,0,B|416:80,1,104.999996870756,0|8,0:0|0:0,0:0:0:0:
264,32,72529,6,0,B|245:189,1,157.499995306134,0|8,0:0|0:0,0:0:0:0:
176,224,73154,1,0,0:0:0:0:
176,224,73466,1,8,0:0:0:0:
96,224,73622,1,0,0:0:0:0:
28,176,73779,2,0,B|9:333,1,157.499995306134,0|8,0:0|0:0,0:0:0:0:
84,360,74404,2,0,B|126:322|183:332,1,104.999996870756,0|8,0:0|0:0,0:0:0:0:
324,264,75029,6,0,B|343:107,1,157.499995306134,4|8,0:0|0:0,0:0:0:0:
420,96,75654,2,0,B|407:201,2,104.999996870756,0|8|0,0:0|0:0|0:0,0:0:0:0:
192,36,76747,1,8,0:0:0:0:
120,68,76904,2,0,B|107:173,1,104.999996870756,0|8,0:0|0:0,0:0:0:0:
160,320,77529,2,0,B|209:274|277:286,2,126.000003004074,0|8|8,0:0|0:0|0:0,0:0:0:0:
160,320,78779,1,4,0:0:0:0:
480,324,80029,6,0,B|423:261|438:177,1,157.499995306134,4|8,0:0|0:0,0:0:0:0:
384,120,80654,1,0,0:0:0:0:
384,120,80966,1,8,0:0:0:0:
236,72,81279,2,0,B|80:54,1,157.499995306134,0|8,0:0|0:0,0:0:0:0:
2,59,81904,2,0,B|54:78|72:130,1,104.999996870756,0|8,0:0|0:0,0:0:0:0:
52,288,82529,6,0,B|207:305,1,157.499995306134,0|8,0:0|0:0,0:0:0:0:
268,252,83154,1,0,0:0:0:0:
268,252,83466,1,8,0:0:0:0:
424,280,83779,2,0,B|372:213|391:131,1,157.499995306134,0|8,0:0|0:0,0:0:0:0:
423,59,84404,2,0,B|379:93|322:81,1,104.999996870756,0|8,0:0|0:0,0:0:0:0:
168,104,85029,5,4,0:0:0:0:
53,203,85341,1,0,0:0:0:0:
152,318,85654,1,0,0:0:0:0:
268,218,85966,1,0,0:0:0:0:
78,116,86279,5,0,0:0:0:0:
66,293,86591,1,0,0:0:0:0:
242,304,86904,1,0,0:0:0:0:
253,129,87216,1,0,0:0:0:0:
160,212,87529,5,4,0:0:0:0:
294,32,88154,1,0,0:0:0:0:
472,167,88779,1,0,0:0:0:0:
338,346,89404,1,0,0:0:0:0:
316,189,90029,1,4,0:0:0:0:
344,60,100029,6,0,B|361:143|436:182,1,157.499995306134,4|8,0:0|0:0,0:0:0:0:
472,252,100654,2,0,B|372:288,1,104.999996870756,0|8,0:0|0:0,0:0:0:0:
224,340,101279,2,0,B|168:279|84:284,1,157.499995306134,0|8,0:0|0:0,0:0:0:0:
44,212,101904,1,0,0:0:0:0:
44,212,102216,1,8,0:0:0:0:
148,92,102529,6,0,B|304:84,1,157.499995306134,0|8,0:0|0:0,0:0:0:0:
368,36,103154,2,0,P|428:52|464:112,1,105.000004005432,0|8,0:0|0:0,0:0:0:0:
380,220,103779,1,0,0:0:0:0:
252,308,104091,1,0,0:0:0:0:
172,312,104247,1,8,0:0:0:0:
108,264,104404,2,0,B|92:160,1,104.999996870756,0|8,0:0|0:0,0:0:0:0:
204,48,105029,6,0,B|228:203,1,157.499995306134,4|8,0:0|0:0,0:0:0:0:
300,240,105654,1,0,0:0:0:0:
432,328,105966,6,0,B|456:316|488:320,2,52.5,8|0|0,0:0|0:0|0:0,0:0:0:0:
396,176,106591,5,0,0:0:0:0:
396,176,106747,1,10,0:0:0:0:
396,176,106904,1,0,0:0:0:0:
256,104,107216,6,0,B|256:48,2,52.4999984353781,8|0|0,0:0|0:0|0:0,0:0:0:0:
116,176,107841,5,0,0:0:0:0:
116,176,107997,1,10,0:0:0:0:
116,176,108154,1,0,0:0:0:0:
80,328,108466,6,0,B|56:316|24:320,2,52.5,8|0|4,0:0|0:0|0:0,0:0:0:0:
256,324,110029,5,4,0:0:0:0:
420,284,110341,1,0,0:0:0:0:
480,224,110497,2,0,B|488:144,1,70,8|0,0:0|0:0,0:0:0:0:
368,36,110966,2,0,B|354:177,1,140,8|0,0:0|0:0,0:0:0:0:
92,284,111591,5,0,0:0:0:0:
32,224,111747,2,0,B|24:144,1,70,8|0,0:0|0:0,0:0:0:0:
144,36,112216,2,0,B|159:177,1,140,8|2,0:0|0:2,0:0:0:0:
256,324,112841,6,0,B|256:256,2,70,0|8|0,0:0|0:0|0:0,0:0:0:0:
400,224,113466,2,0,B|392:148,1,70,8|0,0:0|0:0,0:0:0:0:
120,155,113935,2,0,B|112:224,2,70,0|0|8,0:0|0:0|0:0,0:0:0:0:
188,104,114404,2,0,B|232:96|256:112|256:112|280:96|324:104,1,140,0|8,0:0|0:0,0:0:0:0:
256,324,115029,5,4,0:0:0:0:
416,272,115341,1,0,0:0:0:0:
456,200,115497,1,8,0:0:0:0:
456,200,115654,1,0,0:0:0:0:
400,40,115966,2,0,B|420:76|400:108|400:108|368:124|356:160,1,140,8|0,0:0|0:0,0:0:0:0:
96,272,116591,5,0,0:0:0:0:
56,200,116747,1,8,0:0:0:0:
56,200,116904,1,0,0:0:0:0:
112,40,117216,2,0,B|92:76|112:108|112:108|144:124|156:160,1,140,8|2,0:0|0:2,0:0:0:0:
256,344,117841,5,0,0:0:0:0:
332,308,117997,2,0,B|344:236,1,70,8|0,0:0|0:0,0:0:0:0:
180,308,118310,2,0,B|168:236,1,70,0|8,0:0|0:0,0:0:0:0:
204,160,118622,2,0,B|236:180|256:208|256:208|276:180|308:160,1,140
384,128,119091,1,0,0:0:0:0:
256,24,119404,1,0,0:0:0:0:
128,128,119716,1,8,0:0:0:0:
256,344,120029,5,4,0:0:0:0:
352,204,120341,2,0,B|377:174|409:164,1,70,0|8,0:0|0:0,0:0:0:0:
480,208,120654,2,0,B|416:56,1,140,0|8,0:0|0:0,0:0:0:0:
256,40,121279,5,0,0:0:0:0:
160,204,121591,2,0,B|136:174|104:164,1,70,0|8,0:0|0:0,0:0:0:0:
32,208,121904,2,0,B|96:56,1,140,0|8,0:0|0:0,0:0:0:0:
256,40,122529,6,0,B|256:180,1,140,2|0,0:2|0:0,0:0:0:0:
256,264,122997,1,8,0:0:0:0:
256,264,123154,1,0,0:0:0:0:
420,232,123466,2,0,B|400:304,1,70,8|0,0:0|0:0,0:0:0:0:
111,300,123935,2,0,B|92:232,2,70,0|0|8,0:0|0:0|0:0,0:0:0:0:
180,348,124404,1,0,0:0:0:0:
332,348,124716,1,8,0:0:0:0:
256,192,125029,6,0,B|256:136|256:136|256:92|292:64,1,140,4|0,0:0|0:0,0:0:0:0:
456,104,125654,2,0,B|456:160|456:160|456:204|420:232,1,140,0|8,0:0|0:0,0:0:0:0:
220,321,126279,6,0,B|256:292|256:248|256:248|256:192,1,140
93,152,126904,2,0,B|56:180|56:224|56:224|56:280,1,140,0|8,0:0|0:0,0:0:0:0:
336,52,127529,6,0,B|336:120,1,70,4|0,0:0|0:0,0:0:0:0:
380,192,127841,1,8,0:0:0:0:
176,52,128154,2,0,B|176:120,1,70,4|0,0:0|0:0,0:0:0:0:
132,192,128466,1,8,0:0:0:0:
256,304,128779,5,4,0:0:0:0:
380,192,129091,1,0,0:0:0:0:
256,80,129404,1,2,0:0:0:0:
132,192,129716,1,0,0:0:0:0:
256,304,130029,1,4,0:0:0:0:
