osu file format v12

[General]
AudioFilename: Burn it up.mp3
AudioLeadIn: 0
PreviewTime: 38332
Countdown: 0
SampleSet: Soft
StackLeniency: 0.7
Mode: 0
LetterboxInBreaks: 1
WidescreenStoryboard: 0

[Editor]
Bookmarks: 20025,72525,90025,100025
DistanceSpacing: 1.4
BeatDivisor: 4
GridSize: 4
TimelineZoom: 1

[Metadata]
Title:Burn It Up
TitleUnicode:Burn It Up
Artist:R. Kelly ft. Wisin & Yandel
ArtistUnicode:R. Kelly ft. Wisin & Yandel
Creator:eldnl
Version:Easy
Source:
Tags:reggaeton english
BeatmapID:143164
BeatmapSetID:45744

[Difficulty]
HPDrainRate:2
CircleSize:3
OverallDifficulty:2
ApproachRate:3
SliderMultiplier:1.6
SliderTickRate:2

[Events]
//Background and Video events
0,0,"Beach.jpg",0,0
//Break Periods
2,90228,98589
//Storyboard Layer 0 (Background)
//Storyboard Layer 1 (Fail)
//Storyboard Layer 2 (Pass)
//Storyboard Layer 3 (Foreground)
//Storyboard Sound Samples
//Background Colour Transformations
3,100,163,162,255

[TimingPoints]
80,625,4,2,0,70,1,0
20080,-200,4,2,1,70,0,0
28790,625,4,2,1,70,1,0
28790,-200,4,2,1,70,0,0
29883,-133.333333333333,4,2,0,70,0,0
30029,625,4,2,0,80,1,1
30185,-133.333333333333,4,1,0,80,0,0
35966,-133.333333333333,4,1,0,80,0,0
37216,-133.333333333333,4,1,0,80,0,0
38779,-133.333333333333,4,2,1,70,0,0
40029,-100,4,1,0,80,0,1
60029,-133.333333333333,4,1,0,80,0,0
100029,-133.333333333333,4,1,1,80,0,1
100185,-133.333333333333,4,1,1,80,0,0
105966,-133.333333333333,4,1,1,80,0,0
107216,-133.333333333333,4,1,1,80,0,0
108779,-192.307692307692,4,2,0,70,0,0
110029,-100,4,1,0,80,0,1
128779,-100,4,2,0,70,0,1
130029,-100,4,2,0,70,0,0

[Colours]
Combo1 : 255,150,0
Combo2 : 255,17,17
Combo3 : 0,126,187
Combo4 : 36,255,36
SliderBorder : 0,0,0

[HitObjects]
392,136,20080,2,0,B|404:216,1,80,2|0,0:0|0:0,0:0:0:0:
328,284,21330,2,0,B|291:260|249:268,1,80,2|0,0:0|0:0,0:0:0:0:
152,304,22580,2,0,B|64:276|64:204|64:204|116:184|136:132,1,240,2|2,0:0|0:0,0:0:0:0:
204,76,25080,6,0,B|240:99|282:91,1,80,2|0,0:0|0:0,0:0:0:0:
376,96,26330,2,0,B|384:176,1,80,2|0,0:0|0:0,0:0:0:0:
339,259,27580,2,0,B|277:225|224:259|224:259|196:314|136:332,1,235,2|2,0:0|0:0,0:0:0:0:
52,220,30028,6,0,B|76:104,1,119.999996423721,4|8,0:0|0:0,0:0:0:0:
200,24,31279,1,0,0:0:0:0:
340,56,31904,1,8,0:0:0:0:
428,168,32529,2,0,B|404:284,1,119.999996423721,0|8,0:0|0:0,0:0:0:0:
264,328,33779,2,0,B|210:293|147:305,1,119.999996423721,0|8,0:0|0:0,0:0:0:0:
60,192,35029,5,4,0:0:0:0:
256,48,36279,1,2,0:2:0:0:
452,192,37529,1,2,2:0:0:0:
256,336,38779,1,4,0:0:0:0:
92,104,40029,6,0,B|121:135|118:177|118:177|130:218|173:239,1,160,4|8,0:0|0:0,0:0:0:0:
343,236,41279,2,0,B|381:218|393:177|393:177|390:135|420:104,1,160,0|8,0:0|0:0,0:0:0:0:
256,32,42529,2,0,B|256:192,1,160,2|8,0:2|0:0,0:0:0:0:
216,348,43779,2,0,P|256:356|296:348,1,80
256,276,44404,1,8,0:0:0:0:
392,185,45029,6,0,P|400:105|348:52,1,160,4|8,0:0|0:0,0:0:0:0:
164,52,46279,2,0,P|111:105|119:185,1,160,0|8,0:0|0:0,0:0:0:0:
184,332,47529,2,0,P|256:364|328:332,1,160,2|8,0:2|0:0,0:0:0:0:
404,192,48779,1,0,0:0:0:0:
256,104,49404,1,8,0:0:0:0:
108,192,50029,5,4,0:0:0:0:
60,344,50654,2,0,P|150:359|202:320,1,160,8|0,0:0|0:0,0:0:0:0:
256,172,51904,1,8,0:0:0:0:
310,322,52529,2,0,P|361:359|452:344,1,160,2|8,0:2|0:0,0:0:0:0:
404,192,53779,1,0,0:0:0:0:
256,104,54404,1,8,0:0:0:0:
108,192,55029,6,0,B|143:203|150:239|150:239|129:253|129:253|137:290|172:302,1,160,4|8,0:0|0:0,0:0:0:0:
341,302,56279,2,0,B|374:290|382:253|382:253|361:239|361:239|368:203|404:192,1,160,0|8,0:0|0:0,0:0:0:0:
360,36,57529,2,0,L|296:104,1,80,2|0,0:2|0:0,0:0:0:0:
208,92,58154,2,0,L|153:33,1,80
256,20,58779,1,4,0:0:0:0:
76,320,60029,6,0,B|68:200,1,119.999996423721,4|8,0:0|0:0,0:0:0:0:
156,84,61279,2,0,B|210:119|273:107,1,119.999996423721,0|8,0:0|0:0,0:0:0:0:
416,104,62529,1,0,0:0:0:0:
472,236,63154,1,8,0:0:0:0:
352,320,63779,2,0,B|228:336,1,119.999996423721,0|8,0:0|0:0,0:0:0:0:
108,264,65029,6,0,B|143:210|131:147,1,119.999996423721,4|8,0:0|0:0,0:0:0:0:
224,40,66279,1,0,0:0:0:0:
368,60,66904,1,8,0:0:0:0:
404,200,67529,2,0,B|369:254|381:317,2,119.999996423721,0|8|4,0:0|0:0|0:0,0:0:0:0:
176,280,70029,6,0,B|122:315|59:303,1,119.999996423721,4|8,0:0|0:0,0:0:0:0:
32,164,71279,2,0,B|86:129|149:141,1,119.999996423721,0|8,0:0|0:0,0:0:0:0:
264,60,72529,2,0,B|318:95|381:83,1,119.999996423721,0|8,0:0|0:0,0:0:0:0:
460,204,73779,2,0,B|440:328,1,119.999996423721,0|8,0:0|0:0,0:0:0:0:
300,348,75029,5,4,0:0:0:0:
156,340,75654,1,8,0:0:0:0:
84,216,76279,1,0,0:0:0:0:
136,80,76904,1,8,0:0:0:0:
280,88,77529,2,0,B|350:95|375:154|375:154|366:215|404:265,1,240,4|4,0:0|0:0,0:0:0:0:
124,336,80029,5,4,0:0:0:0:
68,204,80654,1,8,0:0:0:0:
164,96,81279,2,0,B|218:131|281:119,1,119.999996423721,0|8,0:0|0:0,0:0:0:0:
412,176,82529,2,0,B|400:300,1,119.999996423721,0|8,0:0|0:0,0:0:0:0:
264,348,83779,2,0,B|276:224,1,119.999996423721,0|8,0:0|0:0,0:0:0:0:
188,116,85029,6,0,B|172:196|100:245|100:245|81:213|35:197,2,240,4|0|4,0:0|0:0|0:0,0:0:0:0:
320,60,88154,2,0,B|376:29|438:47,1,119.999996423721,8|0,0:0|0:0,0:0:0:0:
452,192,89404,2,0,B|395:222|333:204,1,119.999996423721,8|4,0:0|0:0,0:0:0:0:
460,164,100029,6,0,B|436:280,1,119.999996423721,4|8,0:0|0:0,0:0:0:0:
312,360,101279,1,0,0:0:0:0:
172,328,101904,1,8,0:0:0:0:
84,216,102529,2,0,B|108:100,1,119.999996423721,0|8,0:0|0:0,0:0:0:0:
248,56,103779,2,0,B|302:91|365:79,1,119.999996423721,0|8,0:0|0:0,0:0:0:0:
428,208,105029,6,0,L|420:280,2,60.0000022888184,4|0|0,0:0|0:0|0:0,0:0:0:0:
256,244,106279,2,0,L|256:312,2,60.0000022888184
84,208,107529,2,0,L|92:280,2,60.0000022888184,0|0|0,0:0|0:0|0:0,0:0:0:0:
256,96,108779,1,4,0:0:0:0:
420,280,110029,6,0,B|391:249|394:207|394:207|382:166|339:145,1,160,4|8,0:0|0:0,0:0:0:0:
169,148,111279,2,0,B|131:166|119:207|119:207|122:249|92:280,1,160,0|8,0:0|0:0,0:0:0:0:
256,352,112529,2,0,B|256:192,1,160,2|8,0:2|0:0,0:0:0:0:
296,36,113779,2,0,P|256:28|216:36,1,80
256,108,114404,1,8,0:0:0:0:
120,199,115029,6,0,P|112:279|164:332,1,160,4|8,0:0|0:0,0:0:0:0:
348,332,116279,2,0,P|401:279|393:199,1,160,0|8,0:0|0:0,0:0:0:0:
328,52,117529,2,0,P|256:20|184:52,1,160,2|8,0:2|0:0,0:0:0:0:
108,192,118779,1,0,0:0:0:0:
256,280,119404,1,8,0:0:0:0:
404,192,120029,5,4,0:0:0:0:
452,40,120654,2,0,P|362:25|310:64,1,160,8|0,0:0|0:0,0:0:0:0:
256,212,121904,1,8,0:0:0:0:
202,62,122529,2,0,P|151:25|60:40,1,160,2|8,0:2|0:0,0:0:0:0:
108,192,123779,1,0,0:0:0:0:
256,280,124404,1,8,0:0:0:0:
404,192,125029,6,0,B|369:181|362:145|362:145|383:131|383:131|375:94|340:82,1,160,4|8,0:0|0:0,0:0:0:0:
171,82,126279,2,0,B|138:94|130:131|130:131|151:145|151:145|144:181|108:192,1,160,0|8,0:0|0:0,0:0:0:0:
152,348,127529,2,0,L|216:280,1,80,2|0,0:2|0:0,0:0:0:0:
304,292,128154,2,0,L|359:351,1,80
256,364,128779,1,4,0:0:0:0:
256,60,130029,5,4,0:0:0:0:
