osu file format v12

[General]
AudioFilename: 01. Magic Magic!.mp3
AudioLeadIn: 0
PreviewTime: 44528
Countdown: 0
SampleSet: Soft
StackLeniency: 0.7
Mode: 0
LetterboxInBreaks: 1

[Editor]
Bookmarks: 38,1054,11562,33511,44273,66307,76815,98849,109697,120205,140205,163850,174698,185545
DistanceSpacing: 1.1
BeatDivisor: 4
GridSize: 4

[Metadata]
Title:Magic Magic!
TitleUnicode:Magic Magic!
Artist:R-Note
ArtistUnicode:R-Note
Creator:GophTheGreat
Version:Hard
Source:Touhou
Tags:Touhou, R-note, Yellow Zebra, UFO, Undefined Fantastic Object, Byakuren Hijiri, Fires of Hokkai
BeatmapID:231065
BeatmapSetID:83721

[Difficulty]
HPDrainRate:5
CircleSize:4
OverallDifficulty:6
ApproachRate:7
SliderMultiplier:0.8
SliderTickRate:1

[Events]
//Background and Video events
0,0,"touhou061.jpg",0,0
//Break Periods
2,67672,75894
2,132757,139962
//Storyboard Layer 0 (Background)
//Storyboard Layer 1 (Fail)
//Storyboard Layer 2 (Pass)
//Storyboard Layer 3 (Foreground)
//Storyboard Sound Samples
//Background Colour Transformations
3,100,117,95,224

[TimingPoints]
12049,338.983050847458,4,2,0,50,1,0
44252,-66.6666666666667,4,2,0,50,0,1
65608,-100,4,2,0,50,0,0
98828,-66.6666666666667,4,2,0,50,0,0
109676,-58.8235294117647,4,2,0,50,0,1
130184,-111.111111111111,4,2,0,50,0,0
134082,-100,4,2,0,50,0,0
147642,-66.6666666666667,4,2,0,50,0,0
148659,-100,4,2,0,50,0,0
150184,-66.6666666666667,4,2,0,50,0,0
162387,-111.111111111111,4,2,0,50,0,0
163235,-100,4,2,0,50,0,0
174760,-66.6666666666667,4,2,0,50,0,1
194252,-111.111111111111,4,2,0,50,0,1
195269,-66.6666666666667,4,2,0,50,0,0
196454,-66.6666666666667,4,3,0,50,0,1
205947,-58.8235294117647,4,2,0,50,0,1
218150,-100,4,2,0,50,0,0

[Colours]
Combo1 : 119,238,211
Combo2 : 245,90,180
Combo3 : 231,228,143
Combo4 : 199,85,242

[HitObjects]
112,104,11710,1,0,0:0:0:0:
208,128,12048,1,4,0:0:0:0:
376,216,12726,2,2,L|376:160,3,40,2|2|2|2,0:0|0:0|0:0|0:0,0:0:0:0:
376,80,13574,1,2,0:0:0:0:
308,147,13913,1,2,0:0:0:0:
240,214,14252,2,0,L|200:254,1,40,2|0,0:0|0:0,0:0:0:0:
177,276,14591,1,2,0:0:0:0:
64,168,15099,6,0,L|32:128,1,40,2|0,0:0|0:0,0:0:0:0:
80,104,15438,2,0,L|136:104,1,40,2|0,0:0|0:0,0:0:0:0:
156,140,15777,2,0,L|116:180,1,40,2|0,0:0|0:0,0:0:0:0:
96,264,16286,1,0,2:0:0:0:
136,296,16455,1,0,0:0:0:0:
88,312,16625,1,2,0:0:0:0:
136,248,16794,2,0,L|176:248|224:248,1,80
312,248,17472,1,6,0:0:0:0:
464,136,18150,5,0,0:0:0:0:
396,68,18489,1,0,0:0:0:0:
362,34,18659,2,2,P|290:18|242:130,1,200,2|2,0:0|0:0,0:0:0:0:
256,344,20184,5,4,0:0:0:0:
256,200,20693,2,0,L|224:152,1,40,2|0,0:0|0:0,0:0:0:0:
256,120,21032,2,0,L|280:72,1,40,2|0,0:0|0:0,0:0:0:0:
256,192,21371,12,0,22557,0:0:0:0:
304,128,22896,1,4,0:0:0:0:
120,224,23574,2,2,L|120:168,3,40
128,80,24421,1,2,0:0:0:0:
195,147,24760,1,2,0:0:0:0:
262,214,25099,2,0,L|302:254,1,40,2|0,0:0|0:0,0:0:0:0:
324,276,25438,1,2,0:0:0:0:
448,168,25947,6,0,L|480:128,1,40,2|0,0:0|0:0,0:0:0:0:
432,104,26286,2,0,L|376:104,1,40,2|0,0:0|0:0,0:0:0:0:
356,140,26625,2,0,L|396:180,1,40,2|0,0:0|0:0,0:0:0:0:
416,264,27133,1,2,0:0:0:0:
376,296,27303,1,0,0:0:0:0:
424,312,27472,1,2,0:0:0:0:
376,248,27642,2,0,L|336:248|288:248,1,80
112,264,28320,1,6,0:0:0:0:
48,136,28998,5,2,0:0:0:0:
115,68,29337,1,0,0:0:0:0:
148,34,29506,2,0,P|220:18|268:130,1,200,2|0,0:0|0:0,0:0:0:0:
260,308,31032,5,4,0:0:0:0:
256,200,31540,2,0,L|288:152,1,40,2|0,0:0|0:0,0:0:0:0:
256,120,31879,2,0,L|232:72,1,40,2|0,0:0|0:0,0:0:0:0:
256,192,32218,12,0,33404,0:0:0:0:
184,96,33743,5,2,0:0:0:0:
216,64,33913,1,0,0:0:0:0:
256,32,34082,1,2,0:0:0:0:
296,64,34252,1,0,0:0:0:0:
328,104,34421,2,0,L|288:144,1,40,2|0,0:0|0:0,0:0:0:0:
240,200,34930,2,0,L|176:264,1,80,2|0,0:0|0:0,0:0:0:0:
192,296,35438,1,2,0:0:0:0:
232,328,35608,1,0,0:0:0:0:
280,328,35777,1,2,0:0:0:0:
312,296,35947,1,0,0:0:0:0:
360,136,36455,5,2,0:0:0:0:
328,104,36625,1,0,0:0:0:0:
296,72,36794,1,2,0:0:0:0:
256,48,36964,1,0,0:0:0:0:
216,72,37133,1,2,0:0:0:0:
184,112,37303,2,0,L|248:176,1,80,0|2,0:0|0:0,0:0:0:0:
256,296,37981,5,0,0:0:0:0:
280,256,38150,1,2,0:0:0:0:
232,256,38320,1,2,0:0:0:0:
256,216,38489,2,0,L|256:160,1,40,0|0,0:0|0:0,0:0:0:0:
256,128,38828,1,4,0:0:0:0:
328,96,39167,5,2,0:0:0:0:
296,64,39337,1,0,0:0:0:0:
256,32,39506,1,2,0:0:0:0:
216,64,39676,1,0,0:0:0:0:
184,104,39845,2,0,L|224:144,1,40,2|0,0:0|0:0,0:0:0:0:
288,200,40354,2,0,L|352:264,1,80,2|0,0:0|0:0,0:0:0:0:
320,296,40862,1,2,0:0:0:0:
280,328,41032,1,0,0:0:0:0:
232,328,41201,1,2,0:0:0:0:
200,296,41371,1,0,0:0:0:0:
256,240,41879,6,0,P|232:208|224:200,1,40,2|0,0:0|0:0,0:0:0:0:
256,184,42218,2,0,P|280:152|288:144,1,40,2|2,0:0|0:0,0:0:0:0:
256,120,42557,2,2,L|256:112|256:64,1,40
332,128,43065,5,0,0:0:0:0:
308,84,43234,1,2,0:0:0:0:
276,48,43404,1,0,0:0:0:0:
236,48,43573,1,2,0:0:0:0:
204,84,43743,1,0,0:0:0:0:
180,128,43912,1,4,0:0:0:0:
256,192,44252,5,0,0:0:0:0:
256,192,44421,1,0,0:0:0:0:
256,192,44591,2,0,P|224:88|256:24,1,180.000006866455,4|0,0:0|0:0,0:0:0:0:
256,192,45608,2,0,P|288:296|256:360,1,180.000006866455,4|0,0:0|0:0,0:0:0:0:
256,136,46625,1,2,0:0:0:0:
256,256,46964,1,2,0:0:0:0:
256,192,47303,6,0,P|360:160|424:192,1,180.000006866455,4|0,0:0|0:0,0:0:0:0:
256,192,48320,2,0,P|152:160|88:192,1,180.000006866455,4|0,0:0|0:0,0:0:0:0:
256,192,49337,2,0,L|256:64,1,120.000004577637,4|0,0:0|0:0,0:0:0:0:
256,40,50015,6,0,P|184:88|168:176,1,180.000006866455,4|0,0:0|0:0,0:0:0:0:
256,40,51032,2,0,P|328:88|344:176,1,180.000006866455,4|0,0:0|0:0,0:0:0:0:
224,168,52049,2,0,P|208:112|256:72,1,120.000004577637,2|0,0:0|0:0,0:0:0:0:
328,128,52726,2,0,P|312:240|240:240,1,180.000006866455,2|0,0:0|0:0,0:0:0:0:
256,192,53743,6,0,L|256:128,1,60.0000022888184,2|4,0:0|0:0,0:0:0:0:
176,96,54252,2,0,B|216:56|256:56|296:56|336:96,1,180.000006866455,0|4,0:0|0:0,0:0:0:0:
256,192,55099,5,0,0:0:0:0:
256,192,55269,1,0,0:0:0:0:
256,192,55438,2,0,P|224:296|256:360,1,180.000006866455,4|0,0:0|0:0,0:0:0:0:
256,192,56455,2,0,P|288:88|256:24,1,180.000006866455,4|0,0:0|0:0,0:0:0:0:
256,248,57472,5,0,0:0:0:0:
256,128,57811,1,0,0:0:0:0:
256,192,58150,2,0,P|360:224|424:192,1,180.000006866455,4|0,0:0|0:0,0:0:0:0:
256,192,59167,2,0,P|152:224|88:192,1,180.000006866455,4|0,0:0|0:0,0:0:0:0:
256,192,60184,2,4,L|256:320,1,120.000004577637
256,344,60862,6,0,P|184:296|168:208,1,180.000006866455,4|0,0:0|0:0,0:0:0:0:
256,344,61879,2,0,P|328:296|344:208,1,180.000006866455,4|0,0:0|0:0,0:0:0:0:
224,216,62896,2,0,P|208:272|256:312,1,120.000004577637,2|0,0:0|0:0,0:0:0:0:
328,256,63574,2,2,P|312:144|240:144,1,180.000006866455
256,192,64591,6,0,L|256:252,1,60.0000022888184,0|4,0:0|0:0,0:0:0:0:
184,168,65099,2,2,B|208:120|256:112|304:120|328:168,1,180.000006866455,2|4,0:0|0:0,0:0:0:0:
256,192,66116,5,2,0:0:0:0:
256,192,66286,12,0,67472,0:0:0:0:
232,168,76794,5,2,0:0:0:0:
280,168,76964,1,2,0:0:0:0:
256,208,77133,1,4,0:0:0:0:
104,296,77811,6,0,L|144:256,1,40,2|0,0:0|0:0,0:0:0:0:
128,224,78150,2,0,L|96:256,1,40,2|0,0:0|0:0,0:0:0:0:
104,336,78659,1,2,0:0:0:0:
176,288,78998,1,2,0:0:0:0:
240,232,79337,2,0,L|280:192,1,40,2|0,0:0|0:0,0:0:0:0:
296,176,79676,1,2,0:0:0:0:
424,168,80184,6,0,L|384:136,2,40,2|0|2,0:0|0:0|0:0,0:0:0:0:
424,216,80693,2,0,L|384:248,2,40,0|2|0,0:0|0:0|0:0,0:0:0:0:
336,192,81371,6,0,L|280:192,1,40,2|0,0:0|0:0,0:0:0:0:
296,144,81710,1,2,0:0:0:0:
296,232,81879,1,0,0:0:0:0:
252,192,82049,1,2,0:0:0:0:
208,192,82218,2,0,L|120:192,1,80,0|4,0:0|0:0,0:0:0:0:
64,192,83235,5,2,0:0:0:0:
152,192,83574,2,0,L|176:192|200:192,1,40,2|0,0:0|0:0,0:0:0:0:
408,192,84591,5,2,0:0:0:0:
256,192,85269,2,0,L|256:328,1,120,4|0,0:0|0:0,0:0:0:0:
256,192,86116,2,0,L|256:136,1,40,0|0,0:0|0:0,0:0:0:0:
256,192,86455,12,0,87641,0:0:0:0:
328,144,87981,1,4,0:0:0:0:
408,88,88659,6,0,L|368:128,1,40,2|0,0:0|0:0,0:0:0:0:
384,160,88998,2,0,L|416:128,1,40,2|0,0:0|0:0,0:0:0:0:
408,48,89506,1,2,0:0:0:0:
336,96,89845,1,2,0:0:0:0:
272,152,90184,2,0,L|232:192,1,40,2|0,0:0|0:0,0:0:0:0:
216,208,90523,1,2,0:0:0:0:
88,168,91032,6,0,L|128:136,2,40,2|0|2,0:0|0:0|0:0,0:0:0:0:
88,216,91540,2,0,L|128:248,2,40,0|2|0,0:0|0:0|0:0,0:0:0:0:
176,192,92218,6,0,L|232:192,1,40,2|0,0:0|0:0,0:0:0:0:
216,144,92557,1,2,0:0:0:0:
216,232,92726,1,0,0:0:0:0:
264,192,92896,1,2,0:0:0:0:
304,192,93065,2,0,L|392:192,1,80,0|4,0:0|0:0,0:0:0:0:
448,192,94082,5,0,0:0:0:0:
360,192,94421,1,0,0:0:0:0:
312,192,94591,2,0,L|288:192|152:192,1,160
104,192,95438,1,0,0:0:0:0:
256,96,96116,6,0,B|232:160|280:184|256:224,1,120
224,240,96794,1,0,0:0:0:0:
256,272,96964,1,0,0:0:0:0:
288,240,97133,1,0,0:0:0:0:
256,192,97303,12,0,98489,0:0:0:0:
240,184,98828,6,0,L|192:128,1,60.0000022888184,4|0,0:0|0:0,0:0:0:0:
272,184,99167,2,0,L|312:136,1,60.0000022888184,2|0,0:0|0:0,0:0:0:0:
256,224,99506,2,0,L|256:288,1,60.0000022888184,2|0,0:0|0:0,0:0:0:0:
136,280,100015,6,0,P|96:248|144:216,1,120.000004577637,2|0,0:0|0:0,0:0:0:0:
192,215,100523,2,0,L|248:280,1,60.0000022888184,2|0,0:0|0:0,0:0:0:0:
287,259,100862,2,0,L|311:259|349:259,1,60.0000022888184,2|0,0:0|0:0,0:0:0:0:
472,128,101540,5,2,0:0:0:0:
428,171,101710,1,0,0:0:0:0:
471,214,101879,1,2,0:0:0:0:
427,257,102049,1,0,0:0:0:0:
376,288,102218,2,0,L|304:288,1,60.0000022888184,2|0,0:0|0:0,0:0:0:0:
200,296,102726,1,0,0:0:0:0:
256,184,103065,5,0,0:0:0:0:
256,184,103235,2,0,L|200:144,2,60.0000022888184
256,184,103743,2,0,L|312:144,1,60.0000022888184,0|2,0:0|0:0,0:0:0:0:
240,200,104252,6,0,L|200:256,1,60.0000022888184,4|0,0:0|0:0,0:0:0:0:
272,200,104591,2,0,L|320:256,1,60.0000022888184,2|0,0:0|0:0,0:0:0:0:
256,160,104930,2,0,L|256:96,1,60.0000022888184,2|0,0:0|0:0,0:0:0:0:
136,104,105438,2,0,P|96:136|132:180,1,120.000004577637,2|0,0:0|0:0,0:0:0:0:
184,208,105947,1,0,0:0:0:0:
236,240,106116,1,2,0:0:0:0:
288,268,106286,1,2,0:0:0:0:
240,304,106455,1,2,0:0:0:0:
232,160,106964,6,0,P|208:128|192:96,2,60.0000022888184,2|0|2,0:0|0:0|0:0,0:0:0:0:
272,216,107472,22,0,P|296:248|312:272,2,55.9999982910157,2|0|0,0:0|0:0|0:0,0:0:0:0:
272,52,108150,2,0,L|340:32,1,60.0000022888184,0|2,0:0|0:0,0:0:0:0:
332,108,108489,2,0,L|416:112,1,60.0000022888184,0|2,0:0|0:0,0:0:0:0:
380,180,108828,2,0,L|444:216,1,60.0000022888184,0|4,0:0|0:0,0:0:0:0:
288,304,109337,37,0,0:0:0:0:
224,304,109506,1,0,0:0:0:0:
160,304,109676,2,0,B|96:232|208:224|128:80,1,204.000003890991,4|0,0:0|0:0,0:0:0:0:
352,80,110693,2,0,B|416:152|304:160|384:304,1,204.000003890991,4|0,0:0|0:0,0:0:0:0:
256,192,111710,1,2,0:0:0:0:
256,56,112049,1,2,0:0:0:0:
256,55,112387,38,0,P|176:135|168:183,1,136.000002593994,4|0,0:0|0:0,0:0:0:0:
170,221,112896,2,2,P|226:285|234:293,1,68.0000012969971,2|0,0:0|0:0,0:0:0:0:
256,320,113235,1,2,0:0:0:0:
296,272,113404,2,2,P|352:208|360:200,1,68.0000012969971,0|2,0:0|0:0,0:0:0:0:
436,124,113913,2,0,P|460:36|364:4,1,204.000003890991,2|2,0:0|0:0,0:0:0:0:
256,192,114760,1,0,0:0:0:0:
352,304,115099,6,0,B|416:232|304:224|384:80,1,204.000003890991,4|0,0:0|0:0,0:0:0:0:
160,80,116116,2,0,B|96:152|208:160|128:304,1,204.000003890991,4|0,0:0|0:0,0:0:0:0:
256,192,117133,1,2,0:0:0:0:
256,56,117472,1,2,0:0:0:0:
256,55,117811,38,0,P|336:135|344:183,1,136.000002593994,4|0,0:0|0:0,0:0:0:0:
342,221,118320,2,0,P|286:285|278:293,1,68.0000012969971,2|0,0:0|0:0,0:0:0:0:
256,320,118659,1,2,0:0:0:0:
216,272,118828,2,0,P|160:208|152:200,1,68.0000012969971,0|2,0:0|0:0,0:0:0:0:
76,124,119337,2,4,P|52:36|148:4,1,204.000003890991,2|4,0:0|0:0,0:0:0:0:
256,192,120184,37,0,0:0:0:0:
256,192,120354,1,0,0:0:0:0:
256,192,120523,2,0,B|304:232|304:232|256:296|256:296|184:248,1,204.000003890991,4|0,0:0|0:0,0:0:0:0:
256,192,121540,2,0,B|208:152|208:152|256:88|256:88|328:136,1,204.000003890991,4|0,0:0|0:0,0:0:0:0:
384,248,122557,2,0,P|368:288|328:264,1,68.0000012969971,2|0,0:0|0:0,0:0:0:0:
296,304,122896,1,2,0:0:0:0:
256,192,123235,38,0,P|320:112|392:168,1,204.000003890991,4|0,0:0|0:0,0:0:0:0:
256,192,124252,2,0,P|192:272|120:216,1,204.000003890991,4|0,0:0|0:0,0:0:0:0:
200,152,125269,2,4,L|344:264,1,136.000002593994,4|4,0:0|0:0,0:0:0:0:
256,192,125947,6,0,B|208:232|208:232|256:296|256:296|328:248,1,204.000003890991,4|0,0:0|0:0,0:0:0:0:
256,192,126964,2,0,B|304:152|304:152|256:88|256:88|184:136,1,204.000003890991,4|0,0:0|0:0,0:0:0:0:
128,136,127981,2,2,P|144:96|184:120,1,68.0000012969971
216,80,128320,1,2,0:0:0:0:
256,192,128659,22,2,P|320:272|392:216,1,204.000003890991,4|6,0:0|0:0,0:0:0:0:
256,136,129676,2,0,L|256:64,1,68.0000012969971,0|4,0:0|0:0,0:0:0:0:
256,136,130184,2,0,B|248:168|248:168|280:168|280:168|280:168|280:168|256:216,1,107.999996704102,0|4,0:0|0:0,0:0:0:0:
256,316,131201,5,2,0:0:0:0:
256,192,131371,12,0,132557,0:0:0:0:
176,104,140862,5,0,3:0:0:0:
336,104,141201,1,0,3:0:0:0:
256,256,141540,1,0,3:0:0:0:
256,200,141879,6,0,L|256:136,2,40,0|0|4,0:0|0:0|0:0,0:0:0:0:
192,248,142557,1,0,0:0:0:0:
152,240,142726,1,0,0:0:0:0:
112,232,142896,1,2,0:0:0:0:
328,248,143235,1,0,0:0:0:0:
328,199,143404,1,0,0:0:0:0:
328,151,143574,2,0,L|256:95,1,80,2|0,0:0|0:0,0:0:0:0:
256,152,144082,1,0,0:0:0:0:
184,151,144252,2,0,L|256:95,1,80,2|0,0:0|0:0,0:0:0:0:
112,136,144930,6,0,L|80:176,1,40,2|0,0:0|0:0,0:0:0:0:
87,215,145269,2,0,L|119:247,1,40,2|0,0:0|0:0,0:0:0:0:
163,243,145608,2,0,L|195:203,1,40,2|0,0:0|0:0,0:0:0:0:
187,163,145947,2,0,L|155:131,1,40,2|0,0:0|0:0,0:0:0:0:
124,100,146286,5,2,0:0:0:0:
208,48,146625,1,2,0:0:0:0:
280,144,146964,1,2,0:0:0:0:
312,176,147133,1,0,0:0:0:0:
336,144,147303,1,2,0:0:0:0:
432,32,147642,6,0,B|616:56|464:288|320:232,1,360.000013732911,4|0,0:0|0:0,0:0:0:0:
312,240,148828,1,0,0:0:0:0:
216,160,149337,6,0,L|176:120,1,40,2|0,0:0|0:0,0:0:0:0:
153,97,149676,1,2,0:0:0:0:
118,131,149845,1,0,0:0:0:0:
118,178,150015,1,2,0:0:0:0:
128,232,150184,2,2,B|136:304|216:336|296:280,1,180.000006866455
380,268,151032,1,2,0:0:0:0:
408,216,151201,2,0,L|432:160,1,60.0000022888184,2|0,0:0|0:0,0:0:0:0:
456,104,151540,2,0,P|456:48|384:48,1,120.000004577637,2|0,0:0|0:0,0:0:0:0:
352,68,152049,2,2,L|296:116,2,60.0000022888184
456,40,152726,1,2,0:0:0:0:
456,160,153065,6,0,P|456:264|256:240,1,360.000013732911,4|2,0:0|0:0,0:0:0:0:
256,128,154421,2,0,L|208:72,2,60.0000022888184,2|0|2,0:0|0:0|0:0,0:0:0:0:
256,128,154930,2,0,L|312:64,2,60.0000022888184,2|0|2,0:0|0:0|0:0,0:0:0:0:
216,168,155438,2,0,L|144:168,1,60.0000022888184,2|0,0:0|0:0,0:0:0:0:
96,168,155777,5,4,0:0:0:0:
96,40,156116,2,0,L|160:24,1,60.0000022888184,2|0,0:0|0:0,0:0:0:0:
172,68,156455,2,0,L|236:52,1,60.0000022888184,2|0,0:0|0:0,0:0:0:0:
256,92,156794,2,0,L|328:68,1,60.0000022888184,2|0,0:0|0:0,0:0:0:0:
336,112,157133,2,0,L|408:88,1,60.0000022888184,2|0,0:0|0:0,0:0:0:0:
440,128,157472,1,2,0:0:0:0:
440,192,157642,2,0,B|344:152|272:192|240:160,1,180.000006866455,2|2,0:0|0:0,0:0:0:0:
149,131,158489,6,0,P|64:192|154:260,1,240.000009155274,4|0,0:0|0:0,0:0:0:0:
192,288,159337,1,0,0:0:0:0:
240,328,159506,1,0,0:0:0:0:
288,288,159676,2,0,P|336:296|352:232,3,120.000004577637,4|0|0|0,0:0|0:0|0:0|0:0,0:0:0:0:
376,56,161201,6,0,P|256:16|248:16,1,120.000004577637,4|0,0:0|0:0,0:0:0:0:
256,136,161879,1,0,0:0:0:0:
288,184,162049,1,0,0:0:0:0:
256,232,162218,1,0,0:0:0:0:
224,184,162387,2,0,B|152:184|152:184|152:112|232:112,1,179.999994506836,4|4,0:0|0:0,0:0:0:0:
256,20,163913,5,4,0:0:0:0:
303,47,164082,1,0,0:0:0:0:
303,101,164252,1,2,0:0:0:0:
257,128,164421,1,0,0:0:0:0:
209,103,164591,1,2,0:0:0:0:
209,48,164760,1,0,0:0:0:0:
256,180,165099,6,0,P|280:212|328:212,1,80,2|2,0:0|0:0,0:0:0:0:
381,220,165608,1,0,0:0:0:0:
444,220,165777,1,2,0:0:0:0:
444,156,165947,1,0,0:0:0:0:
380,156,166116,1,2,0:0:0:0:
352,296,166625,6,0,L|312:296,1,40,2|0,0:0|0:0,0:0:0:0:
264,296,166964,1,2,0:0:0:0:
224,296,167133,1,0,0:0:0:0:
212,260,167303,1,2,0:0:0:0:
212,332,167472,1,0,0:0:0:0:
124,300,167811,1,2,0:0:0:0:
202,192,168150,5,2,0:0:0:0:
229,145,168319,1,2,0:0:0:0:
282,145,168490,1,2,0:0:0:0:
309,192,168658,1,2,0:0:0:0:
282,238,168828,1,2,0:0:0:0:
229,238,168998,1,2,0:0:0:0:
132,80,169337,5,4,0:0:0:0:
192,80,169506,1,0,0:0:0:0:
160,128,169676,2,0,L|160:168,1,40,2|0,0:0|0:0,0:0:0:0:
132,204,170015,1,2,0:0:0:0:
192,204,170184,1,0,0:0:0:0:
420,348,170523,6,0,L|420:264,1,80,2|2,0:0|0:0,0:0:0:0:
372,276,171032,1,0,0:0:0:0:
392,232,171201,1,2,0:0:0:0:
456,232,171371,1,0,0:0:0:0:
476,276,171540,1,2,0:0:0:0:
248,296,172049,6,2,P|224:264|216:256,1,40
264,248,172387,2,2,P|288:216|296:208,1,40
256,176,172726,2,2,L|256:168|256:120,1,40
180,140,173235,5,0,0:0:0:0:
204,96,173404,1,2,0:0:0:0:
236,60,173574,1,0,0:0:0:0:
276,60,173743,1,2,0:0:0:0:
308,96,173913,1,0,0:0:0:0:
332,140,174082,1,4,0:0:0:0:
215,268,174421,5,0,0:0:0:0:
215,268,174591,1,0,0:0:0:0:
215,268,174760,2,0,B|167:196|167:196|215:116,1,180.000006866455,4|0,0:0|0:0,0:0:0:0:
297,116,175777,2,0,B|345:188|345:188|297:268,1,180.000006866455,4|0,0:0|0:0,0:0:0:0:
256,116,176794,1,2,0:0:0:0:
256,268,177133,1,2,0:0:0:0:
256,192,177472,6,0,B|208:224|144:152|80:192,1,180.000006866455,4|0,0:0|0:0,0:0:0:0:
256,192,178489,2,0,B|304:224|368:152|432:192,1,180.000006866455,4|0,0:0|0:0,0:0:0:0:
256,192,179506,2,4,L|256:72,1,120.000004577637
145,111,180184,6,0,P|112:192|149:271,1,180.000006866455,4|0,0:0|0:0,0:0:0:0:
367,273,181201,2,0,P|400:192|363:113,1,180.000006866455,4|0,0:0|0:0,0:0:0:0:
240,124,182218,2,0,P|215:134|191:166,1,60.0000022888184,2|0,0:0|0:0,0:0:0:0:
256,192,182557,1,2,0:0:0:0:
328,184,182896,6,0,P|280:260|196:228,1,180.000006866455,2|2,0:0|0:0,0:0:0:0:
256,192,183913,2,0,L|256:104,1,60.0000022888184,0|4,0:0|0:0,0:0:0:0:
256,4,184421,5,0,0:0:0:0:
220,60,184591,1,0,0:0:0:0:
284,60,184760,1,0,0:0:0:0:
256,120,184930,1,0,0:0:0:0:
256,188,185269,5,0,0:0:0:0:
220,140,185438,1,0,0:0:0:0:
176,96,185608,2,0,B|96:120|144:176|40:208,1,180.000006866455,4|0,0:0|0:0,0:0:0:0:
336,96,186625,2,0,B|416:120|368:176|472:208,1,180.000006866455,4|0,0:0|0:0,0:0:0:0:
256,192,187642,2,2,L|192:152,2,60.0000022888184,2|0|2,0:0|0:0|0:0,0:0:0:0:
312,232,188320,2,4,B|368:280|416:208|488:240,2,180.000006866455,4|4|4,0:0|0:0|0:0,0:0:0:0:
104,176,189845,2,4,P|64:80|112:56,1,180.000006866455,4|4,0:0|0:0,0:0:0:0:
255,56,190693,1,4,0:0:0:0:
256,192,191032,6,0,B|232:240|232:240|280:280|280:280|248:344,1,180.000006866455,4|0,0:0|0:0,0:0:0:0:
256,192,192049,2,0,B|232:144|232:144|280:104|280:104|248:40,1,180.000006866455,4|0,0:0|0:0,0:0:0:0:
256,192,193065,2,2,L|192:192,1,60.0000022888184,2|0,0:0|0:0,0:0:0:0:
256,192,193404,2,0,L|336:192,1,60.0000022888184
256,192,193743,1,4,0:0:0:0:
256,272,194252,2,0,B|248:304|248:304|264:304|264:304|272:304|272:304|280:328|256:352,1,107.999996704102,2|4,0:0|0:0,0:0:0:0:
258,350,194930,1,2,0:0:0:0:
320,216,195269,2,2,B|304:160|256:144|208:160|192:216,1,180.000006866455,2|4,0:0|0:0,0:0:0:0:
256,96,196116,1,0,0:0:0:0:
256,48,196286,1,0,0:0:0:0:
184,96,196455,5,4,2:0:0:0:
256,144,196794,1,2,0:0:0:0:
328,96,197133,1,0,0:0:0:0:
320,184,197472,2,0,L|254:288,1,120.000004577637
192,184,198150,2,0,L|256:288,1,120.000004577637
168,296,198828,1,0,0:0:0:0:
168,152,199167,6,0,P|232:144|256:192,1,120.000004577637
344,152,199845,2,0,P|280:144|256:192,1,120.000004577637
256,328,200523,1,0,0:0:0:0:
256,232,200862,1,0,0:0:0:0:
256,120,201201,2,0,B|256:104|208:88|288:64|256:0,1,120.000004577637
256,120,201879,21,0,0:0:0:0:
256,120,202218,1,0,0:0:0:0:
256,120,202557,1,0,2:0:0:0:
232,160,202726,1,0,2:0:0:0:
280,160,202896,1,0,2:0:0:0:
256,208,203065,2,0,L|256:368,2,150.000005722046,0|0|0,0:0|0:0|0:0,0:0:0:0:
232,160,204082,1,0,2:0:0:0:
280,160,204252,1,0,2:0:0:0:
256,120,204421,1,0,3:0:0:0:
200,128,204591,2,4,L|112:224,1,120.000004577637,4|0,2:0|0:0,2:0:0:0:
312,128,205269,2,4,L|400:224,1,120.000004577637,4|4,2:0|0:0,2:0:0:0:
283,230,205947,5,0,3:0:0:0:
227,229,206117,1,0,3:0:0:0:
211,176,206286,1,0,3:0:0:0:
256,144,206455,1,0,3:0:0:0:
301,178,206625,1,0,3:0:0:0:
288,304,206964,5,0,0:0:0:0:
224,304,207133,1,0,0:0:0:0:
160,304,207303,2,0,B|96:232|208:224|128:80,1,204.000003890991,4|0,0:0|0:0,0:0:0:0:
352,80,208320,2,0,B|416:152|304:160|384:304,1,204.000003890991,4|0,0:0|0:0,0:0:0:0:
256,192,209337,1,2,0:0:0:0:
256,56,209676,1,2,0:0:0:0:
256,55,210015,38,0,P|176:135|168:183,1,136.000002593994,2|0,0:0|0:0,0:0:0:0:
170,221,210523,2,0,P|226:285|234:293,1,68.0000012969971,2|0,0:0|0:0,0:0:0:0:
256,320,210862,1,2,0:0:0:0:
297,272,211032,2,0,B|286:285|342:221,1,68.0000012969971,0|2,0:0|0:0,0:0:0:0:
436,124,211540,2,2,P|460:36|364:4,1,204.000003890991
256,192,212387,1,2,0:0:0:0:
352,304,212726,6,0,B|416:232|304:224|384:80,1,204.000003890991,4|0,0:0|0:0,0:0:0:0:
160,80,213743,2,0,B|96:152|208:160|128:304,1,204.000003890991,4|0,0:0|0:0,0:0:0:0:
256,192,214760,1,2,0:0:0:0:
256,56,215099,1,2,0:0:0:0:
256,55,215438,38,0,P|336:135|344:183,1,136.000002593994,2|0,0:0|0:0,0:0:0:0:
342,221,215947,2,0,P|286:285|278:293,1,68.0000012969971,2|0,0:0|0:0,0:0:0:0:
256,320,216286,1,2,0:0:0:0:
216,272,216455,2,0,P|160:208|152:200,1,68.0000012969971,0|2,0:0|0:0,0:0:0:0:
76,124,216964,2,2,P|52:36|148:4,1,204.000003890991,2|4,0:0|0:0,0:0:0:0:
256,192,217981,5,2,0:0:0:0:
256,192,218150,12,4,220862,1:0:0:0:
