osu file format v14

[General]
AudioFilename: Overlappers.mp3
AudioLeadIn: 1200
PreviewTime: 56649
Countdown: 0
SampleSet: Soft
StackLeniency: 0.7
Mode: 0
LetterboxInBreaks: 0
WidescreenStoryboard: 0

[Editor]
Bookmarks: 13961,27111,40262,50177
DistanceSpacing: 1
BeatDivisor: 4
GridSize: 4
TimelineZoom: 1

[Metadata]
Title:OVERLAPPERS
TitleUnicode:OVERLAPPERS
Artist:Qverktett:||
ArtistUnicode:Qverktett:||
Creator:CelsiusLK
Version:Normal
Source:異能バトルは日常系のなかで
Tags:Inou-Battle wa Nichijou-kei no Naka de When Supernatural Battles Became Commonplace Haruka Yamazaki Saori Hayami Risa Taneda Nanami Yamashita tv size
BeatmapID:547355
BeatmapSetID:236280

[Difficulty]
HPDrainRate:4
CircleSize:3.5
OverallDifficulty:4
ApproachRate:5
SliderMultiplier:1
SliderTickRate:1

[Events]
//Background and Video events
0,0,"BG.png",0,0
Video,200,"OP.avi"
//Break Periods
//Storyboard Layer 0 (Background)
//Storyboard Layer 1 (Fail)
//Storyboard Layer 2 (Pass)
//Storyboard Layer 3 (Foreground)
//Storyboard Sound Samples

[TimingPoints]
862,410.958904109589,4,2,1,50,1,0
7437,-100,4,2,1,60,0,0
14012,-100,4,2,1,50,0,0
27163,-100,4,2,1,55,0,0
40314,-100,4,2,1,45,0,0
50177,-100,4,2,1,50,0,0
53464,-100,4,2,1,60,0,0
54081,-100,4,2,1,40,0,0
54697,-100,4,2,1,60,0,0
56752,-100,4,2,1,68,0,1
76478,-100,4,2,1,60,0,0
88807,-100,4,2,1,20,0,0

[Colours]
Combo1 : 255,196,255
Combo2 : 255,128,128
Combo3 : 128,128,255
Combo4 : 255,255,128

[HitObjects]
168,256,862,6,0,P|264:244|359:174,1,200,2|2,0:0|0:0,0:0:0:0:
148,176,2505,2,0,P|84:256|104:308,1,150,2|2,0:0|0:0,0:0:0:0:
332,212,4149,6,0,P|400:152|400:80,1,150,2|0,0:0|0:0,0:0:0:0:
360,76,4971,2,0,L|196:80,1,150,2|2,0:0|0:0,0:0:0:0:
256,192,5793,12,4,7437,0:0:0:0:
404,188,8259,6,0,P|368:144|296:112,1,100,2|8,0:0|0:0,0:0:0:0:
232,108,9081,1,2,0:0:0:0:
148,160,9492,1,8,0:0:0:0:
100,248,9903,2,0,P|64:280|-16:292,1,100,2|8,0:0|0:0,0:0:0:0:
20,196,10725,6,0,P|6:140|20:96,1,100,2|8,0:0|0:0,0:0:0:0:
108,144,11546,2,0,L|228:148,1,100,2|8,0:0|0:0,0:0:0:0:
312,148,12368,6,0,L|348:212,1,50,2|2,0:0|0:0,0:0:0:0:
388,192,12779,2,0,L|424:256,1,50,8|2,0:0|0:0,0:0:0:0:
392,280,13190,2,0,L|356:344,1,50,2|2,0:0|0:0,0:0:0:0:
316,328,13601,2,0,L|280:392,1,50,8|2,0:0|0:0,0:0:0:0:
244,364,14012,6,0,P|176:360|116:328,1,100,4|2,0:0|0:0,0:0:0:0:
48,335,14834,2,0,P|70:291|111:264,1,100,2|0,0:0|0:0,0:0:0:0:
164,264,15451,1,2,0:0:0:0:
212,272,15656,2,0,B|260:268|260:268|316:220,2,100,2|2|2,0:0|0:0|0:0,0:0:0:0:
112,265,16889,1,2,0:0:0:0:
36,200,17300,6,0,B|64:132|-16:132|32:40,1,150,2|2,0:0|0:0,0:0:0:0:
72,52,18122,2,0,P|116:76|168:84,1,100,2|2,0:0|0:0,0:0:0:0:
264,80,18944,2,0,P|252:136|264:220,1,100,2|2,0:0|0:0,0:0:0:0:
332,240,19766,1,0,0:0:0:0:
432,232,20177,1,2,0:0:0:0:
424,132,20588,6,0,L|300:124,1,100,4|2,0:0|0:0,0:0:0:0:
276,123,21204,1,0,0:0:0:0:
228,120,21409,2,0,B|180:112|180:112|128:120,1,100,2|0,0:0|0:0,0:0:0:0:
92,212,22231,2,0,L|80:328,1,100,2|2,0:0|0:0,0:0:0:0:
180,328,23053,2,0,L|190:228,1,100,2|2,0:0|0:0,0:0:0:0:
288,244,23875,6,0,L|278:344,2,100,4|2|2,0:0|0:0|0:0,0:0:0:0:
300,144,25108,2,0,P|372:124|444:160,1,150,2|2,0:0|0:0,0:0:0:0:
428,204,25930,2,0,P|390:235|341:236,1,100,2|2,0:0|0:0,0:0:0:0:
300,144,26752,1,2,0:0:0:0:
208,104,27163,6,0,P|204:168|224:208,1,100,4|8,0:0|0:0,0:0:0:0:
148,272,27985,2,0,P|200:296|264:292,1,100,2|8,0:0|0:0,0:0:0:0:
288,276,28601,1,0,0:0:0:0:
308,232,28807,1,2,0:0:0:0:
328,132,29218,1,8,0:0:0:0:
420,172,29629,1,2,0:0:0:0:
388,268,30040,1,8,0:0:0:0:
336,356,30451,6,0,B|380:368|380:368|452:352,1,100,2|8,0:0|0:0,0:0:0:0:
476,268,31272,2,0,L|476:160,1,100,2|8,0:0|0:0,0:0:0:0:
440,132,31889,2,0,B|384:116|384:116|340:164|280:160,1,150,2|8,0:0|0:0,0:0:0:0:
216,116,32916,1,2,0:0:0:0:
120,136,33327,1,8,0:0:0:0:
140,232,33738,6,0,B|200:256|240:228|240:228|288:280,1,150,4|0,0:0|0:0,0:0:0:0:
312,292,34560,2,0,P|364:264|376:204,1,100,2|0,0:0|0:0,0:0:0:0:
372,128,35382,2,0,P|304:96|216:88,1,150,4|0,0:0|0:0,0:0:0:0:
180,96,36204,2,0,P|156:144|164:216,1,100,2|0,0:0|0:0,0:0:0:0:
184,284,37026,6,0,B|240:288|240:288|304:256,2,100,4|8|8,0:0|0:0|0:0,0:0:0:0:
136,276,38053,1,8,0:0:0:0:
88,264,38259,1,2,0:0:0:0:
44,172,38670,2,0,P|60:124|92:72,1,100,2|2,0:0|0:0,0:0:0:0:
184,80,39492,2,0,P|209:123|224:170,1,100,2|2,0:0|0:0,0:0:0:0:
208,272,40314,6,0,B|304:272|324:184|324:184|360:256|452:252,1,300,4|8,0:0|0:0,0:0:0:0:
452,152,41957,2,0,B|388:104|316:84|316:84|248:112|191:192,1,300,2|8,0:0|0:0,0:0:0:0:
152,264,43601,6,0,P|108:212|140:92,1,200,4|2,0:0|0:0,0:0:0:0:
224,40,44834,1,8,0:0:0:0:
268,60,45040,2,0,B|316:80|360:64|360:64|388:116,1,150,2|8,0:0|0:0,0:0:0:0:
404,160,45861,1,0,0:0:0:0:
416,208,46067,1,8,0:0:0:0:
356,288,46478,1,8,0:0:0:0:
260,320,46889,6,0,P|208:332|140:328,1,100,2|0,0:0|0:0,0:0:0:0:
112,320,47505,1,2,0:0:0:0:
80,280,47711,2,0,P|80:228|104:164,1,100,8|0,0:0|0:0,0:0:0:0:
180,132,48533,2,0,P|228:120|296:120,1,100,2|0,0:0|0:0,0:0:0:0:
328,124,49149,1,2,0:0:0:0:
372,144,49355,2,0,P|384:200|380:260,1,100,2|8,0:0|0:0,0:0:0:0:
360,340,50177,6,0,L|244:340,1,100,4|8,0:0|0:0,0:0:0:0:
232,244,50998,2,0,L|128:244,1,100,4|8,0:0|0:0,0:0:0:0:
100,152,51820,2,0,L|-16:152,2,100,2|8|2,0:0|0:0|0:0,0:0:0:0:
200,152,53053,1,8,0:0:0:0:
292,112,53464,6,0,P|297:157|272:228,1,100,4|8,0:0|0:0,0:0:0:0:
208,276,54286,1,0,0:0:0:0:
108,288,54697,2,0,L|64:264,1,50,8|0,0:0|0:0,0:0:0:0:
40,168,55314,2,0,B|36:120|36:120|48:76,2,75,4|2|2,0:0|0:0|0:0,0:0:0:0:
208,276,56752,6,0,P|256:284|340:264,1,100,4|8,0:0|0:0,0:0:0:0:
304,176,57574,2,0,P|256:168|172:188,1,100,2|8,0:0|0:0,0:0:0:0:
112,216,58396,2,0,P|100:168|122:116,1,100,2|8,0:0|0:0,0:0:0:0:
156,92,59012,2,0,B|232:56|232:116|316:76,1,150,2|8,0:0|0:0,0:0:0:0:
348,64,59834,1,0,0:0:0:0:
396,52,60040,6,0,P|392:104|404:176,1,100,2|8,0:0|0:0,0:0:0:0:
444,240,60861,2,0,P|448:292|436:364,1,100,2|8,0:0|0:0,0:0:0:0:
344,352,61683,2,0,P|284:328|208:336,1,100,2|8,0:0|0:0,0:0:0:0:
200,336,62300,2,0,P|120:328|64:268,1,150,2|8,0:0|0:0,0:0:0:0:
52,184,63327,6,0,P|80:152|168:128,1,100,2|8,0:0|0:0,0:0:0:0:
180,144,63944,2,0,P|260:184|332:164,1,150,2|8,0:0|0:0,0:0:0:0:
384,100,64971,2,0,P|408:148|408:204,2,100,2|8|2,0:0|0:0|0:0,0:0:0:0:
292,60,66204,1,8,0:0:0:0:
192,40,66615,6,0,P|148:63|117:102,1,100,2|8,0:0|0:0,0:0:0:0:
104,152,67231,1,0,0:0:0:0:
112,200,67437,2,0,P|140:236|212:268,1,100,2|8,0:0|0:0,0:0:0:0:
284,276,68259,2,0,L|284:164,1,100,2|8,0:0|0:0,0:0:0:0:
292,128,68875,2,0,B|368:168|368:80|456:128,1,150,2|8,0:0|0:0,0:0:0:0:
440,220,69903,6,0,L|440:332,1,100,4|8,0:0|0:0,0:0:0:0:
340,340,70725,2,0,P|288:352|216:336,1,100,2|8,0:0|0:0,0:0:0:0:
196,328,71341,1,0,0:0:0:0:
148,312,71546,2,0,L|148:200,1,100,2|8,0:0|0:0,0:0:0:0:
148,160,72163,2,0,P|217:132|289:147,1,150,2|8,0:0|0:0,0:0:0:0:
372,208,73190,6,0,P|416:232|480:232,1,100,2|8,0:0|0:0,0:0:0:0:
444,136,74012,2,0,L|352:80,1,100,2|8,0:0|0:0,0:0:0:0:
288,152,74834,2,0,P|267:197|272:246,1,100,2|8,0:0|0:0,0:0:0:0:
296,292,75451,2,0,P|232:320|112:300,1,150,2|8,0:0|0:0,0:0:0:0:
64,268,76478,5,4,0:0:0:0:
52,168,76889,2,0,L|48:96,2,50,8|0|0,0:0|0:0|0:0,0:0:0:0:
64,268,77711,1,10,0:0:0:0:
140,204,78122,2,0,P|188:192|280:204,1,100,2|8,0:0|0:0,0:0:0:0:
300,272,78944,2,0,P|349:272|398:260,1,100,2|8,0:0|0:0,0:0:0:0:
444,236,79560,1,0,0:0:0:0:
452,176,79766,6,0,L|404:84,1,100,2|8,0:0|0:0,0:0:0:0:
360,64,80382,2,0,P|284:112|216:106,1,150,2|8,0:0|0:0,0:0:0:0:
132,80,81409,2,0,B|92:108|92:108|76:172,1,100,2|8,0:0|0:0,0:0:0:0:
84,208,82026,2,0,B|144:208|176:256|176:256|224:228,1,150,2|8,0:0|0:0,0:0:0:0:
256,192,83053,12,2,84697,0:0:0:0:
92,96,85519,6,0,P|140:76|208:88,1,100,2|8,0:0|0:0,0:0:0:0:
284,112,86341,1,2,0:0:0:0:
324,140,86546,6,0,P|348:200|292:280,1,150,4|4,0:0|0:0,0:0:0:0:
224,320,87574,1,2,0:0:0:0:
176,320,87779,6,0,B|136:192|136:192|199:73,1,250,4|0,0:0|0:0,0:0:0:0:
