osu file format v14

[General]
AudioFilename: Overlappers.mp3
AudioLeadIn: 1200
PreviewTime: 56649
Countdown: 0
SampleSet: Soft
StackLeniency: 0.7
Mode: 0
LetterboxInBreaks: 0
WidescreenStoryboard: 0

[Editor]
Bookmarks: 13719,26869,40020,49935,54492,54697
DistanceSpacing: 1.5
BeatDivisor: 4
GridSize: 4
TimelineZoom: 1.5

[Metadata]
Title:OVERLAPPERS
TitleUnicode:OVERLAPPERS
Artist:Qverktett:||
ArtistUnicode:Qverktett:||
Creator:CelsiusLK
Version:Insane
Source:異能バトルは日常系のなかで
Tags:Inou-Battle wa Nichijou-kei no Naka de When Supernatural Battles Became Commonplace Haruka Yamazaki Saori Hayami Risa Taneda Nanami Yamashita tv size
BeatmapID:547849
BeatmapSetID:236280

[Difficulty]
HPDrainRate:7
CircleSize:4
OverallDifficulty:7
ApproachRate:8.5
SliderMultiplier:1.9
SliderTickRate:2

[Events]
//Background and Video events
0,0,"BG.png",0,0
Video,200,"OP.avi"
//Break Periods
//Storyboard Layer 0 (Background)
//Storyboard Layer 1 (Fail)
//Storyboard Layer 2 (Pass)
//Storyboard Layer 3 (Foreground)
//Storyboard Sound Samples

[TimingPoints]
862,410.958904109589,4,2,1,50,1,0
7437,-100,4,2,1,60,0,0
14012,-111.111111111111,4,2,1,50,0,0
27163,-100,4,2,1,55,0,0
40314,-133.333333333333,4,2,1,45,0,0
50177,-100,4,2,1,50,0,0
53464,-100,4,2,1,60,0,0
54081,-100,4,2,1,40,0,0
54492,-100,4,2,1,50,0,0
54697,-100,4,2,1,60,0,0
56752,-100,4,2,1,68,0,1
76478,-100,4,2,1,60,0,0
88807,-100,4,2,1,20,0,0

[Colours]
Combo1 : 255,196,255
Combo2 : 255,128,128
Combo3 : 128,128,255
Combo4 : 255,255,128

[HitObjects]
132,216,862,6,0,L|256:192,1,95,2|0,0:0|0:0,0:0:0:0:
264,156,1170,2,0,L|116:128,1,142.5,2|0,0:0|0:0,0:0:0:0:
320,96,1683,2,0,P|344:136|328:208,1,95,2|0,0:0|0:0,0:0:0:0:
328,232,1992,2,0,B|308:304|308:304|340:372,1,142.5,2|0,0:0|0:0,0:0:0:0:
436,156,2505,6,0,P|396:108|316:96,2,142.5,2|2|2,0:0|0:0|0:0,0:0:0:0:
328,232,3738,5,2,0:0:0:0:
428,288,3944,1,0,0:0:0:0:
216,268,4149,6,0,P|172:248|112:248,1,95,2|0,0:0|0:0,0:0:0:0:
72,256,4457,2,0,L|116:100,1,142.5,2|0,0:0|0:0,0:0:0:0:
292,132,4971,2,0,B|364:108|364:108|440:128,2,142.5,2|2|2,0:0|0:0|0:0,0:0:0:0:
256,192,5793,12,0,7231,0:0:0:0:
344,248,7437,6,0,L|240:264,1,95,4|0,0:0|0:0,0:0:0:0:
164,188,7848,2,0,L|257:173,1,95,8|0,0:0|0:0,0:0:0:0:
392,72,8259,1,2,0:0:0:0:
432,180,8464,1,0,0:0:0:0:
432,180,8567,1,0,0:0:0:0:
432,180,8670,2,0,P|448:228|448:288,1,95,8|0,0:0|0:0,0:0:0:0:
232,264,9081,6,0,L|257:173,1,95,2|0,0:0|0:0,0:0:0:0:
74,173,9492,2,0,P|117:193|164:188,1,95,8|0,0:0|0:0,0:0:0:0:
308,104,9903,2,0,L|284:40,2,47.5,2|0|2,0:0|0:0|0:0,0:0:0:0:
320,136,10211,1,0,0:0:0:0:
320,136,10314,2,0,L|356:240,1,95,8|0,0:0|0:0,0:0:0:0:
232,264,10725,5,2,0:0:0:0:
312,344,10930,1,0,0:0:0:0:
164,192,11135,2,0,P|212:172|268:172,1,95,8|0,0:0|0:0,0:0:0:0:
400,308,11546,2,0,L|292:352,1,95,2|0,0:0|0:0,0:0:0:0:
164,328,11957,1,8,0:0:0:0:
312,228,12163,1,0,0:0:0:0:
312,228,12266,1,0,0:0:0:0:
312,228,12368,5,2,0:0:0:0:
200,140,12574,1,2,0:0:0:0:
236,276,12779,1,8,0:0:0:0:
96,260,12985,1,2,0:0:0:0:
200,140,13190,5,2,0:0:0:0:
232,128,13293,1,2,0:0:0:0:
264,116,13396,1,2,0:0:0:0:
296,104,13498,1,2,0:0:0:0:
328,92,13601,2,0,L|368:76,6,23.75,8|0|2|0|2|0|0,0:0|0:0|0:0|0:0|0:0|0:0|0:0,0:0:0:0:
224,40,14012,6,0,L|132:84,1,85.4999973907472,4|0,0:0|0:0,0:0:0:0:
128,204,14423,1,2,0:0:0:0:
240,144,14629,1,0,0:0:0:0:
368,168,14834,2,0,P|372:216|358:269,1,85.4999973907472,2|0,0:0|0:0,0:0:0:0:
324,284,15142,2,0,L|444:327,1,128.249996086121,2|2,0:0|0:0,0:0:0:0:
368,168,15656,6,0,P|328:156|284:151,1,85.4999973907472,2|0,0:0|0:0,0:0:0:0:
128,204,16067,2,0,P|168:216|211:220,1,85.4999973907472,2|0,0:0|0:0,0:0:0:0:
368,168,16478,1,2,0:0:0:0:
376,140,16581,1,0,0:0:0:0:
388,112,16683,1,2,0:0:0:0:
396,84,16786,1,0,0:0:0:0:
404,56,16889,2,0,L|424:-8,2,42.7499986953736,2|0|2,0:0|0:0|0:0,0:0:0:0:
432,224,17300,6,0,P|400:244|316:240,1,85.4999973907472,2|2,0:0|0:0,0:0:0:0:
304,264,17608,2,0,L|272:128,1,128.249996086121,0|2,0:0|0:0,0:0:0:0:
128,204,18122,2,0,L|43:193,1,85.4999973907472,2|0,0:0|0:0,0:0:0:0:
184,124,18533,1,2,0:0:0:0:
176,280,18738,1,0,0:0:0:0:
176,280,18841,6,0,B|248:304|248:304|320:288,1,128.249996086121,2|2,0:0|0:0,0:0:0:0:
432,224,19355,1,2,0:0:0:0:
436,252,19457,1,0,0:0:0:0:
440,280,19560,2,0,L|452:340,2,42.7499986953736,2|0|0,0:0|0:0|0:0,0:0:0:0:
372,96,19971,2,0,P|356:112|328:128,1,42.7499986953736,2|0,0:0|0:0,0:0:0:0:
240,152,20177,2,0,L|248:212,1,42.7499986953736,2|0,0:0|0:0,0:0:0:0:
364,240,20382,2,0,P|346:228|331:213,1,42.7499986953736,2|0,0:0|0:0,0:0:0:0:
270,75,20588,6,0,P|225:71|166:107,1,85.4999973907472,4|0,0:0|0:0,0:0:0:0:
260,268,20998,1,2,0:0:0:0:
100,216,21204,1,0,0:0:0:0:
100,216,21307,1,0,0:0:0:0:
100,216,21409,2,0,P|124:168|120:104,1,85.4999973907472,2|0,0:0|0:0,0:0:0:0:
88,104,21718,2,0,L|210:141,1,128.249996086121,2|0,0:0|0:0,0:0:0:0:
372,96,22231,5,2,0:0:0:0:
444,172,22437,1,0,0:0:0:0:
444,172,22540,1,0,0:0:0:0:
444,172,22642,2,0,P|452:216|448:268,1,85.4999973907472,2|0,0:0|0:0,0:0:0:0:
363,137,23053,2,0,L|372:96,2,42.7499986953736,2|0|0,0:0|0:0|0:0,0:0:0:0:
356,168,23362,1,0,0:0:0:0:
356,168,23464,2,0,B|316:176|316:176|270:159,1,85.4999973907472,2|0,0:0|0:0,0:0:0:0:
124,136,23875,6,0,L|148:217,1,85.4999973907472,4|0,0:0|0:0,0:0:0:0:
200,228,24183,2,0,L|171:353,1,128.249996086121,2|0,0:0|0:0,0:0:0:0:
308,284,24697,2,0,L|420:264,1,85.4999973907472,2|0,0:0|0:0,0:0:0:0:
340,108,25108,2,0,L|255:123,1,85.4999973907472,2|0,0:0|0:0,0:0:0:0:
224,84,25416,6,0,L|204:244,1,128.249996086121,2|2,0:0|0:0,0:0:0:0:
120,264,25930,2,0,L|64:284,2,42.7499986953736,2|0|2,0:0|0:0|0:0,0:0:0:0:
308,284,26341,1,2,0:0:0:0:
408,192,26546,2,0,L|456:172,1,42.7499986953736,2|0,0:0|0:0,0:0:0:0:
384,268,26752,2,0,L|436:280,1,42.7499986953736,2|0,0:0|0:0,0:0:0:0:
308,284,26957,2,0,L|320:348,1,42.7499986953736,2|0,0:0|0:0,0:0:0:0:
208,336,27163,6,0,L|192:208,1,95,4|0,0:0|0:0,0:0:0:0:
128,148,27574,1,8,0:0:0:0:
272,80,27779,1,0,0:0:0:0:
406,174,27985,2,0,L|312:184,1,95,2|0,0:0|0:0,0:0:0:0:
258,206,28293,2,0,L|262:254,1,47.5,0|8,0:0|0:0,0:0:0:0:
452,236,28601,1,0,0:0:0:0:
452,236,28704,1,0,0:0:0:0:
452,236,28807,6,0,P|480:192|472:136,1,95,2|0,0:0|0:0,0:0:0:0:
258,206,29218,2,0,L|352:196,1,95,8|0,0:0|0:0,0:0:0:0:
128,148,29629,2,0,L|176:72,2,47.5,2|0|2,0:0|0:0|0:0,0:0:0:0:
108,176,29937,1,0,0:0:0:0:
88,204,30040,2,0,B|44:248|44:248|4:264,1,95,8|0,0:0|0:0,0:0:0:0:
168,264,30451,5,2,0:0:0:0:
288,120,30656,1,0,0:0:0:0:
324,308,30862,1,8,0:0:0:0:
196,168,31067,1,0,0:0:0:0:
384,208,31272,2,0,P|436:216|500:192,1,95,2|0,0:0|0:0,0:0:0:0:
288,120,31683,1,8,0:0:0:0:
324,308,31889,1,2,0:0:0:0:
282,206,32094,6,0,L|196:168,1,95,0|2,0:0|0:0,0:0:0:0:
188,52,32505,1,8,0:0:0:0:
104,260,32711,1,2,0:0:0:0:
288,120,32916,1,2,0:0:0:0:
324,308,33122,2,0,L|292:360,1,47.5,2|0,0:0|0:0,0:0:0:0:
408,324,33327,2,0,L|476:312,1,47.5,8|0,0:0|0:0,0:0:0:0:
376,200,33533,2,0,L|380:268,1,47.5,2|0,0:0|0:0,0:0:0:0:
256,256,33738,6,0,P|208:240|152:204,1,95,4|0,0:0|0:0,0:0:0:0:
124,184,34046,2,0,L|252:112,1,142.5,2|0,0:0|0:0,0:0:0:0:
364,48,34560,1,2,0:0:0:0:
416,208,34766,1,0,0:0:0:0:
416,208,34868,2,0,B|388:268|348:280|348:280|328:328,1,142.5,2|0,0:0|0:0,0:0:0:0:
404,128,35382,6,0,L|309:124,1,95,4|0,0:0|0:0,0:0:0:0:
260,92,35690,2,0,L|104:108,1,142.5,2|0,0:0|0:0,0:0:0:0:
128,220,36204,2,0,L|72:212,1,47.5,2|8,0:0|0:0,0:0:0:0:
308,232,36512,2,0,L|264:264,1,47.5,2|8,0:0|0:0,0:0:0:0:
176,324,36820,1,2,0:0:0:0:
308,232,37026,6,0,L|336:344,1,95,4|0,0:0|0:0,0:0:0:0:
412,204,37437,1,8,0:0:0:0:
420,92,37642,1,0,0:0:0:0:
221,204,37848,2,0,L|128:220,2,95,8|8|2,0:0|0:0|0:0,0:0:0:0:
320,144,38464,1,0,0:0:0:0:
113,126,38670,6,0,L|128:220,1,95,2|0,0:0|0:0,0:0:0:0:
334,237,39081,2,0,L|320:144,1,95,2|0,0:0|0:0,0:0:0:0:
220,56,39492,1,2,0:0:0:0:
452,168,39697,1,2,0:0:0:0:
232,304,39903,1,2,0:0:0:0:
320,144,40108,1,8,0:0:0:0:
320,144,40211,1,0,0:0:0:0:
320,144,40314,6,0,B|256:124|216:148|216:148|160:128,1,142.500005435944,4|0,0:0|0:0,0:0:0:0:
104,100,40930,1,8,0:0:0:0:
88,184,41135,1,8,0:0:0:0:
232,304,41546,1,8,0:0:0:0:
392,168,41957,6,0,P|388:112|352:72,2,106.875004076958,2|2|8,0:0|0:0|0:0,0:0:0:0:
340,236,42779,2,0,L|324:320,1,71.2500027179719,8|0,0:0|0:0,0:0:0:0:
188,216,43190,2,0,P|172:180|168:136,1,71.2500027179719,8|0,0:0|0:0,0:0:0:0:
260,248,43601,6,0,L|117:258,1,142.500005435944,4|0,0:0|0:0,0:0:0:0:
56,196,44218,1,8,0:0:0:0:
44,112,44423,1,2,0:0:0:0:
256,92,44834,1,8,0:0:0:0:
192,148,45040,1,2,0:0:0:0:
364,136,45245,6,0,L|456:112,1,71.2500027179719,8|0,0:0|0:0,0:0:0:0:
340,220,45656,1,8,0:0:0:0:
272,168,45861,1,0,0:0:0:0:
432,200,46067,2,0,P|432:260|392:308,1,106.875004076958,8|2,0:0|0:0,0:0:0:0:
364,296,46478,2,0,L|337:362,1,71.2500027179719,8|0,0:0|0:0,0:0:0:0:
192,148,46889,6,0,L|201:254,2,106.875004076958,2|2|2,0:0|0:0|0:0,0:0:0:0:
60,152,47711,2,0,P|125:126|192:148,1,142.500005435944,8|0,0:0|0:0,0:0:0:0:
432,200,48533,6,0,L|468:80,2,106.875004076958,2|2|2,0:0|0:0|0:0,0:0:0:0:
340,268,49355,2,0,B|292:256|292:256|248:264|248:264|198:254,1,142.500005435944,2|8,0:0|0:0,0:0:0:0:
347,173,49971,1,0,0:0:0:0:
347,173,50074,1,0,0:0:0:0:
347,173,50177,6,0,L|340:268,1,95,4|0,0:0|0:0,0:0:0:0:
240,160,50588,1,8,0:0:0:0:
108,220,50793,1,0,0:0:0:0:
108,220,50896,1,0,0:0:0:0:
108,220,50998,2,0,L|115:125,1,95,4|0,0:0|0:0,0:0:0:0:
244,60,51409,1,8,0:0:0:0:
356,72,51615,1,0,0:0:0:0:
288,232,51820,6,0,P|296:276|276:328,1,95,2|0,0:0|0:0,0:0:0:0:
248,336,52129,1,0,0:0:0:0:
216,332,52231,2,0,L|100:304,1,95,8|0,0:0|0:0,0:0:0:0:
196,168,52642,1,2,0:0:0:0:
288,232,52848,2,0,L|344:208,2,47.5,0|0|8,0:0|0:0|0:0,0:0:0:0:
392,308,53259,1,0,0:0:0:0:
392,308,53361,1,0,0:0:0:0:
392,308,53464,6,0,B|416:256|416:256|420:208,1,95,4|0,0:0|0:0,0:0:0:0:
312,120,53875,1,8,0:0:0:0:
288,232,54081,1,0,0:0:0:0:
272,260,54183,1,0,0:0:0:0:
244,276,54286,1,0,0:0:0:0:
212,276,54389,1,0,0:0:0:0:
180,272,54492,1,0,0:0:0:0:
152,252,54594,1,0,0:0:0:0:
132,224,54697,1,0,0:0:0:0:
120,192,54800,1,0,0:0:0:0:
120,160,54903,1,0,0:0:0:0:
132,128,55005,1,0,0:0:0:0:
148,96,55108,6,0,L|268:68,1,95,2|4,0:0|0:0,0:0:0:0:
456,68,55622,1,2,0:0:0:0:
288,200,55930,2,0,L|264:360,2,142.5,2|2|0,0:0|0:0|0:0,0:0:0:0:
413,173,56752,6,0,L|428:80,1,95,4|0,0:0|0:0,0:0:0:0:
400,60,57060,1,0,0:0:0:0:
368,48,57163,2,0,P|320:44|260:56,1,95,8|0,0:0|0:0,0:0:0:0:
108,144,57574,2,0,L|204:200,1,95,2|0,0:0|0:0,0:0:0:0:
208,220,57882,1,0,0:0:0:0:
212,252,57985,2,0,P|196:308|144:348,1,95,8|0,0:0|0:0,0:0:0:0:
320,272,58396,6,0,L|432:288,1,95,2|0,0:0|0:0,0:0:0:0:
440,264,58704,1,0,0:0:0:0:
444,232,58807,2,0,L|364:156,1,95,8|0,0:0|0:0,0:0:0:0:
210,172,59218,2,0,L|208:220,2,47.5,2|0|0,0:0|0:0|0:0,0:0:0:0:
320,40,59629,2,0,P|372:40|428:60,1,95,8|0,0:0|0:0,0:0:0:0:
381,199,60040,6,0,L|320:272,1,95,2|0,0:0|0:0,0:0:0:0:
300,296,60348,1,0,0:0:0:0:
272,312,60451,2,0,P|224:304|148:320,1,95,8|0,0:0|0:0,0:0:0:0:
52,204,60861,2,0,P|100:212|176:196,1,95,2|0,0:0|0:0,0:0:0:0:
176,196,61170,1,0,0:0:0:0:
204,176,61272,2,0,L|224:80,1,95,8|0,0:0|0:0,0:0:0:0:
410,59,61683,6,0,L|381:199,1,142.5,2|2,0:0|0:0,0:0:0:0:
328,180,62094,2,0,L|352:298,1,95,8|0,0:0|0:0,0:0:0:0:
228,272,62505,1,2,0:0:0:0:
328,180,62711,1,0,0:0:0:0:
328,180,62814,1,0,0:0:0:0:
328,180,62916,1,8,0:0:0:0:
176,196,63122,1,0,0:0:0:0:
388,112,63327,6,0,P|348:88|294:95,1,95,2|0,0:0|0:0,0:0:0:0:
188,104,63738,1,8,0:0:0:0:
300,240,63944,2,0,L|292:348,1,95,2|0,0:0|0:0,0:0:0:0:
164,292,64355,1,2,0:0:0:0:
188,104,64560,1,8,0:0:0:0:
60,204,64766,1,2,0:0:0:0:
288,160,64971,6,0,P|348:176|376:252,1,142.5,2|2,0:0|0:0,0:0:0:0:
360,300,65382,2,0,L|267:323,1,95,8|0,0:0|0:0,0:0:0:0:
288,160,65793,2,0,L|296:112,2,47.5,2|0|0,0:0|0:0|0:0,0:0:0:0:
180,200,66204,1,8,0:0:0:0:
220,64,66409,1,2,0:0:0:0:
220,64,66512,1,0,0:0:0:0:
220,64,66615,6,0,P|268:40|316:32,1,95,2|0,0:0|0:0,0:0:0:0:
340,40,66923,1,0,0:0:0:0:
368,56,67026,2,0,P|388:108|384:168,1,95,8|0,0:0|0:0,0:0:0:0:
284,248,67437,1,2,0:0:0:0:
256,268,67540,1,0,0:0:0:0:
224,280,67642,1,0,0:0:0:0:
192,284,67745,1,0,0:0:0:0:
160,284,67848,2,0,P|112:280|48:240,1,95,8|8,0:0|0:0,0:0:0:0:
152,116,68259,6,2,L|294:105,1,142.5,2|2,0:0|0:0,0:0:0:0:
352,96,68670,2,0,P|324:148|328:188,1,95,8|2,0:0|0:0,0:0:0:0:
340,212,68978,1,0,0:0:0:0:
360,240,69081,1,2,0:0:0:0:
388,260,69183,1,0,0:0:0:0:
416,276,69286,2,0,L|396:340,1,47.5,2|0,0:0|0:0,0:0:0:0:
280,292,69492,2,0,L|264:236,1,47.5,10|0,0:0|0:0,0:0:0:0:
224,172,69697,2,0,L|237:126,1,47.5,2|0,0:0|0:0,0:0:0:0:
152,116,69903,6,0,L|63:150,1,95,4|0,0:0|0:0,0:0:0:0:
44,176,70211,1,0,0:0:0:0:
40,208,70314,2,0,P|36:260|64:320,1,95,8|0,0:0|0:0,0:0:0:0:
184,224,70725,2,0,P|220:200|252:148,1,95,2|0,0:0|0:0,0:0:0:0:
248,124,71033,1,0,0:0:0:0:
244,92,71135,2,0,L|340:80,1,95,8|0,0:0|0:0,0:0:0:0:
480,228,71546,6,0,L|338:210,1,142.5,2|2,0:0|0:0,0:0:0:0:
292,180,71957,2,0,L|284:284,1,95,8|2,0:0|0:0,0:0:0:0:
396,300,72368,1,2,0:0:0:0:
400,268,72471,1,2,0:0:0:0:
404,236,72574,1,2,0:0:0:0:
408,204,72677,1,0,0:0:0:0:
412,172,72779,2,0,L|424:72,1,95,8|2,0:0|0:0,0:0:0:0:
296,100,73190,6,0,P|240:120|216:196,1,142.5,2|2,0:0|0:0,0:0:0:0:
232,248,73601,2,0,L|324:268,1,95,8|0,0:0|0:0,0:0:0:0:
168,312,74012,2,0,L|76:292,1,95,2|0,0:0|0:0,0:0:0:0:
52,268,74320,1,0,0:0:0:0:
44,236,74423,2,0,L|32:120,1,95,8|2,0:0|0:0,0:0:0:0:
157,84,74834,6,0,B|229:108|229:108|296:100,1,142.5,2|2,0:0|0:0,0:0:0:0:
352,88,75245,2,0,L|376:208,1,95,8|0,0:0|0:0,0:0:0:0:
396,292,75656,2,0,L|440:320,2,47.5,2|0|0,0:0|0:0|0:0,0:0:0:0:
288,248,76067,1,8,0:0:0:0:
472,200,76272,1,2,0:0:0:0:
248,152,76478,6,0,L|272:348,1,190,4|8,0:0|0:0,0:0:0:0:
396,292,77094,1,0,0:0:0:0:
396,292,77197,1,2,0:0:0:0:
396,292,77300,2,0,L|384:197,1,95,0|8,0:0|0:0,0:0:0:0:
272,72,77711,1,10,0:0:0:0:
176,212,77916,1,2,0:0:0:0:
332,136,78122,6,0,P|256:120|140:144,1,190,2|8,0:0|0:0,0:0:0:0:
184,304,78738,1,0,0:0:0:0:
184,304,78841,1,0,0:0:0:0:
182,306,78944,2,0,L|176:212,1,95,2|0,0:0|0:0,0:0:0:0:
332,136,79355,2,0,L|338:230,1,95,8|0,0:0|0:0,0:0:0:0:
280,352,79766,5,2,0:0:0:0:
228,220,79971,1,0,0:0:0:0:
228,220,80074,1,0,0:0:0:0:
228,220,80177,1,8,0:0:0:0:
256,108,80382,1,2,0:0:0:0:
115,202,80588,2,0,L|76:228,2,47.5,2|0|0,0:0|0:0|0:0,0:0:0:0:
156,96,80998,1,8,0:0:0:0:
296,180,81204,1,0,0:0:0:0:
296,180,81307,1,0,0:0:0:0:
296,180,81409,6,0,B|340:168|340:168|404:172,1,95,2|0,0:0|0:0,0:0:0:0:
412,196,81718,1,0,0:0:0:0:
432,224,81820,2,0,L|408:340,1,95,8|2,0:0|0:0,0:0:0:0:
256,272,82231,2,0,L|180:260,2,47.5,0|0|0,0:0|0:0|0:0,0:0:0:0:
368,120,82642,1,8,0:0:0:0:
368,120,82848,1,0,0:0:0:0:
336,292,83053,6,0,P|312:332|252:356,1,95,4|0,0:0|0:0,0:0:0:0:
164,200,83464,2,0,L|273:169,1,95,8|0,0:0|0:0,0:0:0:0:
443,132,83875,2,0,P|435:86|404:52,2,95,2|2|8,0:0|0:0|0:0,0:0:0:0:
348,200,84492,1,2,0:0:0:0:
348,200,84697,5,2,0:0:0:0:
224,132,84903,2,0,P|188:116|96:124,1,95,2|8,0:0|0:0,0:0:0:0:
248,228,85314,1,0,0:0:0:0:
380,108,85519,1,2,0:0:0:0:
324,296,85725,1,0,0:0:0:0:
324,296,85827,1,0,0:0:0:0:
324,296,85930,2,0,P|284:324|228:324,1,95,8|0,0:0|0:0,0:0:0:0:
348,200,86341,5,2,0:0:0:0:
472,48,86546,2,0,L|462:145,1,95,4|0,0:0|0:0,0:0:0:0:
456,256,86957,1,2,0:0:0:0:
272,132,87163,5,4,0:0:0:0:
212,228,87368,1,0,0:0:0:0:
148,324,87574,1,2,0:0:0:0:
348,200,87779,6,0,P|320:64|100:184,1,475,4|0,0:0|0:0,0:0:0:0:
