osu file format v14

[General]
AudioFilename: Overlappers.mp3
AudioLeadIn: 1200
PreviewTime: 56649
Countdown: 0
SampleSet: Soft
StackLeniency: 0.7
Mode: 0
LetterboxInBreaks: 0
WidescreenStoryboard: 0

[Editor]
Bookmarks: 13937,27087,40238,50153,66180
DistanceSpacing: 1.1
BeatDivisor: 4
GridSize: 4
TimelineZoom: 1

[Metadata]
Title:OVERLAPPERS
TitleUnicode:OVERLAPPERS
Artist:Qverktett:||
ArtistUnicode:Qverktett:||
Creator:CelsiusLK
Version:Hard
Source:異能バトルは日常系のなかで
Tags:Inou-Battle wa Nichijou-kei no Naka de When Supernatural Battles Became Commonplace Haruka Yamazaki Saori Hayami Risa Taneda Nanami Yamashita tv size
BeatmapID:547776
BeatmapSetID:236280

[Difficulty]
HPDrainRate:6
CircleSize:4
OverallDifficulty:6
ApproachRate:7.5
SliderMultiplier:1.5
SliderTickRate:2

[Events]
//Background and Video events
0,0,"BG.png",0,0
Video,200,"OP.avi"
//Break Periods
//Storyboard Layer 0 (Background)
//Storyboard Layer 1 (Fail)
//Storyboard Layer 2 (Pass)
//Storyboard Layer 3 (Foreground)
//Storyboard Sound Samples

[TimingPoints]
862,410.958904109589,4,2,1,50,1,0
7437,-100,4,2,1,60,0,0
14012,-100,4,2,1,50,0,0
27163,-100,4,2,1,55,0,0
40314,-133.333333333333,4,2,1,45,0,0
50177,-100,4,2,1,50,0,0
53464,-100,4,2,1,60,0,0
54081,-100,4,2,1,40,0,0
54492,-100,4,2,1,50,0,0
54697,-100,4,2,1,60,0,0
56752,-100,4,2,1,68,0,1
76478,-100,4,2,1,60,0,0
88807,-100,4,2,1,20,0,0

[Colours]
Combo1 : 255,196,255
Combo2 : 255,128,128
Combo3 : 128,128,255
Combo4 : 255,255,128

[HitObjects]
312,248,862,6,0,P|356:240|400:216,1,75,2|0,0:0|0:0,0:0:0:0:
420,212,1170,2,0,P|420:152|388:88,1,112.5,2|0,0:0|0:0,0:0:0:0:
288,88,1683,2,0,P|244:96|200:120,1,75,2|0,0:0|0:0,0:0:0:0:
180,124,1992,2,0,P|180:184|212:248,1,112.5,2|0,0:0|0:0,0:0:0:0:
312,248,2505,6,0,P|288:304|232:348,2,112.5,2|2|2,0:0|0:0|0:0,0:0:0:0:
68,216,3738,2,0,L|152:208,1,75,2|0,0:0|0:0,0:0:0:0:
224,204,4149,6,0,P|260:200|304:204,1,75,2|0,0:0|0:0,0:0:0:0:
340,212,4457,2,0,L|314:321,1,112.5,2|0,0:0|0:0,0:0:0:0:
232,324,4971,2,0,P|180:320|100:340,2,112.5,2|2|2,0:0|0:0|0:0,0:0:0:0:
256,192,5793,12,0,7026,0:0:0:0:
170,231,7437,6,0,L|88:209,1,75,4|0,0:0|0:0,0:0:0:0:
153,152,7848,2,0,L|225:171,1,75,8|0,0:0|0:0,0:0:0:0:
288,228,8259,2,0,P|304:160|256:96,1,150,2|8,0:0|0:0,0:0:0:0:
180,76,8875,1,0,0:0:0:0:
225,171,9081,6,0,L|201:263,1,75,2|0,0:0|0:0,0:0:0:0:
288,228,9492,2,0,L|306:300,1,75,8|0,0:0|0:0,0:0:0:0:
372,352,9903,2,0,L|424:368,2,37.5,2|0|2,0:0|0:0|0:0,0:0:0:0:
306,300,10314,2,0,B|262:312|262:312|232:314,1,75,8|0,0:0|0:0,0:0:0:0:
152,316,10725,6,0,P|136:236|172:152,1,150,2|8,0:0|0:0,0:0:0:0:
228,132,11341,1,0,0:0:0:0:
302,156,11546,2,0,P|323:227|306:300,1,150,2|8,0:0|0:0,0:0:0:0:
240,348,12163,1,0,0:0:0:0:
236,264,12368,6,0,L|230:189,1,75,2|2,0:0|0:0,0:0:0:0:
302,156,12779,2,0,L|296:81,1,75,8|2,0:0|0:0,0:0:0:0:
376,52,13190,2,0,L|403:77,3,37.5,2|2|2|2,0:0|0:0|0:0|0:0,0:0:0:0:
396,132,13601,2,0,L|416:163,3,37.5,8|2|2|0,0:0|0:0|0:0|0:0,0:0:0:0:
404,220,14012,6,0,P|372:264|344:292,1,75,4|0,0:0|0:0,0:0:0:0:
276,260,14423,1,2,0:0:0:0:
196,280,14629,1,0,0:0:0:0:
120,244,14834,2,0,P|113:283|124:324,1,75,2|0,0:0|0:0,0:0:0:0:
132,340,15142,2,0,P|184:364|260:340,1,112.5,2|0,0:0|0:0,0:0:0:0:
174,200,15656,6,0,P|107:174|53:220,1,150,2|2,0:0|0:0,0:0:0:0:
220,352,16478,2,0,B|260:288|260:288|272:208,1,150,2|2,0:0|0:0,0:0:0:0:
296,136,17094,1,2,0:0:0:0:
376,128,17300,6,0,B|412:140|412:140|447:128,1,75,2|2,0:0|0:0,0:0:0:0:
480,104,17608,2,0,L|476:232,1,112.5,0|2,0:0|0:0,0:0:0:0:
420,276,18122,2,0,L|324:268,1,75,2|0,0:0|0:0,0:0:0:0:
264,272,18533,2,0,L|220:296,1,37.5,2|0,0:0|0:0,0:0:0:0:
156,260,18841,6,0,P|152:196|168:140,1,112.5,2|2,0:0|0:0,0:0:0:0:
228,96,19355,1,2,0:0:0:0:
228,96,19457,1,0,0:0:0:0:
228,96,19560,2,0,B|260:88|260:88|276:96|276:96|312:88,1,75,2|0,0:0|0:0,0:0:0:0:
448,120,19971,1,2,0:0:0:0:
372,152,20177,1,2,0:0:0:0:
380,72,20382,1,2,0:0:0:0:
372,152,20588,6,0,L|332:220,1,75,4|0,0:0|0:0,0:0:0:0:
288,288,20998,1,2,0:0:0:0:
204,288,21204,1,0,0:0:0:0:
140,236,21409,2,0,P|136:200|152:160,1,75,2|0,0:0|0:0,0:0:0:0:
176,159,21718,2,0,P|232:162|285:178,1,112.5,2|0,0:0|0:0,0:0:0:0:
284,328,22231,6,0,P|211:347|137:343,1,150,2|2,0:0|0:0,0:0:0:0:
286,179,23053,2,0,P|358:159|432:163,1,150,2|2,0:0|0:0,0:0:0:0:
480,232,23670,1,0,0:0:0:0:
480,232,23875,6,0,B|464:292|464:292|484:360,2,112.5,4|2|0,0:0|0:0|0:0,0:0:0:0:
476,128,24697,2,0,L|440:36,1,75,2|0,0:0|0:0,0:0:0:0:
368,64,25108,2,0,L|271:109,1,75,2|0,0:0|0:0,0:0:0:0:
264,115,25416,6,0,B|276:143|268:175|268:175|260:215|280:251,1,112.5,2|2,0:0|0:0,0:0:0:0:
296,304,25930,1,2,0:0:0:0:
212,304,26135,2,0,L|128:328,1,75,2|2,0:0|0:0,0:0:0:0:
56,320,26546,1,2,0:0:0:0:
100,248,26752,1,2,0:0:0:0:
56,176,26957,1,2,0:0:0:0:
184,228,27163,6,0,L|256:207,1,75,4|0,0:0|0:0,0:0:0:0:
336,192,27574,1,8,0:0:0:0:
416,180,27779,1,0,0:0:0:0:
492,212,27985,2,0,P|496:172|484:136,1,75,2|0,0:0|0:0,0:0:0:0:
476,56,28396,2,0,P|439:73|414:102,1,75,8|0,0:0|0:0,0:0:0:0:
336,192,28807,6,0,B|288:204|256:188|256:188|224:172|172:192,1,150,2|8,0:0|0:0,0:0:0:0:
128,244,29423,1,0,0:0:0:0:
80,312,29629,2,0,P|44:252|88:168,1,150,2|8,0:0|0:0,0:0:0:0:
132,128,30245,1,0,0:0:0:0:
128,244,30451,6,0,P|160:260|208:260,2,75,2|0|8,0:0|0:0|0:0,0:0:0:0:
182,184,31067,1,0,0:0:0:0:
252,136,31272,2,0,P|265:175|260:216,1,75,2|0,0:0|0:0,0:0:0:0:
276,288,31683,1,8,0:0:0:0:
276,288,31889,6,0,P|340:256|436:272,1,150,2|2,0:0|0:0,0:0:0:0:
468,328,32505,1,8,0:0:0:0:
456,192,32711,1,2,0:0:0:0:
348,168,32916,2,0,P|312:179|275:180,1,75,2|2,0:0|0:0,0:0:0:0:
244,104,33327,1,8,0:0:0:0:
264,24,33533,1,2,0:0:0:0:
184,52,33738,6,0,P|128:56|40:36,2,112.5,4|2|0,0:0|0:0|0:0,0:0:0:0:
264,24,34560,2,0,P|312:60|312:136,2,112.5,2|2|0,0:0|0:0|0:0,0:0:0:0:
184,52,35382,6,0,P|164:108|168:200,1,150,4|0,0:0|0:0,0:0:0:0:
212,268,35998,1,0,0:0:0:0:
284,312,36204,2,0,P|296:254|264:200,2,112.5,2|2|2,0:0|0:0|0:0,0:0:0:0:
132,288,37026,6,0,L|57:288,1,75,4|0,0:0|0:0,0:0:0:0:
36,208,37437,1,8,0:0:0:0:
57,128,37642,1,0,0:0:0:0:
36,48,37848,2,0,P|72:42|110:46,1,75,8|8,0:0|0:0,0:0:0:0:
148,120,38259,2,0,P|186:124|223:118,1,75,2|0,0:0|0:0,0:0:0:0:
287,67,38670,6,0,P|326:130|317:203,2,150,2|2|2,0:0|0:0|0:0,0:0:0:0:
222,118,39697,1,2,0:0:0:0:
232,200,39903,1,2,0:0:0:0:
272,272,40108,1,8,0:0:0:0:
429,199,40314,6,0,L|317:203,1,112.500004291535,4|0,0:0|0:0,0:0:0:0:
232,200,40930,1,8,0:0:0:0:
272,272,41135,1,8,0:0:0:0:
64,216,41546,2,0,L|56:136,1,56.2500021457673,8|0,0:0|0:0,0:0:0:0:
156,252,41957,6,0,L|166:352,2,84.3750032186509,2|2|8,0:0|0:0|0:0,0:0:0:0:
148,168,42779,2,0,P|200:152|264:152,1,112.500004291535,8|8,0:0|0:0,0:0:0:0:
404,216,43601,6,0,P|420:156|411:91,1,112.500004291535,4|0,0:0|0:0,0:0:0:0:
352,48,44218,1,8,0:0:0:0:
268,64,44423,2,0,P|208:68|148:88,1,112.500004291535,2|8,0:0|0:0,0:0:0:0:
148,168,45040,1,0,0:0:0:0:
231,177,45245,6,0,L|230:259,1,56.2500021457673,8|0,0:0|0:0,0:0:0:0:
228,316,45656,1,8,0:0:0:0:
152,284,45861,1,0,0:0:0:0:
304,268,46067,2,0,P|356:280|400:256,1,84.3750032186509,8|0,0:0|0:0,0:0:0:0:
400,256,46478,1,8,0:0:0:0:
344,192,46683,1,0,0:0:0:0:
220,232,46889,6,0,L|148:288,2,84.3750032186509,2|2|2,0:0|0:0|0:0,0:0:0:0:
272,164,47711,2,0,P|288:112|272:48,1,112.500004291535,8|0,0:0|0:0,0:0:0:0:
112,92,48533,6,0,L|12:76,2,84.3750032186509,2|2|2,0:0|0:0|0:0,0:0:0:0:
196,112,49355,2,0,P|184:172|212:220,1,112.500004291535,2|8,0:0|0:0,0:0:0:0:
276,264,49971,1,0,0:0:0:0:
260,156,50177,6,0,L|409:151,1,150,4|8,0:0|0:0,0:0:0:0:
464,88,50793,1,0,0:0:0:0:
348,80,50998,2,0,P|336:148|360:248,1,150,4|8,0:0|0:0,0:0:0:0:
408,288,51615,1,0,0:0:0:0:
352,348,51820,6,0,L|277:348,1,75,2|0,0:0|0:0,0:0:0:0:
240,276,52231,2,0,L|160:276,1,75,8|0,0:0|0:0,0:0:0:0:
124,204,52642,2,0,L|308:204,1,150,2|8,0:0|0:0,0:0:0:0:
344,164,53259,1,0,0:0:0:0:
344,164,53361,1,0,0:0:0:0:
344,164,53464,6,0,P|352:204|340:268,1,75,4|0,0:0|0:0,0:0:0:0:
312,312,53875,2,0,L|256:336,2,37.5,0|0|0,0:0|0:0|0:0,0:0:0:0:
248,260,54286,2,0,L|176:248,2,37.5,0|0|0,0:0|0:0|0:0,0:0:0:0:
264,180,54697,1,8,0:0:0:0:
264,180,54903,1,0,0:0:0:0:
124,204,55108,5,2,0:0:0:0:
64,148,55314,2,0,P|104:124|188:151,1,112.5,4|2,0:0|0:0,0:0:0:0:
183,255,55930,2,0,P|134:281|80:272,2,112.5,2|2|2,0:0|0:0|0:0,0:0:0:0:
248,148,56752,6,0,P|288:140|352:148,1,75,4|0,0:0|0:0,0:0:0:0:
404,148,57163,2,0,L|413:222,1,75,8|0,0:0|0:0,0:0:0:0:
444,300,57574,2,0,P|408:304|369:290,1,75,2|0,0:0|0:0,0:0:0:0:
296,264,57985,2,0,L|286:189,1,75,8|0,0:0|0:0,0:0:0:0:
240,120,58396,6,0,P|208:160|208:224,2,112.5,2|2|2,0:0|0:0|0:0,0:0:0:0:
324,116,59218,1,2,0:0:0:0:
324,116,59320,1,0,0:0:0:0:
324,116,59423,1,0,0:0:0:0:
360,192,59629,2,0,L|286:189,1,75,8|0,0:0|0:0,0:0:0:0:
104,184,60040,6,0,P|116:264|156:324,1,150,2|8,0:0|0:0,0:0:0:0:
232,292,60656,1,0,0:0:0:0:
312,316,60861,2,0,P|376:340|460:308,1,150,2|8,0:0|0:0,0:0:0:0:
468,236,61478,1,0,0:0:0:0:
360,192,61683,6,0,P|296:180|240:204,2,112.5,2|2|2,0:0|0:0|0:0,0:0:0:0:
396,264,62505,1,2,0:0:0:0:
444,196,62711,1,0,0:0:0:0:
464,116,62916,2,0,P|472:76|468:24,1,75,8|0,0:0|0:0,0:0:0:0:
356,72,63327,6,0,L|316:156,1,75,2|0,0:0|0:0,0:0:0:0:
288,216,63738,1,8,0:0:0:0:
228,159,63944,2,0,P|207:229|250:287,1,150,2|2,0:0|0:0,0:0:0:0:
328,324,64560,1,8,0:0:0:0:
364,248,64766,1,2,0:0:0:0:
250,287,64971,6,0,B|212:276|212:276|180:280|180:280|128:264,2,112.5,2|2|2,0:0|0:0|0:0,0:0:0:0:
328,324,65793,1,2,0:0:0:0:
364,248,65998,1,0,0:0:0:0:
296,200,66204,2,0,P|292:160|296:112,1,75,8|2,0:0|0:0,0:0:0:0:
180,96,66615,6,0,P|196:180|192:256,1,150,2|8,0:0|0:0,0:0:0:0:
172,324,67231,1,0,0:0:0:0:
108,272,67437,2,0,P|72:268|36:249,1,75,2|0,0:0|0:0,0:0:0:0:
104,200,67848,2,0,P|70:186|44:156,1,75,8|0,0:0|0:0,0:0:0:0:
116,120,68259,5,2,0:0:0:0:
196,100,68464,1,0,0:0:0:0:
184,180,68670,1,8,0:0:0:0:
260,152,68875,2,0,P|304:92|376:56,1,150,2|2,0:0|0:0,0:0:0:0:
396,136,69492,2,0,L|405:172,2,37.5,10|0|2,0:0|0:0|0:0,0:0:0:0:
360,244,69903,6,0,P|396:256|440:252,1,75,4|0,0:0|0:0,0:0:0:0:
459,175,70314,2,0,L|396:136,1,75,8|0,0:0|0:0,0:0:0:0:
332,84,70725,2,0,P|316:116|317:157,1,75,2|0,0:0|0:0,0:0:0:0:
276,228,71135,2,0,P|240:240|196:236,1,75,8|0,0:0|0:0,0:0:0:0:
144,181,71546,6,0,P|123:232|135:287,2,112.5,2|2|2,0:0|0:0|0:0,0:0:0:0:
204,240,72368,1,2,0:0:0:0:
204,240,72471,1,2,0:0:0:0:
204,240,72574,1,2,0:0:0:0:
256,304,72779,1,8,0:0:0:0:
324,256,72985,1,2,0:0:0:0:
376,192,73190,6,0,L|376:344,1,150,2|8,0:0|0:0,0:0:0:0:
460,336,73807,1,0,0:0:0:0:
469,254,74012,2,0,P|396:271|324:256,1,150,2|8,0:0|0:0,0:0:0:0:
276,188,74629,1,2,0:0:0:0:
268,108,74834,6,0,P|212:144|200:212,2,112.5,2|2|2,0:0|0:0|0:0,0:0:0:0:
344,140,75656,1,2,0:0:0:0:
344,140,75862,1,0,0:0:0:0:
352,224,76067,1,8,0:0:0:0:
284,268,76272,1,2,0:0:0:0:
200,260,76478,6,0,L|40:244,1,150,4|8,0:0|0:0,0:0:0:0:
92,172,77094,2,0,L|166:179,1,75
244,156,77505,1,8,0:0:0:0:
312,204,77711,1,10,0:0:0:0:
384,244,77916,1,2,0:0:0:0:
412,164,78122,6,0,L|404:88,1,75,2|0,0:0|0:0,0:0:0:0:
336,44,78533,1,8,0:0:0:0:
288,108,78738,2,0,P|248:112|196:92,1,75,0|2,0:0|0:0,0:0:0:0:
138,136,79149,1,0,0:0:0:0:
240,200,79355,2,0,L|216:304,1,75,8|0,0:0|0:0,0:0:0:0:
200,352,79766,5,2,0:0:0:0:
148,288,79971,1,0,0:0:0:0:
288,316,80177,2,0,L|392:336,1,75,8|2,0:0|0:0,0:0:0:0:
444,344,80588,1,2,0:0:0:0:
420,264,80793,1,0,0:0:0:0:
368,200,80998,2,0,P|400:188|452:188,1,75,8|0,0:0|0:0,0:0:0:0:
300,240,81409,6,0,P|292:184|336:124,2,112.5,2|2|2,0:0|0:0|0:0,0:0:0:0:
368,288,82231,1,0,0:0:0:0:
288,316,82437,1,0,0:0:0:0:
204,312,82642,2,0,P|164:308|104:284,1,75,8|0,0:0|0:0,0:0:0:0:
256,192,83053,12,8,84286,0:0:0:0:
172,244,84903,6,0,L|328:192,1,150,2|0,0:0|0:0,0:0:0:0:
388,160,85519,1,2,0:0:0:0:
408,80,85725,1,0,0:0:0:0:
408,80,85827,2,0,P|468:152|456:192,1,112.5,2|0,0:0|0:0,0:0:0:0:
424,232,86341,5,2,0:0:0:0:
332,208,86546,2,0,P|332:168|320:132,1,75,4|0,0:0|0:0,0:0:0:0:
244,104,86957,1,2,0:0:0:0:
180,156,87163,2,0,P|176:192|188:236,1,75,4|0,0:0|0:0,0:0:0:0:
264,260,87574,1,2,0:0:0:0:
332,308,87779,6,0,B|220:260|152:336|152:336|64:292|76:176,1,375,4|0,0:0|0:0,0:0:0:0:
