osu file format v14

[General]
AudioFilename: Don Jon.mp3
AudioLeadIn: 0
PreviewTime: 14831
Countdown: 0
SampleSet: Soft
StackLeniency: 0.7
Mode: 0
LetterboxInBreaks: 0
EpilepsyWarning: 1
WidescreenStoryboard: 1

[Editor]
Bookmarks: 14925,26925,38925,50925,62925,77925,86925,98925
DistanceSpacing: 1
BeatDivisor: 4
GridSize: 4
TimelineZoom: 1

[Metadata]
Title:Don Coi
TitleUnicode:Đơn Côi
Artist:Quynh Nhu
ArtistUnicode:Quỳnh Như
Creator:Mako Sakata
Version:Normal
Source:
Tags:wendao wendao2000 Harez Piano Alone A舎長 Lonely Sad Desperate Truong Anh Cut Short Ver Version Vpop Vietnamese pop Nhạc Việt Nam
BeatmapID:961776
BeatmapSetID:448090

[Difficulty]
HPDrainRate:4
CircleSize:3.5
OverallDifficulty:4
ApproachRate:4
SliderMultiplier:1
SliderTickRate:1

[Events]
//Background and Video events
0,0,"story1.jpg",0,0
//Break Periods
//Storyboard Layer 0 (Background)
//Storyboard Layer 1 (Fail)
//Storyboard Layer 2 (Pass)
//Storyboard Layer 3 (Foreground)
//Storyboard Sound Samples

[TimingPoints]
2925,375,4,2,1,60,1,0
14925,-100,4,2,1,70,0,1
23925,-100,4,2,1,60,0,0
74925,-100,4,2,1,70,0,0
77925,-100,4,2,1,70,0,1
95925,-100,4,2,1,60,0,0

[Colours]
Combo1 : 200,200,200
Combo2 : 255,213,128
Combo3 : 242,121,97
Combo4 : 255,140,179
Combo5 : 187,103,229
Combo6 : 140,236,255
Combo7 : 145,229,103
Combo8 : 160,160,160

[HitObjects]
64,96,2925,102,0,P|75:144|68:193,1,100,2|2,0:0|0:0,0:0:0:0:
48,240,3487,2,0,L|94:259,1,50,0|2,0:0|0:0,0:0:0:0:
192,232,4050,1,0,0:0:0:0:
284,272,4425,2,0,L|276:371,1,100,2|0,0:0|0:0,0:0:0:0:
185,331,5175,2,0,L|192:231,1,100,2|2,0:0|0:0,0:0:0:0:
164,136,5925,6,0,P|213:134|257:156,1,100,2|2,0:0|0:0,0:0:0:0:
308,148,6487,2,0,L|311:98,1,50,0|2,0:0|0:0,0:0:0:0:
400,52,7050,1,0,0:0:0:0:
480,112,7425,2,0,L|472:211,1,100,2|0,0:0|0:0,0:0:0:0:
380,252,8175,2,0,L|387:152,1,100,2|2,0:0|0:0,0:0:0:0:
399,52,8925,102,0,P|350:59|302:43,1,100,2|2,0:0|0:0,0:0:0:0:
256,36,9487,2,0,P|231:36|207:42,1,50,0|2,0:0|0:0,0:0:0:0:
112,76,10050,1,0,0:0:0:0:
152,168,10425,2,0,P|159:216|138:261,1,100,2|0,0:0|0:0,0:0:0:0:
40,248,11175,2,0,P|32:199|53:154,1,100,2|2,0:0|0:0,0:0:0:0:
152,168,11925,5,2,0:0:0:0:
344,108,12675,1,2,0:0:0:0:
308,304,13425,1,2,0:0:0:0:
112,252,14175,2,0,L|115:202,1,50,10|0,0:0|0:0,0:0:0:0:
152,168,14550,2,0,L|155:118,1,50,10|10,0:0|0:0,0:0:0:0:
188,80,14925,6,0,P|260:95|327:64,1,150,4|0,1:2|1:0,0:0:0:0:
372,84,15675,2,0,L|364:184,1,100,8|0,0:0|1:0,0:0:0:0:
308,267,16425,2,0,P|354:283|403:274,1,100,0|0,0:0|1:0,0:0:0:0:
364,183,17175,2,0,P|317:167|268:176,1,100,8|0,0:0|0:0,0:0:0:0:
204,252,17925,6,0,L|211:102,1,150,0|0,1:0|1:0,0:0:0:0:
172,72,18675,2,0,P|123:80|76:64,1,100,8|0,0:0|1:0,0:0:0:0:
8,136,19425,2,0,L|4:236,1,100,0|0,1:0|0:0,0:0:0:0:
104,256,20175,2,0,L|100:356,1,100,8|0,0:0|1:0,0:0:0:0:
188,308,20925,6,0,P|260:293|327:324,1,150,0|0,1:0|1:0,0:0:0:0:
368,352,21675,2,0,P|416:359|462:341,1,100,8|0,0:0|1:0,0:0:0:0:
405,257,22425,2,0,P|427:214|426:164,1,100,0|0,1:0|0:0,0:0:0:0:
333,185,23175,2,0,P|315:139|276:109,1,100,8|8,0:0|0:0,0:0:0:0:
235,199,23925,6,0,P|111:226|180:333,1,300,4|0,1:2|1:0,0:0:0:0:
376,352,25800,2,0,L|372:252,1,100,0|0,1:0|1:0,0:0:0:0:
285,203,26550,2,0,L|229:199,1,50,8|8,0:0|0:0,0:0:0:0:
196,232,26925,6,0,P|102:250|38:179,1,200,4|8,1:2|0:0,0:0:0:0:
137,152,28050,1,0,1:0:0:0:
196,232,28425,2,0,L|186:331,1,100,0|0,0:0|0:0,0:0:0:0:
281,364,29175,2,0,L|291:264,1,100,8|0,0:0|0:0,0:0:0:0:
380,220,29925,6,0,B|394:164|368:135|368:135|377:107|377:107|364:72|376:28,1,200,0|8,1:0|0:0,0:0:0:0:
468,68,31050,1,0,1:0:0:0:
488,168,31425,2,0,P|492:217|477:265,1,100,0|0,0:0|0:0,0:0:0:0:
404,332,32175,2,0,L|354:324,1,50,8|0,0:0|0:0,0:0:0:0:
312,352,32550,2,0,L|262:344,1,50,0|0,1:0|0:0,0:0:0:0:
232,304,32925,38,0,P|138:322|74:251,1,200,0|8,1:0|0:0,0:0:0:0:
173,224,34050,1,0,1:0:0:0:
208,132,34425,2,0,P|215:84|194:39,1,100,0|0,0:0|0:0,0:0:0:0:
96,52,35175,2,0,P|88:101|109:146,1,100,8|0,0:0|0:0,0:0:0:0:
56,232,35925,6,0,B|156:268|156:196|250:230,1,200,0|8,1:0|0:0,0:0:0:0:
344,264,37050,1,0,1:0:0:0:
404,184,37425,2,0,P|412:136|393:90,1,100,0|0,0:0|0:0,0:0:0:0:
312,148,38175,2,0,L|262:156,1,50,0|0,1:0|0:0,0:0:0:0:
220,128,38550,2,0,L|170:136,1,50,0|0,0:0|0:0,0:0:0:0:
136,172,38925,6,0,B|155:214|137:251|137:251|146:279|146:279|120:316|134:364,1,200,4|8,1:2|0:0,0:0:0:0:
228,332,40050,1,0,1:0:0:0:
324,364,40425,2,0,L|424:360,1,100,0|0,0:0|0:0,0:0:0:0:
424,260,41175,2,0,P|416:211|433:164,1,100,8|0,0:0|0:0,0:0:0:0:
480,76,41925,6,0,B|380:108|380:52|283:75,1,200,0|8,1:0|0:0,0:0:0:0:
204,136,43050,1,0,1:0:0:0:
240,228,43425,2,0,P|247:276|226:321,1,100,0|0,0:0|0:0,0:0:0:0:
144,260,44175,2,0,P|125:266|94:268,1,50,8|0,0:0|0:0,0:0:0:0:
52,244,44550,2,0,L|48:192,1,50,0|0,1:0|0:0,0:0:0:0:
48,144,44925,6,0,B|88:104|80:52|80:52|132:68|174:40,1,200,0|8,1:0|0:0,0:0:0:0:
256,96,46050,1,0,1:0:0:0:
351,72,46425,2,0,P|400:82|434:117,1,100,0|0,0:0|0:0,0:0:0:0:
348,172,47175,2,0,L|355:271,1,100,8|0,0:0|0:0,0:0:0:0:
416,351,47925,6,0,P|345:371|280:337,1,150,4|0,1:2|1:0,0:0:0:0:
272,288,48675,2,0,L|264:188,1,100,4|0,1:2|0:0,0:0:0:0:
196,116,49425,1,4,1:2:0:0:
152,140,49611,2,0,P|103:150|57:132,1,100,8|8,0:0|0:0,0:0:0:0:
24,172,50175,1,0,1:0:0:0:
16,272,50550,1,0,1:0:0:0:
87,344,50925,38,0,P|161:332|230:358,1,150,4|0,1:2|1:0,0:0:0:0:
277,374,51675,2,0,L|377:362,1,100,8|0,0:0|1:0,0:0:0:0:
381,262,52425,2,0,L|281:274,1,100,0|0,0:0|1:0,0:0:0:0:
205,210,53175,2,0,P|197:161|213:114,1,100,8|0,0:0|0:0,0:0:0:0:
297,170,53925,6,0,L|446:154,1,150,0|0,1:0|1:0,0:0:0:0:
488,127,54675,2,0,B|471:87|471:87|478:59|466:31,1,100,8|0,0:0|1:0,0:0:0:0:
372,68,55425,2,0,B|272:100|272:44|175:67,1,200,0|8,1:0|0:0,0:0:0:0:
76,52,56550,1,0,1:0:0:0:
112,144,56925,6,0,P|124:218|98:287,1,150,0|0,1:0|1:0,0:0:0:0:
128,328,57675,2,0,L|228:316,1,100,8|0,0:0|1:0,0:0:0:0:
315,363,58425,2,0,P|327:315|315:267,1,100,0|0,0:0|1:0,0:0:0:0:
227,220,59175,2,0,P|214:268|227:315,1,100,8|0,0:0|0:0,0:0:0:0:
315,267,59925,6,0,P|387:281|445:236,1,150,0|0,1:0|1:0,0:0:0:0:
468,192,60675,2,0,L|460:88,1,100,8|0,0:0|1:0,0:0:0:0:
384,28,61425,1,0,1:0:0:0:
348,64,61612,2,0,L|356:168,1,100,8|0,0:0|0:0,0:0:0:0:
360,216,62175,1,8,0:0:0:0:
352,316,62550,1,0,1:0:0:0:
272,256,62925,6,0,L|122:244,1,150,4|0,1:2|1:0,0:0:0:0:
84,276,63675,2,0,L|5:213,1,100,8|0,0:0|1:0,0:0:0:0:
40,120,64425,2,0,P|36:70|58:26,1,100,0|0,0:0|1:0,0:0:0:0:
136,88,65175,2,0,L|236:76,1,100,8|0,0:0|0:0,0:0:0:0:
336,63,65925,6,0,P|407:48|467:90,1,150,0|0,1:0|1:0,0:0:0:0:
480,140,66675,2,0,L|472:239,1,100,8|0,0:0|1:0,0:0:0:0:
472,340,67425,2,0,B|415:340|384:297|384:297|358:345|309:355,1,200,0|8,1:0|0:0,0:0:0:0:
292,256,68550,1,0,1:0:0:0:
236,173,68925,38,0,P|193:231|204:304,1,150,0|0,1:0|1:0,0:0:0:0:
180,348,69675,2,0,L|80:341,1,100,8|0,0:0|1:0,0:0:0:0:
36,252,70425,2,0,P|29:204|50:159,1,100,0|0,0:0|1:0,0:0:0:0:
24,60,71175,2,0,L|123:66,1,100,8|0,0:0|0:0,0:0:0:0:
200,132,71925,6,0,P|270:151|335:117,1,150,4|0,1:2|1:0,0:0:0:0:
364,76,72675,1,4,1:2:0:0:
484,236,73425,1,4,1:2:0:0:
436,220,73612,2,0,P|399:213|340:236,1,100,8|8,0:0|0:0,0:0:0:0:
308,272,74175,1,8,1:2:0:0:
208,264,74550,1,0,1:0:0:0:
151,349,74925,6,0,P|101:351|61:325,1,100,4|0,1:2|0:0,0:0:0:0:
128,253,75675,2,0,P|101:211|102:162,1,100,8|0,0:0|1:0,0:0:0:0:
204,184,76425,1,0,1:0:0:0:
204,184,77925,6,0,L|353:194,1,150,4|0,1:2|1:0,0:0:0:0:
376,148,78675,2,0,P|383:98|365:52,1,100,8|0,0:0|1:0,0:0:0:0:
263,59,79425,2,0,P|213:59|167:39,1,100,0|0,0:0|1:0,0:0:0:0:
76,80,80175,2,0,P|56:125|55:175,1,100,8|0,0:0|0:0,0:0:0:0:
48,276,80925,6,0,B|105:276|136:233|136:233|160:248|181:244,1,150,0|0,1:0|1:0,0:0:0:0:
228,228,81675,2,0,P|277:222|322:241,1,100,8|0,0:0|1:0,0:0:0:0:
360,332,82425,2,0,P|310:337|265:318,1,100,0|0,1:0|0:0,0:0:0:0:
228,228,83175,2,0,L|240:128,1,100,8|0,0:0|1:0,0:0:0:0:
172,56,83925,6,0,P|241:31|310:58,1,150,0|0,1:0|1:0,0:0:0:0:
344,96,84675,2,0,L|332:196,1,100,8|0,0:0|1:0,0:0:0:0:
432,204,85425,1,0,1:0:0:0:
424,252,85612,2,0,L|412:352,1,100,8|0,0:0|0:0,0:0:0:0:
364,364,86175,1,8,0:0:0:0:
272,324,86550,1,0,1:0:0:0:
176,348,86925,38,0,P|103:356|51:306,1,150,4|0,1:2|1:0,0:0:0:0:
63,256,87675,2,0,P|66:206|51:158,1,100,8|0,0:0|1:0,0:0:0:0:
64,60,88425,2,0,L|164:68,1,100,0|0,0:0|1:0,0:0:0:0:
151,166,89175,2,0,L|51:158,1,100,8|0,0:0|0:0,0:0:0:0:
63,256,89925,6,0,L|212:266,1,150,0|0,1:0|1:0,0:0:0:0:
256,292,90675,2,0,P|304:299|352:284,1,100,8|0,0:0|1:0,0:0:0:0:
432,343,91425,2,0,P|452:298|445:250,1,100,0|0,1:0|0:0,0:0:0:0:
366,190,92175,2,0,P|345:235|352:283,1,100,8|0,0:0|1:0,0:0:0:0:
288,360,92925,6,0,L|116:352,1,150,0|0,1:0|1:0,0:0:0:0:
108,312,93675,2,0,P|118:263|100:217,1,100,8|0,0:0|1:0,0:0:0:0:
136,124,94425,1,0,1:0:0:0:
180,100,94612,2,0,L|279:106,1,100,8|0,0:0|1:0,0:0:0:0:
328,120,95175,1,8,0:0:0:0:
420,80,95550,1,8,0:0:0:0:
488,156,95925,6,0,B|436:216|452:296|452:296|368:280|313:334,1,300,4|0,1:2|1:0,0:0:0:0:
136,244,97800,2,0,P|139:194|124:147,1,100,0|0,1:0|1:0,0:0:0:0:
168,56,98550,2,0,L|224:60,1,50,8|8,0:0|0:0,0:0:0:0:
256,92,98925,5,4,1:2:0:0:
