osu file format v14

[General]
AudioFilename: Don Jon.mp3
AudioLeadIn: 0
PreviewTime: 14831
Countdown: 0
SampleSet: Soft
StackLeniency: 0.7
Mode: 0
LetterboxInBreaks: 0
EpilepsyWarning: 1
WidescreenStoryboard: 1

[Editor]
Bookmarks: 14925,26925,38925,50925,62925,77925,86925,98925
DistanceSpacing: 0.8
BeatDivisor: 4
GridSize: 4
TimelineZoom: 1

[Metadata]
Title:Don Coi
TitleUnicode:Đơn Côi
Artist:Quynh Nhu
ArtistUnicode:Quỳnh Như
Creator:Mako Sakata
Version:Lonely
Source:
Tags:wendao wendao2000 Harez Piano Alone A舎長 Lonely Sad Desperate Truong Anh Cut Short Ver Version Vpop Vietnamese pop Nhạc Việt Nam
BeatmapID:979412
BeatmapSetID:448090

[Difficulty]
HPDrainRate:7
CircleSize:4.5
OverallDifficulty:8
ApproachRate:8.5
SliderMultiplier:1.4
SliderTickRate:1

[Events]
//Background and Video events
0,0,"story1.jpg",0,0
//Break Periods
//Storyboard Layer 0 (Background)
//Storyboard Layer 1 (Fail)
//Storyboard Layer 2 (Pass)
//Storyboard Layer 3 (Foreground)
//Storyboard Sound Samples

[TimingPoints]
2925,375,4,2,1,40,1,0
2925,-166.666666666667,4,2,1,40,0,0
11925,-166.666666666667,4,2,1,42,0,0
12300,-166.666666666667,4,2,1,44,0,0
12675,-166.666666666667,4,2,1,46,0,0
13050,-166.666666666667,4,2,1,48,0,0
13425,-166.666666666667,4,2,1,50,0,0
13612,-142.857142857143,4,2,1,40,0,0
14175,-125,4,2,1,50,0,0
14550,-111.111111111111,4,2,1,55,0,0
14925,-100,4,2,1,60,0,1
23925,-100,4,2,1,60,0,0
24112,-100,4,2,1,55,0,0
24300,-100,4,2,1,50,0,0
24487,-100,4,2,1,45,0,0
24675,-100,4,2,1,40,0,0
24862,-100,4,2,1,35,0,0
25050,-100,4,2,1,30,0,0
25237,-100,4,2,1,25,0,0
25425,-100,4,2,1,20,0,0
25612,-100,4,2,1,15,0,0
25800,-100,4,2,1,10,0,0
25987,-100,4,2,1,5,0,0
26175,-100,4,2,1,60,0,0
74925,-100,4,2,1,60,0,1
76425,-100,4,2,1,60,0,0
77925,-100,4,2,1,60,0,1
95925,-100,4,2,1,60,0,0
96112,-100,4,2,1,55,0,0
96300,-100,4,2,1,50,0,0
96487,-100,4,2,1,45,0,0
96675,-100,4,2,1,40,0,0
96862,-100,4,2,1,35,0,0
97050,-100,4,2,1,30,0,0
97237,-100,4,2,1,25,0,0
97425,-100,4,2,1,20,0,0
97612,-100,4,2,1,15,0,0
97800,-100,4,2,1,10,0,0
97987,-100,4,2,1,5,0,0
98175,-100,4,2,1,60,0,0

[Colours]
Combo1 : 200,200,200
Combo2 : 255,213,128
Combo3 : 242,121,97
Combo4 : 255,140,179
Combo5 : 187,103,229
Combo6 : 140,236,255
Combo7 : 145,229,103
Combo8 : 160,160,160

[HitObjects]
440,60,2925,102,0,L|444:104,1,41.9999987182618,2|0,0:0|0:0,0:0:0:0:
348,92,3300,2,0,L|344:136,1,41.9999987182618,2|0,0:0|0:0,0:0:0:0:
400,212,3675,1,0,0:0:0:0:
232,324,4050,1,0,0:0:0:0:
136,280,4237,1,0,0:0:0:0:
136,280,4331,1,0,0:0:0:0:
136,280,4425,2,0,P|124:240|128:180,1,83.9999974365235,0|0,0:0|0:0,0:0:0:0:
280,136,5175,2,0,P|292:176|288:236,1,83.9999974365235,0|2,0:0|0:0,0:0:0:0:
168,60,5925,6,0,L|124:56,1,41.9999987182618,2|0,0:0|0:0,0:0:0:0:
148,152,6300,2,0,L|104:156,1,41.9999987182618,2|0,0:0|0:0,0:0:0:0:
32,100,6675,1,0,0:0:0:0:
92,292,7050,1,0,0:0:0:0:
184,240,7237,1,0,0:0:0:0:
184,240,7331,1,0,0:0:0:0:
184,240,7425,2,0,P|224:240|268:248,1,83.9999974365235,0|0,0:0|0:0,0:0:0:0:
424,308,8175,2,0,P|432:268|432:224,1,83.9999974365235,0|0,0:0|0:0,0:0:0:0:
360,72,8925,102,0,P|336:68|316:68,1,41.9999987182618,2|0,0:0|0:0,0:0:0:0:
232,120,9300,2,0,P|247:138|263:151,1,41.9999987182618,2|0,0:0|0:0,0:0:0:0:
224,16,9675,1,0,0:0:0:0:
132,156,10050,1,0,0:0:0:0:
48,212,10237,1,0,0:0:0:0:
48,212,10331,1,0,0:0:0:0:
48,212,10425,2,0,P|40:256|44:296,1,83.9999974365235,0|0,0:0|0:0,0:0:0:0:
196,364,11175,2,0,P|204:320|200:280,1,83.9999974365235,0|2,0:0|0:0,0:0:0:0:
168,204,11737,1,0,0:0:0:0:
228,144,11925,6,0,L|224:100,1,41.9999987182618,2|0,0:0|0:0,0:0:0:0:
344,196,12300,2,0,L|348:152,1,41.9999987182618,2|0,0:0|0:0,0:0:0:0:
292,60,12675,2,0,L|295:101,1,41.9999987182618
416,168,13050,1,0,0:0:0:0:
428,76,13237,1,2,0:0:0:0:
360,12,13425,1,0,0:0:0:0:
212,96,13612,102,0,P|188:100|148:92,2,48.9999985046387,8|0|0,0:0|0:0|0:0,0:0:0:0:
324,168,14175,2,0,L|316:248,1,56,8|0,0:0|0:0,0:0:0:0:
176,276,14550,2,0,L|168:196,1,62.9999980773926,8|8,0:0|0:0,0:0:0:0:
244,356,14925,22,0,B|312:332|312:380|380:356,1,140,4|0,3:1|0:0,0:0:0:0:
456,292,15487,1,0,3:0:0:0:
336,218,15674,2,0,L|344:288,1,70,8|0,0:0|0:0,0:0:0:0:
448,120,16050,2,0,L|440:189,1,70,0|0,3:0|0:0,0:0:0:0:
444,201,16331,1,0,0:0:0:0:
448,213,16425,5,0,0:0:0:0:
367,166,16612,1,0,0:0:0:0:
448,120,16800,1,0,3:0:0:0:
367,259,16987,1,0,0:0:0:0:
286,119,17175,1,8,0:0:0:0:
448,213,17362,1,0,0:0:0:0:
286,212,17550,1,0,0:0:0:0:
448,120,17737,1,0,0:0:0:0:
448,305,17925,6,0,P|408:344|312:336,1,140,0|0,3:0|0:0,0:0:0:0:
367,259,18487,1,0,3:0:0:0:
285,212,18675,2,0,P|325:173|421:181,1,140,8|0,0:0|3:0,0:0:0:0:
367,259,19237,1,2,0:0:0:0:
238,294,19425,6,0,L|166:286,1,70,0|2,3:0|0:0,0:0:0:0:
76,236,19800,2,0,L|68:308,1,70,0|0,0:0|0:0,0:0:0:0:
166,181,20175,2,0,L|174:109,1,70,4|0,0:2|0:0,0:0:0:0:
169,94,20456,1,0,0:0:0:0:
164,77,20550,1,0,3:0:0:0:
260,156,20737,1,0,0:0:0:0:
388,100,20925,5,0,3:0:0:0:
317,220,21112,1,0,0:0:0:0:
303,81,21300,1,0,0:0:0:0:
396,185,21488,1,0,3:0:0:0:
260,156,21675,2,0,B|216:152|216:152|168:160|168:160|120:156,1,140,8|0,0:0|3:0,0:0:0:0:
164,76,22237,1,2,0:0:0:0:
218,236,22425,5,0,3:0:0:0:
260,156,22612,2,0,L|332:148,2,70,8|0|0,0:0|0:0|3:0,0:0:0:0:
144,184,23175,2,0,L|72:176,2,70,12|0|8,0:0|0:0|0:0,0:0:0:0:
218,236,23737,1,8,0:0:0:0:
240,324,23925,1,4,3:1:0:0:
256,192,24018,12,0,26175,3:0:0:0:
240,324,26550,37,8,0:0:0:0:
218,236,26737,1,8,0:0:0:0:
260,156,26925,6,0,L|332:148,1,70,4|0,3:1|0:0,0:0:0:0:
416,108,27300,2,0,P|424:144|420:176,1,70
328,300,27675,2,0,P|320:264|324:232,1,70,8|0,0:0|0:0,0:0:0:0:
504,216,28050,1,0,3:0:0:0:
488,304,28237,1,0,0:0:0:0:
404,336,28425,2,0,P|368:328|272:356,2,140,0|0|8,0:0|0:0|0:0,0:0:0:0:
420,348,29550,1,0,0:0:0:0:
432,364,29925,6,0,L|440:292,1,70,0|0,3:0|0:0,0:0:0:0:
340,304,30300,2,0,L|332:232,1,70
424,192,30675,2,0,L|432:120,1,70,8|0,0:0|0:0,0:0:0:0:
332,132,31050,2,0,L|324:60,1,70,0|0,3:0|0:0,0:0:0:0:
416,20,31425,5,0,0:0:0:0:
470,148,31612,1,0,0:0:0:0:
332,132,31800,1,0,0:0:0:0:
336,136,31893,1,0,0:0:0:0:
340,140,31987,1,0,0:0:0:0:
470,148,32175,1,8,0:0:0:0:
416,20,32362,1,0,0:0:0:0:
288,74,32550,1,0,3:0:0:0:
342,202,32737,1,0,0:0:0:0:
470,148,32925,6,0,P|478:116|474:80,1,70,0|0,3:0|0:0,0:0:0:0:
416,208,33300,2,0,P|408:240|412:276,1,70
376,108,33675,2,0,L|304:100,1,70,8|0,0:0|0:0,0:0:0:0:
260,196,34050,2,0,L|188:204,1,70,0|0,3:0|0:0,0:0:0:0:
88,176,34425,2,0,P|84:220|80:332,2,140,0|0|8,0:0|0:0|0:0,0:0:0:0:
96,160,35550,1,0,0:0:0:0:
108,148,35925,5,0,3:0:0:0:
192,184,36112,1,0,0:0:0:0:
228,100,36300,1,0,0:0:0:0:
144,64,36487,1,0,0:0:0:0:
192,184,36675,2,0,P|196:220|192:280,1,70,8|0,0:0|0:0,0:0:0:0:
180,348,37050,2,0,P|209:326|263:300,1,70,0|0,3:0|0:0,0:0:0:0:
244,308,37331,1,0,0:0:0:0:
249,306,37425,37,0,0:0:0:0:
364,332,37612,1,0,0:0:0:0:
240,232,37800,1,0,0:0:0:0:
248,228,37893,1,0,0:0:0:0:
257,226,37987,1,0,3:0:0:0:
396,240,38175,1,8,3:2:0:0:
291,146,38362,1,0,0:0:0:0:
321,284,38550,1,0,0:0:0:0:
377,154,38737,1,0,0:0:0:0:
257,226,38925,6,0,P|196:200|156:140,1,140,4|0,3:1|0:0,0:0:0:0:
148,56,39487,1,0,0:0:0:0:
291,146,39675,2,0,B|287:190|287:190|295:238|295:238|291:286,1,140,8|0,0:0|3:0,0:0:0:0:
232,372,40237,1,0,0:0:0:0:
348,344,40425,1,0,0:0:0:0:
148,240,40800,1,0,0:0:0:0:
416,164,41175,2,0,P|432:92|424:24,1,140,8|0,0:0|0:0,0:0:0:0:
268,88,41925,6,0,B|220:88|220:88|176:96|176:96|128:96,1,140,0|0,3:0|0:0,0:0:0:0:
80,164,42487,1,0,0:0:0:0:
104,244,42675,2,0,P|168:276|232:264,1,140,8|0,0:0|3:0,0:0:0:0:
256,343,43237,1,0,0:0:0:0:
313,282,43425,5,0,0:0:0:0:
337,362,43612,1,0,0:0:0:0:
232,263,43800,1,0,0:0:0:0:
236,267,43894,1,0,0:0:0:0:
240,271,43987,1,0,0:0:0:0:
370,221,44175,1,8,0:0:0:0:
337,362,44362,1,0,0:0:0:0:
175,324,44550,1,0,3:0:0:0:
208,183,44737,1,0,0:0:0:0:
313,282,44925,6,0,P|364:284|416:280,1,70,0|0,3:0|0:0,0:0:0:0:
232,263,45300,2,0,P|181:261|129:265,1,70,0|0,0:0|0:0,0:0:0:0:
287,212,45675,2,0,P|284:136|276:72,1,140,8|0,0:0|3:0,0:0:0:0:
440,24,46425,2,0,P|431:93|429:163,1,140
472,244,46987,1,0,0:0:0:0:
400,300,47175,2,0,B|328:280|328:320|256:300,1,140,8|0,0:0|0:0,0:0:0:0:
244,292,47925,6,0,P|236:256|240:216,1,70,4|0,3:2|0:0,0:0:0:0:
296,152,48300,1,0,0:0:0:0:
320,248,48487,1,0,3:0:0:0:
152,208,48675,2,0,P|169:175|197:147,1,70,4|0,0:0|0:0,0:0:0:0:
320,248,49050,2,0,P|322:282|314:316,1,70,0|0,0:0|0:0,0:0:0:0:
232,376,49425,37,4,3:2:0:0:
384,344,49612,1,8,0:0:0:0:
244,292,49800,1,0,0:0:0:0:
248,296,49893,1,0,0:0:0:0:
252,300,49987,1,8,0:0:0:0:
359,196,50175,2,0,P|367:162|364:127,1,70,0|0,3:0|0:0,0:0:0:0:
248,96,50550,2,0,P|240:132|244:168,1,70,0|0,3:0|0:0,0:0:0:0:
432,232,50925,6,0,P|448:132|432:76,1,140,4|0,3:1|0:0,0:0:0:0:
364,32,51487,1,0,3:0:0:0:
272,120,51675,2,0,L|200:112,1,70,8|0,0:0|0:0,0:0:0:0:
156,28,52050,2,0,B|188:16|188:16|296:28,1,140,0|0,3:0|0:0,0:0:0:0:
368,180,52800,1,0,3:0:0:0:
236,284,53175,1,8,0:0:0:0:
152,268,53362,1,0,0:0:0:0:
68,252,53550,2,0,P|60:216|64:184,1,70,0|0,0:0|0:0,0:0:0:0:
128,81,53925,6,0,B|196:57|196:105|264:81,1,140,0|0,3:0|0:0,0:0:0:0:
228,5,54487,1,0,3:0:0:0:
164,157,54675,2,0,P|200:169|248:165,1,70,8|0,0:0|0:0,0:0:0:0:
336,125,55050,2,0,L|328:197,1,70,0|2,3:0|0:0,0:0:0:0:
360,273,55425,5,0,3:0:0:0:
288,317,55612,2,0,P|256:309|220:313,2,70,2|0|0,0:0|0:0|0:0,0:0:0:0:
168,369,56175,2,0,P|143:305|179:248,1,140,8|0,0:0|3:0,0:0:0:0:
219,313,56737,1,0,0:0:0:0:
219,313,56925,6,0,L|67:298,1,140,0|0,3:0|0:0,0:0:0:0:
4,337,57487,1,0,3:0:0:0:
119,224,57675,1,8,0:0:0:0:
92,383,57862,1,0,0:0:0:0:
21,239,58050,1,0,3:0:0:0:
162,313,58237,1,0,0:0:0:0:
303,239,58425,2,0,B|307:195|307:195|299:147|299:147|303:99,1,140,0|0,0:0|3:0,0:0:0:0:
460,44,59175,2,0,B|456:88|456:88|464:136|464:136|460:184,1,140,8|0,0:0|0:0,0:0:0:0:
428,268,59737,1,0,0:0:0:0:
344,304,59925,6,0,P|308:296|276:300,1,70,0|0,3:0|0:0,0:0:0:0:
172,324,60300,2,0,P|196:296|209:267,1,70,0|0,0:0|3:0,0:0:0:0:
270,226,60675,2,0,P|250:198|256:96,1,140,8|0,0:0|3:0,0:0:0:0:
320,44,61237,1,2,0:0:0:0:
334,127,61425,37,0,3:0:0:0:
240,16,61612,1,8,0:0:0:0:
398,73,61800,2,0,P|413:105|412:160,1,70,0|0,0:0|0:0,0:0:0:0:
269,180,62175,2,0,P|254:148|255:93,1,70,8|0,0:0|0:0,0:0:0:0:
364,196,62550,2,0,L|356:268,1,70,0|8,3:0|0:0,0:0:0:0:
288,328,62925,6,0,B|220:304|220:352|152:328,1,140,4|0,3:1|0:0,0:0:0:0:
80,272,63487,1,0,3:0:0:0:
131,196,63675,2,0,P|140:162|135:127,2,70,8|0|0,0:0|0:0|3:0,0:0:0:0:
68,80,64237,1,0,0:0:0:0:
68,80,64425,2,0,P|136:44|208:88,1,140,0|0,0:0|3:0,0:0:0:0:
288,204,65175,2,0,P|356:240|428:196,1,140,8|0,0:0|0:0,0:0:0:0:
460,288,65737,1,0,0:0:0:0:
404,352,65925,6,0,L|332:344,1,70,0|0,3:0|0:0,0:0:0:0:
260,384,66300,2,0,B|228:368|228:368|220:332,1,70,0|0,0:0|3:0,0:0:0:0:
135,304,66675,2,0,L|143:232,1,70,8|0,0:0|0:0,0:0:0:0:
252,128,67050,2,0,P|260:162|257:197,1,70,0|2,3:0|0:0,0:0:0:0:
168,168,67425,5,0,3:0:0:0:
325,92,67612,2,0,P|341:192|325:248,1,140,2|0,0:0|0:0,0:0:0:0:
184,233,68175,2,0,P|166:165|176:96,1,140,8|0,0:0|3:0,0:0:0:0:
331,156,68925,6,0,B|379:156|379:156|423:164|423:164|471:164,1,140,0|0,3:0|0:0,0:0:0:0:
512,236,69487,1,0,3:0:0:0:
448,292,69675,2,0,L|376:292,1,70,8|0,0:0|0:0,0:0:0:0:
297,252,70050,2,0,P|289:288|293:320,1,70,0|0,3:0|0:0,0:0:0:0:
220,364,70425,2,0,B|148:344|148:384|76:364,1,140,0|0,0:0|3:0,0:0:0:0:
44,200,71175,2,0,P|112:204|168:164,1,140,8|0,0:0|0:0,0:0:0:0:
196,84,71737,1,0,0:0:0:0:
248,200,71925,6,0,P|284:204|320:196,1,70,4|0,3:2|0:0,0:0:0:0:
416,160,72300,2,0,L|408:232,1,70,0|0,0:0|3:0,0:0:0:0:
340,92,72675,2,0,L|332:20,2,70,4|0|0,3:2|0:0|0:0,0:0:0:0:
284,164,73237,1,0,0:0:0:0:
200,128,73425,2,0,P|164:124|128:132,1,70,4|8,3:2|0:0,0:0:0:0:
60,236,73800,1,0,0:0:0:0:
132,296,73987,1,8,0:0:0:0:
220,272,74175,2,0,P|228:236|224:200,1,70,8|0,3:2|3:0,0:0:0:0:
188,120,74550,1,0,3:0:0:0:
384,60,74925,37,4,3:2:0:0:
392,76,75300,1,0,0:0:0:0:
399,142,75487,1,0,3:0:0:0:
368,209,75676,1,8,0:0:0:0:
300,256,75863,1,0,0:0:0:0:
207,263,76051,1,0,3:0:0:0:
112,217,76238,1,0,0:0:0:0:
45,119,76426,101,0,3:0:0:0:
45,119,76988,1,8,0:0:0:0:
49,123,77081,1,8,0:0:0:0:
53,127,77175,1,8,0:0:0:0:
121,229,77362,1,8,0:0:0:0:
272,88,77550,1,8,0:0:0:0:
280,108,77925,22,0,L|272:248,1,140,4|0,3:1|0:0,0:0:0:0:
266,338,78487,1,0,3:0:0:0:
347,298,78675,2,0,P|383:294|415:302,1,70,8|0,0:0|0:0,0:0:0:0:
192,288,79050,2,0,P|156:292|124:284,1,70,0|0,3:0|0:0,0:0:0:0:
104,272,79331,1,0,0:0:0:0:
92,252,79425,5,0,0:0:0:0:
222,208,79612,1,0,0:0:0:0:
266,338,79800,1,0,3:0:0:0:
136,382,79987,1,0,0:0:0:0:
92,252,80175,2,0,L|100:180,1,70,8|0,0:0|0:0,0:0:0:0:
232,136,80550,2,0,L|224:64,1,70,0|0,0:0|0:0,0:0:0:0:
175,208,80925,6,0,P|256:224|304:192,1,140,0|0,3:0|0:0,0:0:0:0:
232,136,81487,1,0,3:0:0:0:
289,64,81675,2,0,P|208:48|160:80,1,140,8|0,0:0|3:0,0:0:0:0:
232,136,82237,1,2,0:0:0:0:
380,92,82425,6,0,L|372:20,1,70,0|2,3:0|0:0,0:0:0:0:
288,64,82800,1,0,0:0:0:0:
352,164,82987,1,0,0:0:0:0:
464,124,83175,2,0,L|456:52,1,70,8|0,0:0|0:0,0:0:0:0:
464,32,83456,1,0,0:0:0:0:
472,10,83550,1,0,3:0:0:0:
380,92,83737,1,0,0:0:0:0:
264,48,83925,6,0,P|232:40|196:44,1,70,0|0,3:0|0:0,0:0:0:0:
108,16,84300,2,0,P|85:39|70:72,1,70,0|0,0:0|3:0,0:0:0:0:
1,134,84675,2,0,P|32:196|96:222,1,140,8|0,0:0|3:0,0:0:0:0:
196,188,85237,1,2,0:0:0:0:
144,312,85425,1,0,3:0:0:0:
104,156,85612,1,8,0:0:0:0:
220,272,85800,2,0,P|256:276|292:272,1,70,0|0,0:0|0:0,0:0:0:0:
388,216,86175,5,4,0:0:0:0:
416,152,86362,1,0,0:0:0:0:
375,96,86550,1,0,3:0:0:0:
347,160,86737,1,8,0:0:0:0:
457,208,86925,22,0,P|480:128|444:88,1,140,4|0,3:1|0:0,0:0:0:0:
347,160,87487,1,0,3:0:0:0:
264,124,87675,2,0,B|256:88|256:88|260:52,1,70,8|0,0:0|0:0,0:0:0:0:
275,214,88050,2,0,B|283:250|283:250|280:284,1,70,0|0,3:0|0:0,0:0:0:0:
277,309,88331,1,0,0:0:0:0:
274,335,88425,5,0,0:0:0:0:
200,252,88612,1,0,0:0:0:0:
360,232,88800,2,0,L|352:304,1,70,0|0,3:0|0:0,0:0:0:0:
271,361,89175,1,8,0:0:0:0:
197,226,89362,1,0,0:0:0:0:
332,152,89550,1,0,0:0:0:0:
406,287,89737,1,0,0:0:0:0:
271,361,89925,6,0,P|235:369|203:365,1,70,0|0,3:0|0:0,0:0:0:0:
352,324,90300,2,0,P|384:316|420:320,1,70,0|0,0:0|3:0,0:0:0:0:
279,272,90675,2,0,B|259:200|299:200|279:128,1,140,8|0,0:0|3:0,0:0:0:0:
216,60,91237,1,2,0:0:0:0:
124,96,91425,6,0,P|88:100|52:92,1,70,0|2,3:0|0:0,0:0:0:0:
140,188,91800,2,0,L|90:240,1,70,0|0,0:0|0:0,0:0:0:0:
220,234,92175,2,0,P|219:270|230:305,1,70,8|0,0:0|0:0,0:0:0:0:
244,324,92457,1,0,0:0:0:0:
264,340,92550,1,0,3:0:0:0:
364,372,92737,1,0,0:0:0:0:
448,308,92925,6,0,L|452:236,1,70,0|0,3:0|0:0,0:0:0:0:
492,164,93300,1,0,0:0:0:0:
376,212,93487,1,0,3:0:0:0:
288,120,93675,2,0,B|216:100|216:140|144:120,1,140,8|0,0:0|3:0,0:0:0:0:
76,72,94237,1,2,0:0:0:0:
120,208,94425,5,0,3:0:0:0:
188,48,94612,2,0,P|220:40|288:48,1,70,8|0,0:0|0:0,0:0:0:0:
150,121,94987,1,0,3:0:0:0:
68,125,95175,2,0,P|45:101|18:38,1,70,12|0,0:0|0:0,0:0:0:0:
195,191,95550,2,0,P|185:222|145:277,1,70,8|8,0:0|0:0,0:0:0:0:
96,304,95925,1,4,3:1:0:0:
256,192,96018,12,0,98175,3:0:0:0:
96,304,98549,37,8,0:0:0:0:
167,254,98738,1,8,0:0:0:0:
248,284,98925,101,4,3:1:0:0:
