osu file format v14

[General]
AudioFilename: Don Jon.mp3
AudioLeadIn: 0
PreviewTime: 14831
Countdown: 0
SampleSet: Soft
StackLeniency: 0.7
Mode: 0
LetterboxInBreaks: 0
EpilepsyWarning: 1
WidescreenStoryboard: 1

[Editor]
Bookmarks: 14925,26925,38925,50925,62925,77925,86925,98925
DistanceSpacing: 1.4
BeatDivisor: 4
GridSize: 4
TimelineZoom: 1

[Metadata]
Title:Don Coi
TitleUnicode:Đơn Côi
Artist:Quynh Nhu
ArtistUnicode:Quỳnh Như
Creator:Mako Sakata
Version:Hard
Source:
Tags:wendao wendao2000 Harez Piano Alone A舎長 Lonely Sad Desperate Truong Anh Cut Short Ver Version Vpop Vietnamese pop Nhạc Việt Nam
BeatmapID:962141
BeatmapSetID:448090

[Difficulty]
HPDrainRate:5
CircleSize:4
OverallDifficulty:6
ApproachRate:7
SliderMultiplier:1.2
SliderTickRate:1

[Events]
//Background and Video events
0,0,"story1.jpg",0,0
//Break Periods
//Storyboard Layer 0 (Background)
//Storyboard Layer 1 (Fail)
//Storyboard Layer 2 (Pass)
//Storyboard Layer 3 (Foreground)
//Storyboard Sound Samples

[TimingPoints]
2925,375,4,2,1,60,1,0
2925,-125,4,2,1,60,0,0
14925,-100,4,2,1,70,0,1
23925,-111.111111111111,4,2,1,60,0,0
24112,-111.111111111111,4,2,1,55,0,0
24487,-111.111111111111,4,2,1,50,0,0
24862,-111.111111111111,4,2,1,45,0,0
25237,-111.111111111111,4,2,1,40,0,0
25612,-111.111111111111,4,2,1,35,0,0
25987,-111.111111111111,4,2,1,30,0,0
26175,-111.111111111111,4,2,1,60,0,0
74925,-111.111111111111,4,2,1,70,0,0
76987,-111.111111111111,4,2,1,50,0,0
77175,-111.111111111111,4,2,1,40,0,0
77925,-100,4,2,1,70,0,1
95925,-166.666666666667,4,2,1,60,0,0
97425,-111.111111111111,4,2,1,60,0,0

[Colours]
Combo1 : 200,200,200
Combo2 : 255,213,128
Combo3 : 242,121,97
Combo4 : 255,140,179
Combo5 : 187,103,229
Combo6 : 140,236,255
Combo7 : 145,229,103
Combo8 : 160,160,160

[HitObjects]
100,192,2925,102,0,L|108:239,1,48,2|0,0:0|0:0,0:0:0:0:
184,224,3300,2,0,L|175:176,1,48,2|0,0:0|0:0,0:0:0:0:
128,116,3675,1,2,0:0:0:0:
264,44,4050,1,0,0:0:0:0:
332,80,4237,1,0,0:0:0:0:
404,56,4425,6,0,P|451:51|494:71,1,96,2|0,0:0|0:0,0:0:0:0:
363,156,5175,2,0,P|316:160|274:138,1,96,2|2,0:0|0:0,0:0:0:0:
396,232,5925,102,0,L|387:279,1,48,2|0,0:0|0:0,0:0:0:0:
460,304,6300,2,0,L|468:256,1,48,2|0,0:0|0:0,0:0:0:0:
456,180,6675,1,2,0:0:0:0:
332,80,7050,1,0,0:0:0:0:
276,132,7237,1,0,0:0:0:0:
296,208,7425,6,0,P|297:255|275:297,1,96,2|0,0:0|0:0,0:0:0:0:
196,164,8175,2,0,P|194:116|216:74,1,96,2|2,0:0|0:0,0:0:0:0:
120,196,8925,102,0,L|72:187,1,48,2|0,0:0|0:0,0:0:0:0:
64,264,9300,2,0,L|111:272,1,48,2|0,0:0|0:0,0:0:0:0:
184,244,9675,1,2,0:0:0:0:
320,316,10050,1,0,0:0:0:0:
348,244,10237,1,0,0:0:0:0:
312,176,10425,6,0,P|307:128|329:86,1,96,2|0,0:0|0:0,0:0:0:0:
420,212,11175,2,0,P|424:259|402:301,1,96,2|2,0:0|0:0,0:0:0:0:
248,308,11925,102,0,L|201:300,1,48,2|0,0:0|0:0,0:0:0:0:
209,223,12300,2,0,L|257:232,1,48
265,155,12675,2,0,L|217:146,1,48,2|0,0:0|0:0,0:0:0:0:
225,69,13050,2,0,L|273:78,1,48,0|0,0:0|0:0,0:0:0:0:
156,100,13425,5,2,0:0:0:0:
156,100,13612,2,0,P|111:88|66:105,1,96,8|0,0:0|0:0,0:0:0:0:
17,165,14175,2,0,L|27:211,1,48,10|0,0:0|0:0,0:0:0:0:
66,105,14550,2,0,L|55:58,1,48,10|10,0:0|0:0,0:0:0:0:
113,165,14925,6,0,L|97:284,1,120,4|0,1:2|0:0,0:0:0:0:
152,340,15487,1,0,1:0:0:0:
228,319,15675,2,0,P|286:314|335:348,1,120,8|0,0:0|1:0,0:0:0:0:
412,332,16237,1,0,0:0:0:0:
412,324,16332,1,0,0:0:0:0:
412,316,16425,6,0,L|408:256,1,60
332,168,16800,2,0,L|336:228,1,60,0|0,1:0|0:0,0:0:0:0:
396,124,17175,2,0,L|392:64,1,60,8|0,0:0|0:0,0:0:0:0:
320,36,17550,1,0,0:0:0:0:
248,64,17737,1,0,0:0:0:0:
180,24,17925,6,0,P|121:16|73:50,1,120,0|0,1:0|0:0,0:0:0:0:
140,92,18487,1,0,1:0:0:0:
100,160,18675,2,0,P|158:167|206:133,1,120,8|0,0:0|1:0,0:0:0:0:
280,164,19237,1,0,0:0:0:0:
280,164,19425,6,0,L|276:223,1,60,0|0,1:0|0:0,0:0:0:0:
352,244,19800,2,0,L|355:184,1,60,0|0,0:0|0:0,0:0:0:0:
430,204,20175,2,0,L|427:264,1,60,8|0,0:0|0:0,0:0:0:0:
444,300,20456,1,0,0:0:0:0:
444,300,20550,1,0,1:0:0:0:
396,360,20737,1,0,0:0:0:0:
324,328,20925,6,0,P|265:323|215:356,1,120,0|0,1:0|0:0,0:0:0:0:
140,368,21487,1,0,1:0:0:0:
80,320,21675,2,0,P|72:261|94:205,1,120,8|0,0:0|1:0,0:0:0:0:
52,56,22425,5,0,1:0:0:0:
52,56,22612,2,0,L|172:44,1,120,8|0,0:0|1:0,0:0:0:0:
240,80,23175,2,0,P|245:109|237:137,1,60,8|0,0:0|0:0,0:0:0:0:
196,203,23550,2,0,L|205:262,1,60,8|8,0:0|0:0,0:0:0:0:
324,184,23925,37,4,1:2:0:0:
256,192,24112,12,0,26175,1:0:0:0:
324,184,26925,6,0,L|328:240,1,53.9999983520508,4|0,1:2|0:0,0:0:0:0:
387,283,27300,2,0,P|414:288|440:281,1,53.9999983520508
412,212,27675,2,0,L|404:104,1,107.999996704102,8|0,0:0|1:0,0:0:0:0:
340,64,28237,1,0,0:0:0:0:
268,87,28425,6,0,P|215:94|171:64,1,107.999996704102,0|0,0:0|0:0,0:0:0:0:
84,188,29175,2,0,P|136:181|180:211,1,107.999996704102,8|0,0:0|0:0,0:0:0:0:
223,356,29925,6,0,L|279:352,1,53.9999983520508,0|0,1:0|0:0,0:0:0:0:
271,276,30300,2,0,L|215:280,1,53.9999983520508,0|0,0:0|0:0,0:0:0:0:
155,324,30675,2,0,P|102:330|58:300,1,107.999996704102,8|0,0:0|1:0,0:0:0:0:
119,255,31237,1,0,0:0:0:0:
84,188,31425,6,0,P|136:181|180:211,1,107.999996704102,0|0,0:0|0:0,0:0:0:0:
236,261,31987,1,0,0:0:0:0:
252,188,32175,2,0,L|248:134,1,53.9999983520508,8|0,0:0|0:0,0:0:0:0:
324,148,32550,2,0,L|327:201,1,53.9999983520508,0|0,1:0|0:0,0:0:0:0:
402,214,32925,6,0,L|398:160,1,53.9999983520508,0|0,1:0|0:0,0:0:0:0:
452,108,33300,2,0,P|477:101|504:106,1,53.9999983520508,0|0,0:0|0:0,0:0:0:0:
480,180,33675,2,0,L|488:288,1,107.999996704102,8|0,0:0|1:0,0:0:0:0:
444,348,34237,1,0,0:0:0:0:
368,360,34425,38,0,B|340:360|316:348|316:348|264:362,1,107.999996704102,0|0,0:0|0:0,0:0:0:0:
160,252,35175,2,0,B|188:252|212:264|212:264|263:249,1,107.999996704102,8|0,0:0|0:0,0:0:0:0:
160,360,35925,6,0,L|106:364,1,53.9999983520508,0|0,1:0|0:0,0:0:0:0:
60,304,36300,2,0,L|56:250,1,53.9999983520508,0|0,0:0|0:0,0:0:0:0:
8,192,36675,2,0,P|2:139|32:95,1,107.999996704102,8|0,0:0|1:0,0:0:0:0:
75,157,37237,1,0,0:0:0:0:
88,156,37331,1,0,0:0:0:0:
100,156,37425,6,0,L|208:160,1,107.999996704102
276,196,37987,1,0,1:0:0:0:
276,196,38175,2,0,P|302:201|328:194,1,53.9999983520508,0|0,1:0|0:0,0:0:0:0:
323,119,38550,2,0,P|296:114|271:120,1,53.9999983520508,0|0,0:0|0:0,0:0:0:0:
392,152,38925,5,4,1:2:0:0:
404,160,39300,2,0,L|402:214,1,53.9999983520508
397,289,39675,1,8,0:0:0:0:
464,324,39862,1,0,0:0:0:0:
504,260,40050,2,0,L|506:206,1,53.9999983520508,0|0,1:0|0:0,0:0:0:0:
480,136,40425,6,0,B|468:84|468:84|482:60|484:33,1,107.999996704102
392,152,41175,2,0,B|403:203|403:203|389:227|387:254,1,107.999996704102,8|0,0:0|0:0,0:0:0:0:
272,352,41925,5,0,1:0:0:0:
272,352,42300,2,0,L|218:349,1,53.9999983520508
144,360,42675,1,8,0:0:0:0:
104,296,42862,1,0,0:0:0:0:
125,224,43050,2,0,L|129:171,1,53.9999983520508,0|0,1:0|0:0,0:0:0:0:
183,118,43425,38,0,P|134:96|83:110,1,107.999996704102,0|0,0:0|0:0,0:0:0:0:
129,171,43987,1,0,0:0:0:0:
199,198,44175,2,0,L|252:200,1,53.9999983520508,8|0,0:0|0:0,0:0:0:0:
236,120,44550,2,0,L|183:118,1,53.9999983520508,0|0,1:0|0:0,0:0:0:0:
308,152,44925,5,0,1:0:0:0:
316,140,45300,2,0,L|308:32,1,107.999996704102,0|8,0:0|0:0,0:0:0:0:
232,40,45862,1,0,0:0:0:0:
156,48,46050,2,0,L|102:40,1,53.9999983520508,0|0,1:0|0:0,0:0:0:0:
44,88,46425,5,0,0:0:0:0:
44,88,46612,1,0,0:0:0:0:
44,88,46800,2,0,L|51:141,1,53.9999983520508
115,179,47175,2,0,P|124:232|111:284,1,107.999996704102,8|0,0:0|0:0,0:0:0:0:
256,336,47925,5,4,1:2:0:0:
240,108,48487,5,0,1:0:0:0:
326,42,48675,1,4,1:2:0:0:
326,42,49425,5,4,1:2:0:0:
412,108,49612,1,8,0:0:0:0:
389,242,49987,37,8,0:0:0:0:
326,118,50175,1,0,1:0:0:0:
452,184,50362,1,0,1:0:0:0:
310,204,50550,1,0,1:0:0:0:
412,108,50737,1,0,0:0:0:0:
389,242,50925,6,0,B|376:292|376:292|392:316|386:345,1,107.999996704102,4|0,1:2|0:0,0:0:0:0:
312,332,51487,1,0,1:0:0:0:
236,320,51675,2,0,P|209:319|184:329,1,53.9999983520508,8|0,0:0|0:0,0:0:0:0:
108,321,52050,1,0,1:0:0:0:
108,321,52425,6,0,L|111:213,1,107.999996704102,0|0,0:0|1:0,0:0:0:0:
8,105,53175,1,8,0:0:0:0:
8,105,53362,2,0,L|10:51,1,53.9999983520508,0|0,0:0|0:0,0:0:0:0:
32,201,53925,6,0,B|28:237|28:237|36:269|36:269|32:307,1,107.999996704102,0|0,1:0|0:0,0:0:0:0:
56,381,54487,1,0,1:0:0:0:
108,321,54675,2,0,L|161:324,1,53.9999983520508,8|0,0:0|0:0,0:0:0:0:
232,356,55050,1,0,1:0:0:0:
232,356,55425,6,0,P|283:369|331:347,1,107.999996704102,0|0,1:0|0:0,0:0:0:0:
220,244,56175,2,0,P|268:222|319:235,1,107.999996704102,8|0,0:0|1:0,0:0:0:0:
452,308,56925,6,0,L|455:200,1,107.999996704102,0|0,1:0|0:0,0:0:0:0:
432,128,57487,1,0,1:0:0:0:
432,128,57675,2,0,P|436:101|433:74,1,53.9999983520508,8|0,0:0|0:0,0:0:0:0:
372,176,58050,2,0,P|368:202|371:229,1,53.9999983520508,0|0,1:0|0:0,0:0:0:0:
360,100,58425,38,0,B|308:112|308:80|254:99,1,107.999996704102,0|0,0:0|1:0,0:0:0:0:
254,250,59175,2,0,B|308:269|308:237|360:249,1,107.999996704102,8|0,0:0|0:0,0:0:0:0:
228,174,59925,6,0,L|120:174,1,107.999996704102,0|0,1:0|0:0,0:0:0:0:
56,136,60487,1,0,1:0:0:0:
83,64,60675,2,0,P|88:37|81:11,1,53.9999983520508,8|0,0:0|0:0,0:0:0:0:
12,44,61050,1,0,1:0:0:0:
8,196,61425,5,0,1:0:0:0:
8,196,61612,2,0,B|23:247|23:247|8:272|11:299,1,107.999996704102,8|0,0:0|0:0,0:0:0:0:
88,288,62175,2,0,L|126:249,1,53.9999983520508,8|0,0:0|0:0,0:0:0:0:
132,348,62550,2,0,L|185:355,1,53.9999983520508,0|8,1:0|0:0,0:0:0:0:
55,359,62925,6,0,P|16:325|14:272,1,107.999996704102,4|0,1:2|0:0,0:0:0:0:
8,196,63487,1,0,1:0:0:0:
56,136,63675,2,0,L|109:139,1,53.9999983520508,8|0,0:0|0:0,0:0:0:0:
172,184,64050,1,0,1:0:0:0:
172,184,64425,6,0,P|223:197|271:175,1,107.999996704102,0|0,0:0|1:0,0:0:0:0:
372,288,65175,2,0,P|321:275|273:297,1,107.999996704102,8|0,0:0|0:0,0:0:0:0:
172,184,65925,6,0,B|184:132|152:132|171:78,1,107.999996704102,0|0,1:0|0:0,0:0:0:0:
240,108,66487,1,0,1:0:0:0:
308,76,66675,2,0,P|334:70|360:77,1,53.9999983520508,8|0,0:0|0:0,0:0:0:0:
424,120,67050,1,0,1:0:0:0:
424,120,67425,38,0,L|416:228,1,107.999996704102,0|0,1:0|0:0,0:0:0:0:
272,280,68175,2,0,L|280:172,1,107.999996704102,8|0,0:0|1:0,0:0:0:0:
372,292,68925,6,0,P|423:305|471:283,1,107.999996704102,0|0,1:0|0:0,0:0:0:0:
416,227,69487,1,0,1:0:0:0:
456,164,69675,2,0,L|458:111,1,53.9999983520508,8|0,0:0|0:0,0:0:0:0:
381,107,70050,2,0,L|379:160,1,53.9999983520508,0|0,1:0|0:0,0:0:0:0:
424,44,70425,6,0,P|373:31|325:53,1,107.999996704102,0|0,0:0|1:0,0:0:0:0:
231,175,71175,2,0,L|124:159,1,107.999996704102,8|0,0:0|0:0,0:0:0:0:
36,36,71925,5,4,1:2:0:0:
80,260,72487,5,0,1:0:0:0:
125,160,72675,1,4,1:2:0:0:
125,160,73425,5,4,1:2:0:0:
192,248,73613,1,8,0:0:0:0:
300,158,73987,37,8,0:0:0:0:
262,296,74175,1,8,1:2:0:0:
212,163,74362,1,0,1:0:0:0:
328,242,74550,1,0,1:0:0:0:
328,242,74925,6,0,P|376:264|427:251,1,107.999996704102,4|0,1:2|0:0,0:0:0:0:
384,188,75487,1,0,1:0:0:0:
384,188,75675,2,0,L|387:134,1,53.9999983520508,8|0,0:0|0:0,0:0:0:0:
427,251,76050,2,0,L|423:304,1,53.9999983520508,0|0,1:0|0:0,0:0:0:0:
486,200,76425,5,0,1:0:0:0:
486,200,76987,53,8,0:0:0:0:
486,188,77081,1,8,0:0:0:0:
486,176,77175,1,8,0:0:0:0:
482,100,77362,1,8,0:0:0:0:
478,24,77550,1,8,0:0:0:0:
427,251,77925,70,0,P|370:265|321:232,1,120,4|0,1:2|0:0,0:0:0:0:
384,189,78487,1,0,1:0:0:0:
402,113,78675,2,0,P|394:55|347:20,1,120,8|0,0:0|1:0,0:0:0:0:
326,97,79237,1,0,0:0:0:0:
318,97,79332,1,0,0:0:0:0:
310,97,79425,6,0,P|282:89|251:98,1,60
251,203,79800,2,0,P|280:212|309:204,1,60,0|0,1:0|0:0,0:0:0:0:
193,151,80175,2,0,P|164:142|133:151,1,60,8|0,0:0|0:0,0:0:0:0:
88,211,80550,1,0,0:0:0:0:
164,223,80737,1,0,0:0:0:0:
136,149,80925,6,0,L|143:29,1,120,0|0,1:0|0:0,0:0:0:0:
64,20,81487,1,0,1:0:0:0:
16,84,81675,2,0,L|8:203,1,120,8|0,0:0|1:0,0:0:0:0:
36,276,82237,1,0,0:0:0:0:
36,276,82425,38,0,L|108:284,1,60,0|0,1:0|0:0,0:0:0:0:
152,336,82800,2,0,L|208:316,1,60,0|0,0:0|0:0,0:0:0:0:
280,348,83175,2,0,L|322:305,1,60,8|0,0:0|0:0,0:0:0:0:
360,296,83456,1,0,0:0:0:0:
360,296,83550,1,0,1:0:0:0:
414,240,83737,1,0,0:0:0:0:
466,181,83925,6,0,P|492:234|473:290,1,120,0|0,1:0|0:0,0:0:0:0:
421,346,84487,1,0,1:0:0:0:
360,296,84675,2,0,P|335:243|354:188,1,120,8|0,0:0|1:0,0:0:0:0:
232,92,85425,5,0,1:0:0:0:
232,92,85612,2,0,L|112:84,1,120,8|0,0:0|0:0,0:0:0:0:
44,128,86175,2,0,P|35:156|42:185,1,60,8|0,0:0|0:0,0:0:0:0:
112,84,86550,2,0,P|120:55|111:24,1,60,0|8,1:0|0:0,0:0:0:0:
116,160,86925,6,0,L|236:168,1,120,4|0,1:2|0:0,0:0:0:0:
308,196,87487,1,0,1:0:0:0:
376,155,87675,2,0,P|432:138|486:161,1,120,8|0,0:0|1:0,0:0:0:0:
428,216,88236,1,0,0:0:0:0:
428,224,88331,1,0,0:0:0:0:
428,232,88425,6,0,L|421:291,1,60,0|0,0:0|0:0,0:0:0:0:
376,155,88800,2,0,L|382:95,1,60,0|0,1:0|0:0,0:0:0:0:
308,196,89175,2,0,L|301:255,1,60,8|0,0:0|0:0,0:0:0:0:
232,292,89550,1,0,0:0:0:0:
156,272,89737,1,0,0:0:0:0:
97,322,89925,6,0,P|78:266|103:214,1,120,0|0,1:0|0:0,0:0:0:0:
142,146,90487,1,0,1:0:0:0:
199,201,90675,2,0,P|254:220|307:195,1,120,8|0,0:0|1:0,0:0:0:0:
252,140,91237,1,0,0:0:0:0:
252,140,91425,38,0,P|248:110|258:82,1,60,0|0,1:0|0:0,0:0:0:0:
328,120,91800,2,0,P|340:92|362:73,1,60,0|0,0:0|0:0,0:0:0:0:
404,140,92175,2,0,L|464:136,1,60,8|0,0:0|0:0,0:0:0:0:
492,164,92456,1,0,0:0:0:0:
492,164,92550,1,0,1:0:0:0:
476,240,92737,1,0,0:0:0:0:
456,316,92925,6,0,L|336:323,1,120,0|0,1:0|0:0,0:0:0:0:
260,328,93487,1,0,1:0:0:0:
184,336,93675,2,0,B|180:300|204:276|204:276|196:220,1,120,8|0,0:0|1:0,0:0:0:0:
292,84,94425,5,0,1:0:0:0:
292,84,94612,2,0,L|412:96,1,120,8|0,0:0|1:0,0:0:0:0:
455,167,95175,2,0,P|460:196|452:224,1,60,8|0,0:0|0:0,0:0:0:0:
387,279,95550,2,0,L|396:338,1,60,8|8,0:0|0:0,0:0:0:0:
451,224,95925,6,0,P|353:201|301:287,1,215.999993408203,4|0,1:2|1:0,0:0:0:0:
84,228,97612,5,0,0:0:0:0:
84,228,97800,2,0,L|76:160,1,53.9999983520508,0|0,1:0|0:0,0:0:0:0:
128,116,98175,2,0,P|160:112|196:124,1,53.9999983520508,0|0,1:0|0:0,0:0:0:0:
251,143,98550,2,0,P|278:143|304:134,1,53.9999983520508,8|8,0:0|0:0,0:0:0:0:
256,36,98925,5,4,1:2:0:0:
