osu file format v9

[General]
AudioFilename: quest_pistols_-_revoliuciya.mp3
AudioLeadIn: 0
PreviewTime: -1
Countdown: 1
SampleSet: Soft
StackLeniency: 0.7
Mode: 0
LetterboxInBreaks: 1

[Editor]
DistanceSpacing: 0.8
BeatDivisor: 8
GridSize: 32

[Metadata]
Title:Revolyuciya
Artist:Quest Pistols
Creator:Alexsoul
Version:Normal+
Source:
Tags:Russian

[Difficulty]
HPDrainRate:4
CircleSize:4
OverallDifficulty:6
ApproachRate:4
SliderMultiplier:1.2
SliderTickRate:1

[Events]
//Background and Video events
0,0,"117838.jpg"
//Break Periods
2,14883,16037
//Storyboard Layer 0 (Background)
//Storyboard Layer 1 (Fail)
//Storyboard Layer 2 (Pass)
//Storyboard Layer 3 (Foreground)
//Storyboard Sound Samples
//Background Colour Transformations
3,100,163,162,255

[TimingPoints]
0,464.838461538463,4,2,0,100,1,0
0,-100,4,2,0,100,0,0
100,464.838461538463,4,2,0,100,1,0
100,464.838461538463,4,2,0,100,1,0
29799,447.01,4,2,0,100,1,0
42449,461.538461538462,4,1,0,100,1,0
44420,461.538461538462,4,1,0,100,1,1
57112,479.338461538462,4,1,0,100,1,0
59089,464.838461538463,4,1,0,70,1,0
66804,468.9,4,2,0,100,1,0
93366,461.538461538462,4,1,0,90,1,0
96091,461.538461538462,4,1,0,90,1,1
123725,535.838461538463,4,2,0,40,1,0
125584,464.8,4,2,0,100,1,0
151496,398.838461538463,4,1,0,100,1,0
153240,456.838461538463,4,1,0,100,1,0

[HitObjects]
128,128,13696,2,0,B|196:128,1,60
248,128,14219,2,0,B|306:128,2,60
256,192,17357,6,0,B|256:229,3,30
256,192,18112,12,2,19448
64,64,21090,5,0
64,64,21308,2,0,B|192:64,1,120
184,64,22005,1,0
364,64,22877,5,2
364,64,23167,2,0,B|364:163,1,90
364,230,23887,1,8
251,113,24794,5,0
251,113,25026,2,0,B|251:208,1,90
256,192,25782,12,2,26828
64,64,28534,5,0
64,107,28745,2,0,B|128:107,2,60
64,152,29428,1,0
64,199,29660,5,4
64,294,30106,1,2
213,294,30804,1,2
68,294,31475,1,2
181,180,32221,6,0,B|113:180,2,60
256,192,32983,12,0,34213
94,157,34716,6,0,B|454:157,1,360
454,97,36336,1,0
417,97,36504,2,0,B|324:96,1,90
183,96,37509,1,10
243,96,37789,1,0
243,96,37956,2,0,B|304:96,2,60
243,96,38627,1,0
86,248,39590,6,0,B|145:248,3,60
256,192,40303,12,0,41644
128,64,42795,6,0,B|192:64,2,60
128,112,43487,6,0,B|129:244,1,120
128,330,44420,6,0,B|249:330,3,120
248,281,46035,1,0
180,213,46496,6,0,B|252:213,6,60
111,144,48343,6,0,B|183:144,6,60
160,96,50189,2,0,B|224:96,2,60
160,96,50881,1,0
160,192,51343,1,6
227,124,51804,6,0,B|348:124,3,120
395,124,53420,1,0
383,231,53881,6,0,B|315:230,1,60
238,230,54516,1,0
238,158,54862,2,2,B|239:68,1,90
352,64,55727,2,0,B|416:64,4,60
303,64,56881,2,0,B|236:64,1,60
243,148,57531,1,0
147,148,58010,1,0
243,148,58490,1,0
136,41,59190,6,4,B|203:41,1,60
253,41,59649,2,8,B|253:291,2,240
357,46,61936,6,4,B|357:96,1,45
357,150,62400,2,0,B|357:173,4,15
357,198,62865,2,4,B|357:248,1,45
256,192,63621,12,8,64260
96,64,65364,6,0,B|176:65,4,75
96,192,67038,6,0,B|137:192,4,30
96,288,67976,2,8,B|320:288,1,225
321,240,69089,5,0
321,240,69265,2,0,B|322:179,2,60
256,192,69910,12,0,71141
96,96,71668,6,8,B|320:96,1,225
369,96,72782,2,0,B|439:96,4,60
188,96,74599,2,0,B|128:96,2,60
188,96,75302,1,8
188,96,75537,1,8
372,96,76475,6,8,B|430:96,2,60
320,96,77178,1,0
256,192,77412,12,0,78526
384,64,79054,5,8
384,155,79499,1,4
384,246,79944,1,8
287,246,80402,6,0,B|174:246,1,105
182,171,81126,1,0
182,171,81357,1,4
182,120,81598,6,0,B|250:120,4,60
151,120,82686,1,8
247,120,83156,1,0
348,120,83650,1,8
348,174,83918,2,0,B|348:245,1,60
299,234,84387,2,0,B|244:234,1,45
302,234,84798,5,8
211,81,85663,1,10
368,81,86433,1,10
131,98,87611,5,0
131,98,87787,2,2,B|196:97,3,60
383,97,89428,1,0
383,97,89662,2,2,B|383:212,1,105
383,202,90309,1,8
247,66,91247,5,0
247,101,91479,2,2,B|247:229,1,120
247,221,92183,1,8
256,192,92359,12,0,93238
160,192,93596,6,2,B|288:192,1,120
280,95,94519,5,10
328,95,94750,5,10
384,96,94981,5,10
432,96,95212,6,10,B|432:212,1,105
332,201,96091,6,0,B|202:201,3,120
212,152,97706,1,0
212,247,98167,6,0,B|212:183,3,60
212,138,99091,1,0
212,90,99321,2,0,B|284:90,1,60
380,90,100014,6,0,B|380:157,5,60
380,150,101398,1,6
380,246,101860,6,0,B|308:246,3,60
243,169,103014,5,6
243,276,103475,6,0,B|364:276,3,120
363,227,105091,1,0
363,127,105552,6,8,B|291:127,1,60
209,127,106230,2,2,B|143:126,3,60
149,213,107341,1,0
208,213,107629,1,0
208,213,107860,1,0
208,213,108091,1,2
208,213,108321,1,0
208,213,108552,1,0
208,213,108783,1,6
149,154,109244,5,0
197,154,109475,5,0
249,154,109706,5,0
301,154,109958,6,0,B|301:274,1,120
209,274,110860,6,0,B|79:274,3,120
89,221,112495,1,0
86,114,112937,6,0,B|148:114,6,60
194,114,114841,6,0,B|136:114,2,60
194,114,115475,2,2,B|256:114,2,60
194,114,116167,1,6
194,210,116629,6,0,B|257:210,1,60
254,210,117091,1,0
254,210,117321,2,0,B|254:88,1,120
332,201,118244,6,0,B|332:321,3,120
283,321,119860,1,0
187,321,120321,5,8
187,321,120552,1,8
187,224,121014,1,2
187,164,121302,1,2
187,86,121673,1,2
289,86,122167,2,0,B|289:155,1,60
289,146,122629,1,0
289,146,122832,1,2
347,146,123113,2,2,B|411:146,2,60
256,192,123725,12,4,125642
