osu file format v9

[General]
AudioFilename: quest_pistols_-_revoliuciya.mp3
AudioLeadIn: 1996
PreviewTime: -1
Countdown: 2
SampleSet: Normal
StackLeniency: 0.7
Mode: 0
LetterboxInBreaks: 1

[Editor]
DistanceSpacing: 0.8
BeatDivisor: 8
GridSize: 32

[Metadata]
Title:Revolyuciya
Artist:Quest Pistols
Creator:Alexsoul
Version:Hard
Source:
Tags:Russian

[Difficulty]
HPDrainRate:8
CircleSize:5
OverallDifficulty:7
ApproachRate:7
SliderMultiplier:1.4
SliderTickRate:0.5

[Events]
//Background and Video events
0,0,"117838.jpg"
//Break Periods
2,15153,16490
2,125858,150798
//Storyboard Layer 0 (Background)
//Storyboard Layer 1 (Fail)
//Storyboard Layer 2 (Pass)
//Storyboard Layer 3 (Foreground)
//Storyboard Sound Samples
//Background Colour Transformations
3,100,163,162,255

[TimingPoints]
0,375,4,2,0,100,1,0
0,-100,4,1,0,100,0,0
44437,352.941176470588,4,1,0,100,1,1
56834,375,4,1,0,100,1,0
56834,-100,4,1,0,100,0,0
73849,375,4,2,0,100,1,0
74473,375,4,1,0,100,1,0
96087,-100,4,1,0,100,0,1
123973,561.9,4,2,0,100,1,0
125658,480,4,2,0,100,1,0
151578,480.571428571429,4,1,0,100,1,0
155122,527,4,2,0,100,1,0
156948,400,4,2,0,100,1,0
157048,375,4,1,0,90,1,0

[HitObjects]
96,64,13734,1,0
168,64,13921,1,0
252,64,14250,1,0
307,64,14437,1,0
306,64,14578,2,0,B|306:236,1,140
64,64,17390,5,0
128,64,17578,2,0,B|288:64,1,140
266,64,18046,1,0
256,192,18328,12,0,19391
256,64,21046,5,0
320,64,21328,2,0,B|352:96|384:128|352:160|320:192,1,140
285,181,21796,1,0
217,181,22078,2,0,B|89:181,1,105
288,192,22921,5,0
323,227,23109,2,0,B|323:131,1,70
366,157,23390,2,0,B|366:253,1,70
465,227,23910,1,0
224,32,24796,5,0
224,32,24984,2,0,B|352:32,1,116.666666666667
416,32,25500,1,0
416,32,25593,2,0,B|32:352,1,490
128,64,27796,5,0
128,64,27923,1,0
128,64,28031,1,2
128,64,28125,1,0
288,64,28500,5,0
357,64,28734,1,0
430,64,28979,1,0
482,116,29229,1,0
482,190,29484,1,0
482,190,29625,5,0
412,190,29859,1,0
357,135,30119,1,2
256,112,30515,5,0
208,159,30750,1,0
160,206,30984,1,0
108,257,31171,1,0
173,322,31479,1,2
305,322,31921,1,0
346,239,32209,6,0,B|400:175,2,70
346,240,32867,1,0
256,192,33140,12,0,34265
256,192,34683,5,0
339,192,34921,1,0
434,192,35203,5,2
433,192,35296,1,0
436,192,35390,1,0
434,192,35484,1,0
348,277,35888,5,0
286,277,36093,2,8,B|193:277,1,93.3333333333333
140,277,36515,1,0
140,277,36757,1,2
143,32,37757,5,0
143,32,37958,2,8,B|256:32,1,93.3333333333333
236,32,38390,1,0
236,32,38642,1,2
236,312,39609,5,0
168,312,39796,1,0
168,312,39984,1,0
168,249,40194,1,2
256,192,40500,12,0,41625
64,64,42104,5,0
186,64,42515,1,0
266,64,42796,5,2
335,64,43043,5,2
399,64,43258,5,2
399,136,43500,5,2
399,136,43921,5,2
256,128,44437,6,0,B|256:224,2,87.5
256,128,45025,6,0,B|160:128,2,87.5
320,128,45731,5,8
413,128,46025,1,0
416,288,46495,6,0,B|320:288,1,87.5
256,288,46966,1,0
224,224,47201,1,0
192,160,47436,1,0
256,96,47672,1,0
256,96,47907,1,0
384,96,48378,5,0
384,96,48613,2,0,B|384:192,1,87.5
384,207,48966,1,2
384,207,49201,1,8
384,288,49436,5,8
309,288,49672,2,10,B|174:287,1,122.5
192,212,50201,5,0
192,212,50436,2,0,B|192:142,1,70
192,59,50871,1,0
332,59,51314,1,0
222,168,51804,38,0,B|222:264,2,87.5
161,168,52436,38,0,B|65:168,2,87.5
220,227,53142,5,8
279,167,53408,1,0
256,192,53848,5,0
256,192,54084,1,8
256,192,54319,2,2,B|256:96,1,87.5
181,104,54731,2,0,B|119:281,1,175
300,269,55731,5,8
374,269,55966,1,0
425,269,56128,1,0
425,245,56201,2,8,B|424:158,2,87.5
256,256,56812,5,0
256,170,57097,2,2,B|357:69,1,140
192,71,58015,1,8
329,71,58474,1,12
64,160,59203,5,4
352,160,59437,1,4
352,212,59625,5,8
352,80,60093,5,0
285,80,60328,1,0
205,80,60562,1,8
235,214,61031,1,4
367,214,61475,1,8
367,88,61896,5,4
367,88,62128,1,4
285,88,62401,2,6,B|96:88,1,175
110,175,63162,1,4
175,143,63515,6,2,B|256:96|320:128|352:160|384:128,1,210
448,128,64265,1,8
448,253,64687,1,0
376,253,64926,1,0
309,253,65157,1,8
307,181,65390,5,0
307,181,65625,1,0
307,83,65953,1,0
307,181,66281,1,0
307,181,66584,1,0
256,192,67005,1,0
256,192,67099,5,0
256,192,67193,1,0
256,192,67286,1,0
424,192,67968,5,8
424,73,68365,1,0
344,73,68632,1,0
268,73,68885,1,8
128,160,69093,5,0
211,160,69328,1,0
281,160,69562,1,0
357,160,69818,1,0
293,160,70031,2,2,B|30:160,1,262.5
93,281,71191,5,0
141,232,71419,1,0
189,183,71653,1,8
315,146,72093,1,4
219,241,72543,5,8
298,241,72808,1,0
345,193,73031,1,0
404,156,73265,1,0
378,90,73500,1,0
378,89,73687,1,0
320,64,73974,6,0,B|288:96,3,35
258,51,74431,1,8
192,160,74660,5,0
192,160,74867,1,0
192,160,75098,1,0
261,160,75327,1,8
261,160,75556,1,8
316,215,75820,5,0
270,260,76036,1,0
222,307,76249,1,8
192,96,76507,5,0
192,96,76708,1,0
192,96,76924,1,8
237,141,77138,5,0
256,192,77473,12,0,78129
256,192,78555,5,0
256,192,78790,1,0
256,192,79035,1,8
256,57,79485,5,4
256,192,79973,1,8
129,145,80426,5,0
129,145,80734,1,0
129,92,80910,5,0
129,92,81021,1,8
181,144,81250,1,0
181,172,81348,1,4
231,196,81535,6,0,B|199:228|199:260|231:292,1,105
292,288,82035,1,0
385,195,82223,5,0
385,195,82473,2,0,B|353:227|353:259|384:280,1,87.5
453,271,82975,2,0,B|456:176,2,87.5
394,271,83638,1,0
320,288,83879,5,0
320,288,84112,2,0,B|320:214,1,70
320,193,84422,1,0
320,193,84588,1,0
320,193,84785,1,2
64,64,85687,5,2
288,64,86440,1,2
64,160,87559,5,0
120,160,87811,1,0
175,160,88019,2,2,B|261:160,1,87.5
262,160,88452,1,0
96,64,89451,5,0
151,64,89624,2,2,B|256:64,1,105
320,64,90113,1,8
320,64,90354,1,8
131,252,91251,5,0
131,182,91484,2,2,B|130:94,1,87.5
130,94,91955,1,0
130,94,92202,1,0
256,192,92285,12,0,93223
130,94,93598,5,2
256,96,93991,1,2
164,187,94413,5,0
260,187,94719,5,8
332,187,94962,5,0
405,187,95188,5,0
405,52,95638,5,0
256,128,96114,6,0,B|256:224,2,87.5
256,128,96738,6,0,B|160:128,2,87.5
354,128,97535,1,0
354,197,97769,1,0
227,197,98191,5,0
227,197,98426,1,0
227,197,98660,1,0
227,197,98894,1,0
227,197,99129,1,0
227,197,99363,2,2,B|227:104,1,87.5
367,109,100066,5,0
367,109,100301,1,0
367,109,100535,1,0
367,109,100754,2,2,B|368:224,1,105
367,213,101192,1,0
367,213,101423,1,0
241,213,101894,5,0
241,213,102129,1,0
241,213,102363,1,0
241,138,102598,1,0
241,138,103041,1,4
114,138,103499,5,0
296,136,103726,1,0
96,224,103955,1,0
302,222,104202,1,0
114,301,104416,1,0
288,304,104643,1,0
238,254,104877,1,0
188,204,105090,1,4
211,207,105562,5,8
211,207,105785,1,8
288,128,106150,1,0
288,128,106254,1,0
288,128,106358,1,8
288,128,106543,5,2
371,128,106853,5,0
371,128,106947,1,0
371,128,107041,1,0
385,240,107426,5,0
385,240,107663,2,8,B|302:240,1,70
258,240,108039,1,2
171,240,108327,1,0
160,192,108515,1,0
229,192,108785,1,4
328,92,109254,5,0
394,92,109478,5,0
394,160,109706,5,0
394,225,109924,5,0
313,231,110426,5,0
313,73,110870,5,0
313,73,111105,2,0,B|216:73,1,87.5
225,73,111573,1,0
225,73,111808,2,0,B|224:160,1,87.5
223,160,112230,1,0
223,160,112464,1,0
120,262,112897,6,0,B|207:253,2,87.5
120,262,113654,1,0
120,262,113810,1,0
120,262,113963,1,0
120,262,114118,1,0
120,262,114292,2,0,B|118:143,1,105
243,121,114804,5,0
312,121,115037,1,0
380,121,115266,1,0
437,121,115457,2,0,B|466:160|466:192|466:192|445:205,2,87.5
451,121,116173,1,0
348,18,116660,5,0
278,18,116894,1,0
214,18,117107,1,0
214,83,117327,1,0
214,219,117785,1,0
217,226,118298,6,0,B|288:160,1,87.5
217,226,118719,1,0
217,226,118964,2,0,B|282:298,1,87.5
217,226,119389,1,0
217,226,119609,2,0,B|128:288,1,105
130,131,120316,5,8
130,131,120573,2,0,B|288:128,1,157.5
357,128,121301,1,0
357,128,121413,1,0
357,128,121525,1,0
357,128,121644,2,2,B|358:261,1,122.5
299,250,122167,5,0
256,250,122387,2,2,B|217:224|217:192|238:167,2,87.5
252,165,123129,5,0
66,161,123363,5,0
252,165,123598,5,0
252,76,124043,5,0
252,136,124267,1,0
252,136,124520,1,0
310,136,124719,5,8
361,136,124962,1,0
361,136,125167,1,0
361,136,125658,1,4
128,136,151698,5,0
128,136,151938,1,0
128,136,152178,1,0
240,136,152659,5,0
240,136,152899,1,0
240,136,153139,1,0
338,136,153560,5,0
338,136,153680,1,0
338,136,153800,1,0
338,136,153929,1,0
436,136,154221,1,0
436,136,154432,1,0
436,136,154658,1,0
379,136,154942,5,12
379,41,155385,5,0
322,41,155649,5,0
266,41,155912,5,0
217,41,156110,5,8
217,124,156576,5,10
361,153,157062,5,0
361,153,157235,1,0
361,230,157495,1,8
314,183,157714,1,0
314,183,157957,1,0
314,183,158169,1,0
361,230,158419,1,8
361,230,158657,1,4
