osu file format v5

[General]
AudioFilename: quest__pistols_-_kletka.mp3
AudioLeadIn: 0
PreviewTime: -1
Countdown: 1
SampleSet: Normal
StackLeniency: 0.7
Mode: 0
LetterboxInBreaks: 1
EditorBookmarks: 16017,48090,56256,141707
EditorDistanceSpacing: 1.10000002384186

[Metadata]
Title:Kletka
Artist:Quest Pistols
Creator:ProF
Version:Hard
Source:
Tags:Russian

[Difficulty]
HPDrainRate:6
CircleSize:5
OverallDifficulty:7
SliderMultiplier:1.4
SliderTickRate:1

[Events]
//Background and Video events
0,0,"5.jpg"
1,-1400,"QUEST_PISTOLs__quot________quot________.flv"
//Break Periods
2,48290,55206
2,131902,140802
//Storyboard Layer 0 (Background)
//Storyboard Layer 1 (Failing)
//Storyboard Layer 2 (Passing)
//Storyboard Layer 3 (Foreground)
//Storyboard Sound Samples
//Background Colour Transformations
3,100,163,162,255

[TimingPoints]
512.013036932004,476.190130976804,4,1,0,80,1,0
117464,-100,4,2,0,100,0,0
141707,-100,4,1,0,100,0,0

[Colours]
Combo1 : 0,0,0
Combo2 : 188,152,29
Combo3 : 255,255,255

[HitObjects]
96,48,15988,1,0
112,112,16226,1,0
144,176,16464,1,0
192,224,16702,1,0
240,272,16940,1,0
304,288,17178,2,0,B|375:271|423:207,1,140
416,144,17892,1,0
352,128,18130,1,0
288,128,18369,1,0
224,144,18607,1,0
160,192,18845,2,8,B|90:237|118:377|207:272,1,210
272,256,19797,5,0
336,224,20035,1,0
368,160,20273,1,0
368,96,20511,1,0
304,80,20750,2,0,B|279:38|254:24|192:33|192:100|231:128|311:86,1,210
400,176,21940,1,0
336,144,22178,1,0
272,176,22416,1,0
224,128,22654,1,0
225,132,22892,2,0,B|205:72|95:170,1,140
144,224,23607,5,0
176,288,23845,1,0
240,320,24083,1,0
304,304,24321,1,0
368,272,24559,1,0
416,208,24797,1,0
352,160,25035,1,0
224,112,25511,1,0
160,144,25749,1,0
209,199,25988,1,0
224,224,26107,2,0,B|192:256,2,35
256,208,26464,2,0,B|288:192,2,35
320,176,26940,1,0
176,144,27416,5,0
176,288,27892,1,0
240,288,28131,1,0
240,144,28607,1,0
448,192,29321,1,0
304,192,29797,1,0
304,192,29916,1,0
304,192,30035,1,0
240,224,30273,1,0
240,160,30511,1,0
128,64,30988,5,0
128,128,31226,1,0
128,160,31345,1,0
128,192,31464,1,0
192,192,31702,1,0
240,144,31940,1,0
288,96,32178,1,0
336,144,32416,1,0
288,272,32892,6,0,B|149:300|111:245|135:180|175:176,1,210
192,144,33845,2,0,B|240:96|288:80|323:117|384:160|384:240,1,280
384,160,35035,1,0
336,112,35273,1,0
272,144,35511,1,0
224,192,35750,1,0
192,208,35869,1,0
160,192,35988,1,0
112,144,36226,1,0
160,192,36464,1,0
224,192,36702,1,0
336,112,37178,1,0
368,176,37416,1,0
432,304,37892,1,0
288,304,38369,2,0,B|176:304|128:256|96:192,1,210
176,192,39559,5,8
320,192,40035,1,8
464,160,40511,6,0,B|442:61|346:61|314:173,1,210
288,208,41464,2,0,B|256:304|192:304|112:304|96:288|112:176,1,280
128,144,42654,1,0
176,96,42892,1,0
224,144,43130,1,0
224,208,43369,1,0
288,176,43607,1,0
288,240,43845,1,0
256,304,44083,1,0
192,304,44321,1,0
96,208,44797,1,0
96,208,45035,1,0
304,208,45751,1,0
304,208,45988,2,0,B|224:128|352:96|416:128,1,210
368,176,47179,5,8
256,272,47655,1,8
144,176,48131,1,8
160,96,56226,5,0
224,96,56464,1,0
288,112,56702,1,0
336,160,56940,1,0
368,224,57178,1,0
96,288,58131,1,0
160,304,58369,2,0,B|160:242,2,35,0|0|0
224,288,58845,1,0
288,256,59083,1,0
320,192,59321,1,0
400,80,59797,5,0
256,80,60273,1,0
192,96,60511,1,0
80,176,60988,1,0
16,304,61464,1,0
160,304,61940,1,0
208,256,62178,1,0
256,208,62416,2,0,B|215:134|290:57|342:121|414:225,1,280,0|0
288,288,63845,5,0
224,272,64083,1,0
160,240,64321,1,0
112,192,64559,1,0
80,128,64797,1,0
288,112,65511,2,0,B|288:163,2,35
352,144,65988,1,0
384,208,66226,1,0
336,256,66464,1,0
272,272,66702,1,0
208,256,66940,1,0
80,192,67416,5,0
176,80,67892,1,0
240,48,68131,1,0
384,64,68607,1,0
400,208,69083,1,0
352,256,69321,1,0
288,288,69559,1,0
224,288,69797,1,0
160,256,70035,1,0
128,192,70273,2,0,B|83:134|171:87,1,105
256,96,70988,5,0
320,96,71226,1,0
352,96,71345,1,0
320,96,71464,1,0
288,160,71702,1,0
320,160,71821,2,0,B|336:192,1,35,0|0
368,192,72059,2,0,B|336:240,1,35,0|0
368,256,72297,1,0
336,256,72416,1,0
256,272,72654,2,0,B|208:272|192:240,1,70
96,192,73250,5,0
128,160,73369,1,0
160,128,73488,1,0
240,128,73726,1,0
288,176,73964,1,0
240,128,74202,1,0
320,208,74558,1,0
192,304,75034,5,0
192,144,75511,1,0
128,176,75749,1,0
288,176,76226,1,0
432,240,76702,1,0
368,288,76940,1,0
288,320,77178,1,0
208,304,77416,1,0
144,272,77654,1,0
96,224,77892,1,0
160,192,78131,2,0,B|245:191|256:119|151:130,1,140
224,80,79083,1,0
304,64,79321,5,0
368,112,79559,1,0
400,224,79916,1,0
304,288,80273,1,0
144,288,80750,1,0
80,192,81107,1,0
144,96,81464,2,0,B|172:46|272:65|259:207,1,210
384,272,82654,1,0
224,272,83131,1,0
176,208,83369,1,0
272,208,83726,1,0
192,128,84083,1,0
352,128,84559,1,0
400,240,84916,1,0
368,256,85035,1,0
336,240,85154,1,0
304,256,85273,1,4
176,320,86226,6,0,B|80:304|80:224|112:176|160:160,1,210
192,128,87178,2,0,B|272:80|368:64|400:144|400:160|352:208,1,280
304,128,88369,1,0
240,112,88607,1,0
176,112,88845,1,0
144,128,88964,1,0
128,160,89083,1,0
96,224,89321,1,0
128,288,89559,1,0
192,288,89797,1,0
240,240,90035,1,0
309,304,90511,1,0
309,304,90749,1,0
328,226,91225,1,0
236,207,91702,2,0,B|148:167|161:92|304:57|381:69,1,280
432,82,92892,5,0
222,61,93369,1,8
96,144,93845,6,0,B|96:256|176:272|240:288,1,210
288,288,94797,2,0,B|480:272|480:144|400:96,1,280
368,160,95988,1,0
368,224,96226,1,0
352,288,96464,1,0
320,288,96583,1,0
288,272,96702,1,0
272,192,96940,1,0
272,192,97178,1,0
240,112,97416,1,0
240,112,97654,1,0
80,128,98131,1,0
80,128,98369,1,0
256,272,99083,1,0
256,272,99321,2,0,C|224:224|304:160|288:96,1,210
160,176,100512,5,0
256,288,100988,1,0
416,240,101464,6,0,B|416:128|352:96|272:96,1,210
224,96,102416,2,0,B|112:96|64:160|48:224|128:288|176:288,1,280
192,256,103607,1,0
256,240,103845,1,0
256,176,104083,1,0
240,144,104202,1,0
208,128,104321,1,0
160,64,104559,1,0
112,112,104797,1,0
80,176,105035,1,0
80,256,105273,1,0
224,320,105750,1,0
304,320,105988,1,0
448,256,106464,1,0
336,176,106940,2,0,B|424:136|411:61|268:26|191:38,1,280
256,96,108131,5,8
256,240,108607,1,8
128,192,109083,6,0,B|64:272|128:336|240:288,1,210
288,272,110035,2,0,B|384:256|448:240|464:176|464:128|416:96,1,280,0|0
368,144,111226,1,0
304,144,111464,1,0
288,208,111702,1,0
320,208,111821,1,0
352,208,111940,1,0
304,256,112178,1,0
368,256,112416,1,0
352,192,112654,1,0
288,192,112893,1,0
144,176,113369,1,0
80,176,113607,1,0
288,144,114321,1,0
352,144,114559,2,0,B|416:192|384:272|240:256,1,210
144,208,115750,5,8
256,288,116226,1,8
368,208,116702,1,0
251,204,117654,5,0
251,204,117893,1,0
253,269,118131,1,0
119,132,119559,1,0
119,132,119797,1,0
119,205,120035,1,0
399,139,121464,5,0
400,208,121702,1,0
256,208,122178,1,0
112,208,122654,1,0
112,64,123131,1,0
256,64,123607,1,0
400,64,124083,1,0
334,189,125273,1,0
334,189,125512,1,0
336,268,125750,1,0
176,192,126940,1,0
176,192,127059,1,0
176,192,127178,1,0
176,240,127416,1,0
176,240,127654,1,0
362,157,129083,5,0
304,192,129321,1,0
160,160,129797,1,0
160,304,130273,1,0
304,304,130750,1,0
304,160,131226,1,0
160,160,131702,1,0
217,90,141702,6,0,B|160:161,5,70
128,272,143369,5,0
272,272,143845,1,0
336,272,144083,1,0
336,64,144797,1,0
128,64,145512,1,0
128,208,145988,1,0
272,208,146464,1,0
272,272,147178,6,0,B|133:300|95:245|119:180|159:176,1,210
160,128,148131,2,0,B|208:80|256:64|291:101|352:144|352:224,1,280
416,224,149321,1,0
416,160,149559,1,0
384,160,149678,1,0
352,160,149797,1,0
288,160,150035,1,0
224,160,150274,1,0
224,224,150512,1,0
288,224,150750,1,0
288,224,150988,1,0
144,224,151464,1,0
144,224,151702,1,0
224,112,152178,1,0
112,192,152654,2,0,B|156:305|206:289|286:256,1,210
368,224,153844,5,8
240,272,154320,1,8
48,192,154796,6,0,B|48:112|112:64|256:64,1,210
256,64,155749,2,0,B|320:48|368:80|416:144|384:272|384:272,1,280
448,256,156940,1,0
384,256,157178,1,0
352,256,157297,1,0
320,256,157416,1,0
384,256,157654,1,0
320,256,157893,1,0
256,256,158131,1,0
192,256,158369,1,0
192,256,158607,1,0
192,112,159083,1,0
192,112,159321,1,0
368,208,160034,1,0
288,224,160273,2,0,C|144:272|80:224|96:176,1,280
112,128,161464,5,8
208,240,161940,1,8
288,112,162416,6,0,B|384:112|432:160|416:240|336:272,1,210
320,272,163369,2,0,B|224:320|80:272|112:128,1,280
176,160,164559,1,0
240,160,164797,1,0
256,192,164916,1,0
272,224,165035,1,0
304,160,165274,1,0
272,224,165512,1,0
240,160,165750,1,0
176,160,165988,1,0
176,160,166226,1,0
320,160,166702,1,0
320,160,166940,1,0
176,160,167415,1,0
288,256,167892,2,0,C|128:240|160:176,1,210,0|0
160,128,169083,5,8
272,240,169559,1,8
288,272,170035,6,0,B|149:300|111:245|135:180|175:176,1,210
192,144,170988,2,0,B|240:96|288:80|323:117|384:160|384:240,1,280
320,256,172178,1,0
256,256,172416,1,0
256,224,172535,1,0
256,192,172655,1,0
320,192,172893,1,0
320,192,173131,1,0
384,192,173369,1,0
320,192,173607,1,0
320,192,173845,1,0
176,192,174320,1,0
176,192,174558,1,0
320,192,175273,1,0
320,192,175511,2,0,C|336:304|240:304|208:272,1,210
128,144,176702,5,0
256,208,177178,1,0
384,144,177655,1,0
256,192,177654,12,0,178845
