osu file format v14

[General]
AudioFilename: nooneknows_mixdown.mp3
AudioLeadIn: 0
PreviewTime: -1
Countdown: 1
SampleSet: Normal
StackLeniency: 0.7
Mode: 0
LetterboxInBreaks: 1
WidescreenStoryboard: 0

[Editor]
Bookmarks: 149714
DistanceSpacing: 0.6
BeatDivisor: 4
GridSize: 32
TimelineZoom: 1.4

[Metadata]
Title:No One Knows
TitleUnicode:No One Knows
Artist:Queens Of Stone Age
ArtistUnicode:Queens Of Stone Age
Creator:corninho
Version:Melancholy
Source:
Tags:Songs for the Deaf Alternative Rock
BeatmapID:2038815
BeatmapSetID:973975

[Difficulty]
HPDrainRate:4
CircleSize:5
OverallDifficulty:9.5
ApproachRate:9.4
SliderMultiplier:1.8
SliderTickRate:1

[Events]
//Background and Video events
0,0,"dec1pm-6ca41cb1-5221-480e-b7a8-e856e9cdaa4b.jpg",0,0
//Break Periods
//Storyboard Layer 0 (Background)
//Storyboard Layer 1 (Fail)
//Storyboard Layer 2 (Pass)
//Storyboard Layer 3 (Foreground)
//Storyboard Sound Samples

[TimingPoints]
224.972725814905,359.281437125748,4,1,0,58,1,0
3099,350.877192982456,4,1,0,58,1,0
8713,346.820809248555,4,1,0,58,1,0
14262,355.871886120996,4,1,0,58,1,0
22447,-80,4,1,0,58,0,0
22802,-100,4,1,0,58,0,0
23870,-100,4,1,0,58,0,0
24226,-80,4,1,0,58,0,0
24582,-66.6666666666667,4,1,0,58,0,0
24938,-100,4,1,0,58,0,0
25649,350.877192982456,4,1,0,58,1,0
27754,-80,4,1,0,58,0,0
28017,-100,4,1,0,58,0,0
28368,-100,4,1,0,58,0,0
31253,346.820809248555,4,1,0,58,1,0
35761,-100,4,1,0,58,0,0
36802,355.029585798817,4,1,0,58,1,0
39287,-80,4,1,0,58,0,0
39642,-100,4,1,0,58,0,0
42482,351.906158357771,4,1,0,58,1,0
44945,-80,4,1,0,58,0,0
45297,-100,4,1,0,58,0,0
53743,348.837209302326,4,1,0,58,1,0
59324,350.877192982456,4,1,0,58,1,0
63183,-80,4,1,0,58,0,0
63534,-66.6666666666667,4,1,0,58,0,0
63885,-57.1428571428571,4,1,0,58,0,0
64236,-50,4,1,0,58,0,0
64938,346.820809248555,4,1,0,58,1,0
64938,-100,4,1,0,58,0,0
70487,352.941176470588,4,1,0,58,1,1
70487,-66.6666666666667,4,1,0,58,0,1
78957,357.142857142857,4,1,0,58,1,1
78957,-66.6666666666667,4,1,0,58,0,1
81814,360.36036036036,4,1,0,58,1,1
84696,355.029585798817,4,1,0,58,1,1
84696,-80,4,1,0,58,0,1
87536,352.941176470588,4,1,0,58,1,1
90359,357.142857142857,4,1,0,58,1,1
93216,355.029585798817,4,1,0,58,1,1
97476,363.636363636364,4,1,0,58,1,1
98923,359.281437125748,4,1,0,58,1,1
103234,371.517027863777,4,1,0,58,1,1
109177,359.281437125748,4,1,0,58,1,0
109416,-100,4,1,0,8,0,0
110614,356.083086053412,4,1,0,58,1,0
110614,-100,4,1,0,28,0,0
111326,-100,4,1,0,18,0,0
112038,-100,4,1,0,38,0,0
112750,-100,4,1,0,18,0,0
113462,-100,4,1,0,8,0,0
114886,346.820809248555,4,1,0,58,1,1
114886,-80,4,1,0,58,0,1
120439,348.837209302326,4,1,0,58,1,1
123229,350.877192982456,4,1,0,58,1,1
127439,355.029585798817,4,1,0,58,1,1
128859,352.941176470588,4,1,0,58,1,1
131682,353.982300884956,4,1,0,58,1,0
143009,356.083086053412,4,1,0,58,1,0
145501,-66.6666666666667,4,1,0,58,0,0
145857,-100,4,1,0,58,0,0
147287,346.820809248555,4,1,0,58,1,0
151102,-66.6666666666667,4,1,0,58,0,0
151448,-100,4,1,0,58,0,0
159772,353.982300884956,4,1,0,58,1,0
161895,-80,4,1,0,58,0,0
162249,-100,4,1,0,58,0,0

[Colours]
Combo1 : 0,0,0
Combo2 : 0,202,0
Combo3 : 18,124,255
Combo4 : 242,24,57
Combo5 : 255,192,0
Combo6 : 255,128,0
Combo7 : 128,128,64

[HitObjects]
181,296,224,5,0,0:0:0:0:
137,171,584,1,0,0:0:0:0:
331,296,943,1,0,0:0:0:0:
375,171,1303,1,0,0:0:0:0:
136,113,1662,5,0,0:0:0:0:
223,24,2021,1,0,0:0:0:0:
376,113,2380,1,0,0:0:0:0:
300,23,2739,2,0,P|292:76|271:28,1,135
179,62,3099,6,0,B|174:109|174:109|177:167,1,90
237,317,3449,2,0,P|228:267|145:228,1,135
151,280,3800,2,0,P|105:253|120:153,1,135
151,189,4151,2,0,P|157:137|74:85,1,135
64,125,4502,2,0,P|54:70|137:22,1,135
119,73,4853,2,0,P|157:58|261:108,1,135
196,112,5204,2,0,P|259:135|310:111,1,90
303,82,5467,1,0,0:0:0:0:
356,76,5555,6,0,B|396:126|396:126|409:207,1,135
376,240,5906,2,0,L|303:109,1,135
260,142,6256,6,0,P|239:190|259:275,1,135
206,293,6607,2,0,P|256:273|338:305,1,135
279,315,6958,2,0,P|328:335|399:291,1,135
344,280,7309,2,0,P|391:258|398:174,1,135
360,215,7660,2,0,P|376:156|453:124,1,135
445,177,8011,2,0,P|474:126|454:78,1,90
420,71,8274,1,0,0:0:0:0:
366,78,8362,6,0,B|332:127|332:127|251:150,1,135
220,109,8713,2,0,L|199:255,1,135
254,241,9059,6,0,P|205:218|123:238,1,135
180,250,9406,2,0,P|136:271|54:215,1,135
117,231,9753,2,0,P|56:228|12:296,1,135
64,298,10100,2,0,P|75:348|156:337,1,135
112,307,10447,2,0,P|151:277|115:212,1,135
94,261,10793,2,0,P|69:218|114:174,1,90
128,152,11054,1,0,0:0:0:0:
91,113,11140,6,0,B|114:66|114:66|208:35,1,135
144,14,11487,2,0,L|204:149,1,135
183,189,11834,6,0,L|302:94,1,135
394,189,12181,2,0,L|275:94,1,135
233,228,12528,2,0,L|289:102,1,135
342,228,12874,2,0,L|286:102,1,135
289,239,13221,2,0,L|287:93,1,135
287,104,13568,1,0,0:0:0:0:
289,146,13684,1,0,0:0:0:0:
288,187,13799,1,0,0:0:0:0:
288,229,13915,2,0,B|286:294|286:294|249:338,1,90
251,323,14146,1,0,0:0:0:0:
251,323,14262,6,0,P|194:291|121:322,1,135
105,274,14617,2,0,P|116:229|73:141,1,135
119,122,14973,2,0,P|161:145|257:126,1,135
273,169,15329,2,0,P|259:217|279:298,1,135
233,293,15685,2,0,P|277:273|372:300,1,135
334,328,16041,2,0,P|334:273|376:195,1,135
392,241,16397,2,0,P|341:226|297:143,1,135
284,203,16753,2,0,P|334:166|346:107,1,90
359,91,17020,1,0,0:0:0:0:
322,65,17108,6,0,P|369:42|463:77,1,135
430,103,17464,2,0,P|413:161|334:199,1,135
343,153,17820,2,0,P|292:159|226:225,1,135
264,243,18176,2,0,P|219:285|126:304,1,135
137,261,18532,2,0,P|79:266|19:335,1,135
61,344,18888,2,0,L|59:202,1,135
60,254,19244,2,0,L|57:109,1,135
57,164,19600,2,0,P|63:113|97:139,1,90
113,153,19866,1,0,0:0:0:0:
137,115,19955,6,0,L|180:260,1,135
130,239,20311,2,0,P|190:246|287:298,1,135
231,312,20667,2,0,P|277:288|397:307,1,135
400,306,21023,2,0,P|393:258|318:194,1,135
363,164,21379,2,0,P|306:155|238:212,1,135
245,242,21735,2,0,P|196:224|176:134,1,135
139,183,22091,2,0,P|134:124|217:71,1,135
230,75,22447,6,0,B|229:160|229:160|230:131|230:131|230:218,1,168.75
189,204,22802,6,0,P|231:170|339:172,1,135
354,154,23158,2,0,L|351:316,1,135
351,334,23514,2,0,P|303:346|219:313,1,135
187,338,23870,2,0,L|189:194,1,135
236,204,24226,2,0,L|238:23,1,168.75
306,33,24582,2,0,L|306:256,1,202.500007724762
306,235,24938,1,0,0:0:0:0:
309,181,25056,1,0,0:0:0:0:
308,126,25175,1,0,0:0:0:0:
305,71,25294,2,0,P|259:45|196:58,1,90
193,73,25560,1,0,0:0:0:0:
168,106,25649,6,0,P|166:160|114:120,1,135
55,105,25999,2,0,P|61:161|111:133,1,135
32,216,26350,2,0,P|62:264|94:216,1,135
157,216,26701,2,0,P|126:264|94:216,1,135
241,178,27052,2,0,P|273:225|217:236,1,135
240,294,27403,2,0,P|183:282|216:235,1,135
319,307,27754,6,0,B|319:229|319:229|319:258|319:258|320:165|320:165|320:204|320:204|321:94,1,337.5
286,92,28368,1,0,0:0:0:0:
255,65,28456,6,0,P|314:66|399:31,1,135
477,109,28806,2,0,P|409:108|347:84,1,135
256,130,29157,2,0,P|315:131|400:96,1,135
407,140,29508,2,0,L|381:282,1,135
391,233,29859,2,0,L|352:371,1,135
267,370,30210,2,0,L|208:245,1,135
226,284,30561,2,0,L|170:173,1,90
145,207,30824,1,0,0:0:0:0:
158,168,30912,6,0,P|207:154|281:201,1,135
243,208,31253,2,0,L|248:64,1,135
283,54,31599,2,0,B|337:55|337:55|410:99,1,135
412,137,31946,2,0,B|405:197|405:197|333:249,1,135
303,238,32293,2,0,L|299:91,1,135
229,54,32640,2,0,B|175:55|175:55|102:99,1,135
100,137,32987,2,0,B|107:197|107:197|179:249,1,135
209,238,33333,2,0,L|209:143,1,90
248,159,33594,1,0,0:0:0:0:
230,122,33680,6,0,P|185:118|230:120,1,135
262,93,34027,2,0,P|239:41|166:18,1,135
146,51,34374,6,0,L|105:184,1,135
65,175,34721,2,0,L|102:318,1,135
232,311,35068,2,0,L|285:159,1,135
308,207,35414,2,0,L|281:58,1,135
235,71,35761,2,0,P|259:30|332:61,1,135.000005149842
329,54,36108,1,0,0:0:0:0:
307,34,36224,1,0,0:0:0:0:
277,32,36339,1,0,0:0:0:0:
252,49,36455,2,0,P|225:94|176:126,1,90
155,97,36715,1,0,0:0:0:0:
146,140,36802,6,0,B|159:210|159:210|217:251,1,135
254,235,37157,2,0,B|228:319|228:319|177:340,1,135
139,335,37512,2,0,L|62:203,1,135
28,204,37867,2,0,B|48:115|48:115|109:70,1,135
123,109,38222,2,0,L|190:232,1,135
206,93,38577,2,0,L|186:232,1,135
136,291,38932,2,0,B|204:290|204:290|286:313,1,135
240,343,39287,6,0,B|306:335|306:335|276:340|276:340|373:324,1,168.75
391,332,39642,6,0,P|402:275|339:188,1,135
353,250,39997,2,0,P|326:188|366:115,1,135
372,167,40352,2,0,P|373:107|324:46,1,135
284,54,40707,2,0,L|217:171,1,135
149,54,41062,2,0,L|216:171,1,135
125,269,41417,2,0,L|216:169,1,135
307,269,41772,2,0,L|215:169,1,135
171,163,42127,2,0,P|105:177|61:208,1,90
73,231,42393,1,0,0:0:0:0:
30,246,42482,6,0,P|14:196|76:113,1,135
84,97,42833,2,0,L|139:224,1,135
73,231,43185,2,0,L|128:371,1,135
204,353,43537,2,0,L|260:215,1,135
197,203,43889,2,0,L|259:70,1,135
316,62,44241,2,0,P|312:123|336:198,1,135
465,191,44593,2,0,P|404:179|327:194,1,135
222,190,44945,6,0,B|301:192|301:192|272:192|272:192|353:191,1,168.75
349,322,45297,6,0,P|353:261|329:186,1,135
341,146,45649,2,0,P|283:111|179:122,1,135
34,153,46001,2,0,P|94:153|160:195,1,135
113,204,46352,2,0,P|152:241|165:342,1,135
28,352,46704,2,0,P|71:326|100:229,1,135
119,292,47056,2,0,P|150:239|124:140,1,135
142,167,47408,1,0,0:0:0:0:
151,202,47525,1,0,0:0:0:0:
150,238,47643,1,0,0:0:0:0:
134,270,47760,2,0,P|96:309|45:315,1,90
51,244,48024,1,0,0:0:0:0:
68,264,48112,6,0,P|96:311|190:331,1,135
142,331,48464,2,0,P|206:332|288:279,1,135
211,240,48816,2,0,P|246:293|329:321,1,135
283,312,49168,2,0,P|346:322|425:292,1,135
462,240,49520,2,0,P|451:188|380:124,1,135
417,146,49872,2,0,P|371:118|283:107,1,135
226,182,50223,2,0,P|205:144|217:49,1,135
204,81,50575,2,0,P|236:29|292:21,1,90
284,33,50839,1,0,0:0:0:0:
257,34,50927,70,0,P|210:35|130:93,1,135
158,63,51279,2,0,P|114:119|102:189,1,135
143,275,51631,2,0,P|191:250|284:255,1,135
243,247,51983,2,0,P|188:251|116:309,1,135
63,255,52335,2,0,P|74:207|58:111,1,135
69,149,52687,2,0,P|72:207|50:291,1,135
142,358,53039,2,0,P|194:339|256:340,1,90
271,321,53303,1,0,0:0:0:0:
242,286,53391,2,0,P|237:238|276:124,1,135
317,69,53743,6,0,B|320:140|320:140|352:209,1,135
437,335,54091,2,0,P|446:278|417:189,1,135
471,207,54440,2,0,P|431:151|350:127,1,135
325,129,54789,2,0,L|324:277,1,135
299,349,55138,2,0,P|253:313|239:217,1,135
189,250,55487,2,0,P|203:195|277:140,1,135
267,100,55836,5,0,0:0:0:0:
230,80,55952,1,0,0:0:0:0:
190,65,56068,1,0,0:0:0:0:
183,135,56184,1,0,0:0:0:0:
143,120,56301,1,0,0:0:0:0:
102,108,56417,1,0,0:0:0:0:
35,34,56533,6,0,L|35:185,1,135
39,279,56882,2,0,P|73:243|118:156,1,135
103,198,57231,2,0,P|125:147|212:110,1,135
274,182,57580,2,0,L|274:37,1,135
370,38,57929,2,0,B|363:102|363:102|383:197,1,135
437,173,58277,2,0,P|393:232|310:214,1,135
259,245,58626,1,0,0:0:0:0:
288,214,58743,1,0,0:0:0:0:
317,183,58859,1,0,0:0:0:0:
359,129,58975,6,0,P|397:88|388:141,1,135
406,203,59324,2,0,B|386:254|386:254|326:315,1,135
352,290,59674,2,0,P|312:326|203:302,1,135
114,316,60025,2,0,B|121:266|121:266|172:187,1,135
151,222,60376,2,0,P|182:173|183:82,1,135
31,150,60727,2,0,B|83:147|83:147|166:169,1,135
132,161,61078,2,0,P|187:176|277:164,1,135
342,44,61429,2,0,B|342:102|342:102|380:153,1,90
405,135,61692,1,0,0:0:0:0:
405,135,61780,2,0,L|383:242,1,90
347,244,62043,1,0,0:0:0:0:
347,244,62131,6,0,B|328:300|328:300|221:332,1,135
298,309,62481,2,0,P|248:324|144:308,1,135
117,207,62832,2,0,P|145:160|243:147,1,135
294,195,63183,2,0,P|243:84|201:74,1,168.75
207,74,63534,2,0,P|265:106|286:257,1,202.500007724762
297,230,63885,2,0,P|296:147|163:73,1,236.250002253056
177,71,64236,2,0,P|266:104|290:273,1,270
296,262,64587,2,0,P|301:164|162:71,1,270
130,128,64938,6,0,B|119:186|119:186|138:284,1,135
189,334,65284,2,0,P|190:275|214:191,1,135
197,245,65631,2,0,P|226:176|214:81,1,135
141,60,65978,2,0,P|191:35|276:50,1,135
345,80,66325,2,0,P|337:135|348:220,1,135
337,169,66672,2,0,P|350:233|336:339,1,135
380,330,67018,1,0,0:0:0:0:
414,296,67134,1,0,0:0:0:0:
431,251,67250,1,0,0:0:0:0:
419,204,67365,6,0,P|385:161|277:169,1,135
253,218,67712,2,0,L|253:78,1,135
322,53,68059,2,0,P|384:39|457:44,1,135
418,40,68406,2,0,P|341:48|289:77,1,135
250,158,68753,2,0,P|209:198|183:288,1,135
169,348,69099,2,0,P|126:315|106:230,1,135
110,275,69446,2,0,P|101:203|63:139,1,135
150,67,69793,2,0,P|164:118|225:190,1,135
187,157,70140,2,0,P|227:197|257:306,1,135
297,320,70487,6,0,B|326:253|326:253|446:173,1,202.500007724762
450,137,70839,1,0,0:0:0:0:
386,86,70957,1,0,0:0:0:0:
322,136,71075,1,0,0:0:0:0:
252,95,71192,2,0,B|171:183|118:48|21:121,1,180.000006866455
23,151,71545,5,0,0:0:0:0:
92,192,71663,1,0,0:0:0:0:
41,255,71781,1,0,0:0:0:0:
111,293,71898,2,0,P|192:242|268:288,1,180.000006866455
322,266,72251,5,0,0:0:0:0:
265,207,72369,1,0,0:0:0:0:
322,136,72487,1,0,0:0:0:0:
252,95,72604,1,0,0:0:0:0:
247,59,72722,1,0,0:0:0:0:
249,23,72839,1,0,0:0:0:0:
395,21,72957,1,0,0:0:0:0:
397,57,73074,1,0,0:0:0:0:
392,93,73192,1,0,0:0:0:0:
322,136,73310,6,0,P|391:217|397:314,1,180.000006866455
397,251,73663,2,0,P|368:349|261:364,1,180.000006866455
177,326,74016,2,0,P|243:253|229:158,1,180.000006866455
246,211,74369,2,0,P|219:118|134:67,1,180.000006866455
42,189,74722,2,0,P|138:169|230:208,1,180.000006866455
179,182,75075,2,0,P|273:225|368:200,1,180.000006866455
243,47,75428,2,0,P|226:148|243:226,1,180.000006866455
232,187,75781,2,0,P|245:284|219:368,1,180.000006866455
96,353,76134,5,0,0:0:0:0:
87,318,76251,1,0,0:0:0:0:
87,281,76369,1,0,0:0:0:0:
158,255,76487,1,0,0:0:0:0:
158,219,76604,1,0,0:0:0:0:
147,184,76722,1,0,0:0:0:0:
73,155,76840,5,0,0:0:0:0:
75,118,76958,1,0,0:0:0:0:
92,86,77075,1,0,0:0:0:0:
138,17,77192,1,0,0:0:0:0:
169,35,77310,1,0,0:0:0:0:
205,34,77428,1,0,0:0:0:0:
259,115,77545,5,0,0:0:0:0:
292,101,77663,1,0,0:0:0:0:
327,107,77781,1,0,0:0:0:0:
428,49,77898,1,0,0:0:0:0:
436,84,78016,1,0,0:0:0:0:
437,120,78134,1,0,0:0:0:0:
360,169,78251,5,0,0:0:0:0:
352,204,78369,1,0,0:0:0:0:
356,239,78487,1,0,0:0:0:0:
465,244,78604,1,0,0:0:0:0:
468,279,78722,1,0,0:0:0:0:
458,313,78839,1,0,0:0:0:0:
348,356,78957,6,0,P|248:319|163:324,1,180.000006866455
211,319,79314,2,0,P|111:318|45:261,1,180.000006866455
102,140,79671,2,0,P|209:131|283:158,1,180.000006866455
243,139,80028,2,0,P|334:163|450:129,1,180.000006866455
256,26,80385,2,0,B|246:129|246:129|284:217,1,180.000006866455
264,165,80742,2,0,B|306:262|306:262|280:349,1,180.000006866455
50,193,81099,2,0,B|148:198|148:198|234:229,1,180.000006866455
181,212,81457,2,0,B|274:235|274:235|366:218,1,180.000006866455
452,178,81814,5,0,0:0:0:0:
439,170,81874,1,0,0:0:0:0:
425,164,81934,1,0,0:0:0:0:
410,160,81994,1,0,0:0:0:0:
395,157,82054,1,0,0:0:0:0:
380,157,82114,1,0,0:0:0:0:
365,154,82174,2,0,L|319:134,5,30
290,133,82534,5,0,0:0:0:0:
294,147,82594,1,0,0:0:0:0:
296,161,82654,1,0,0:0:0:0:
298,175,82714,1,0,0:0:0:0:
298,189,82774,1,0,0:0:0:0:
297,204,82835,1,0,0:0:0:0:
296,218,82895,2,0,L|293:257,5,30
341,284,83255,5,0,0:0:0:0:
326,284,83315,1,0,0:0:0:0:
311,283,83375,1,0,0:0:0:0:
296,280,83435,1,0,0:0:0:0:
281,275,83495,1,0,0:0:0:0:
266,270,83555,1,0,0:0:0:0:
252,263,83615,2,0,L|214:240,5,30
185,268,83976,1,0,0:0:0:0:
186,253,84036,5,0,0:0:0:0:
186,238,84096,1,0,0:0:0:0:
185,223,84156,1,0,0:0:0:0:
183,208,84216,1,0,0:0:0:0:
181,193,84276,1,0,0:0:0:0:
165,179,84336,1,0,0:0:0:0:
153,161,84396,1,0,0:0:0:0:
150,140,84456,1,0,0:0:0:0:
155,119,84516,1,0,0:0:0:0:
167,102,84576,1,0,0:0:0:0:
184,90,84636,1,0,0:0:0:0:
207,76,84696,6,0,P|289:91|356:157,1,150
299,97,85051,2,0,P|377:165|437:177,1,150
460,67,85406,2,0,P|405:142|393:224,1,150
405,145,85761,2,0,P|385:244|348:310,1,150
234,348,86116,2,0,B|207:271|207:271|221:195,1,150
205,254,86471,2,0,B|232:149|232:149|216:83,1,150
94,37,86826,2,0,P|85:135|94:197,1,150
130,150,87181,2,0,P|130:233|110:316,1,150
158,356,87536,6,0,B|206:307|206:307|302:295,1,120
298,303,87888,1,0,0:0:0:0:
283,177,88124,1,0,0:0:0:0:
160,208,88477,5,0,0:0:0:0:
200,134,88594,1,0,0:0:0:0:
283,177,88830,1,0,0:0:0:0:
329,107,88947,1,0,0:0:0:0:
454,113,89183,1,0,0:0:0:0:
482,187,89300,1,0,0:0:0:0:
458,280,89536,5,0,0:0:0:0:
400,248,89653,1,0,0:0:0:0:
342,280,89771,1,0,0:0:0:0:
282,252,89888,1,0,0:0:0:0:
226,288,90006,1,0,0:0:0:0:
169,253,90124,1,0,0:0:0:0:
108,278,90241,1,0,0:0:0:0:
56,237,90359,6,0,P|41:160|91:93,1,120
122,124,90716,2,0,P|139:180|122:236,1,120
108,278,91073,2,0,P|177:293|245:277,1,120
188,229,91430,2,0,P|257:214|325:230,1,120
369,236,91787,2,0,P|365:168|383:106,1,120
456,114,92144,2,0,P|469:172|465:232,1,120
438,292,92501,5,0,0:0:0:0:
427,226,92620,1,0,0:0:0:0:
413,161,92739,1,0,0:0:0:0:
318,184,92859,5,0,0:0:0:0:
308,118,92978,1,0,0:0:0:0:
301,52,93097,1,0,0:0:0:0:
197,28,93216,6,0,L|195:192,1,120
196,99,93571,2,0,L|192:240,1,120
68,293,93926,2,0,P|141:267|228:281,1,120
134,268,94281,2,0,P|206:273|292:235,1,120
408,151,94636,2,0,P|398:228|412:271,1,120
398,220,94991,2,0,P|421:288|412:350,1,120
285,318,95346,2,0,P|257:248|268:178,1,120
255,252,95701,2,0,P|267:171|270:95,1,120
113,53,96056,2,0,P|151:112|166:167,1,120
151,113,96411,2,0,P|200:59|267:37,1,120
378,64,96766,2,0,L|376:187,1,120
375,135,97121,2,0,P|310:110|242:135,1,120
122,269,97476,5,0,0:0:0:0:
359,234,97718,1,0,0:0:0:0:
223,93,97960,1,0,0:0:0:0:
144,244,98203,1,0,0:0:0:0:
232,57,98445,1,0,0:0:0:0:
355,222,98688,1,0,0:0:0:0:
206,31,98923,6,0,P|137:51|77:38,1,120
124,8,99282,2,0,P|105:85|136:168,1,120
144,88,99641,2,0,P|70:90|19:122,1,120
55,70,100000,2,0,P|56:148|85:181,1,120
123,155,100360,2,0,P|50:163|4:197,1,120
28,246,100719,2,0,P|96:242|160:271,1,120
122,316,101078,2,0,P|145:246|211:179,1,120
130,252,101437,2,0,P|194:260|246:294,1,120
195,329,101797,2,0,P|208:264|238:219,1,120
192,260,102156,2,0,P|256:279|314:304,1,120
261,340,102515,2,0,P|269:268|288:222,1,120
252,274,102875,2,0,P|318:290|370:317,1,120
297,340,103234,5,0,0:0:0:0:
236,281,103481,1,0,0:0:0:0:
273,205,103729,1,0,0:0:0:0:
308,357,103977,1,0,0:0:0:0:
211,285,104224,1,0,0:0:0:0:
250,171,104472,1,0,0:0:0:0:
364,361,104720,5,0,0:0:0:0:
194,301,104967,1,0,0:0:0:0:
247,128,105215,1,0,0:0:0:0:
420,294,105463,1,0,0:0:0:0:
189,357,105710,1,0,0:0:0:0:
63,152,105958,1,0,0:0:0:0:
463,262,106206,5,0,0:0:0:0:
157,360,106453,1,0,0:0:0:0:
72,111,106701,1,0,0:0:0:0:
493,270,106949,1,0,0:0:0:0:
121,366,107196,1,0,0:0:0:0:
73,58,107444,1,0,0:0:0:0:
217,202,107692,6,0,L|217:134,1,60
306,191,107939,2,0,L|306:262,1,60
160,206,108187,2,0,L|157:129,1,60
363,188,108435,2,0,L|365:267,1,60
103,211,108682,2,0,L|99:140,1,60
418,185,108930,2,0,L|424:271,1,60
256,193,109177,5,0,0:0:0:0:
356,341,109416,6,0,L|381:283,9,60
259,310,110614,2,0,P|231:295|208:260,5,60
158,284,111326,2,0,P|193:286|220:264,5,60
176,228,112038,6,0,P|204:253|216:293,5,60
249,228,112750,2,0,P|228:263|199:277,5,60
253,312,113462,2,0,P|224:294|209:260,5,60
165,308,114174,2,0,P|191:294|211:272,5,60
68,332,114886,6,0,P|46:255|58:164,1,150
80,134,115232,1,0,0:0:0:0:
109,186,115348,1,0,0:0:0:0:
151,228,115464,1,0,0:0:0:0:
210,236,115579,6,0,P|263:163|342:140,1,150
374,158,115926,1,0,0:0:0:0:
382,217,116042,1,0,0:0:0:0:
382,276,116157,1,0,0:0:0:0:
438,296,116273,1,0,0:0:0:0:
408,347,116388,1,0,0:0:0:0:
349,359,116504,1,0,0:0:0:0:
301,321,116620,6,0,B|279:243|279:243|230:169,1,150
181,191,116966,1,0,0:0:0:0:
205,135,117082,1,0,0:0:0:0:
253,99,117198,1,0,0:0:0:0:
312,93,117313,2,0,P|402:91|451:48,1,150
494,19,117660,2,0,L|492:178,1,150
472,226,118007,1,0,0:0:0:0:
443,173,118122,1,0,0:0:0:0:
400,129,118238,1,0,0:0:0:0:
346,101,118354,2,0,P|268:60|194:65,1,150
193,119,118701,1,0,0:0:0:0:
133,112,118816,1,0,0:0:0:0:
77,134,118932,1,0,0:0:0:0:
137,158,119047,6,0,P|137:244|117:274,2,75
77,134,119394,2,0,P|48:109|30:68,2,75
193,119,119741,2,0,P|222:94|240:53,2,75
133,112,120088,1,0,0:0:0:0:
139,171,120203,1,0,0:0:0:0:
129,230,120319,1,0,0:0:0:0:
106,274,120439,6,0,P|146:327|212:338,1,120
217,297,120787,1,0,0:0:0:0:
232,251,120904,1,0,0:0:0:0:
261,213,121020,1,0,0:0:0:0:
298,183,121136,2,0,P|312:151|312:105,2,60
346,248,121485,2,0,P|376:237|411:241,2,60
232,251,121834,2,0,P|202:238|140:244,2,60
290,264,122183,5,0,0:0:0:0:
291,210,122299,1,0,0:0:0:0:
299,156,122415,1,0,0:0:0:0:
368,102,122532,1,0,0:0:0:0:
316,84,122648,1,0,0:0:0:0:
262,80,122764,1,0,0:0:0:0:
173,78,122880,1,0,0:0:0:0:
180,131,122997,1,0,0:0:0:0:
176,184,123113,1,0,0:0:0:0:
140,276,123229,6,0,L|123:306,3,30
96,233,123462,1,0,0:0:0:0:
96,233,123579,6,0,P|84:155|59:121,1,120
21,204,123930,2,0,P|19:280|49:335,1,120
127,317,124281,2,0,P|188:294|268:297,1,120
331,308,124632,1,0,0:0:0:0:
318,128,124866,1,0,0:0:0:0:
182,246,125100,1,0,0:0:0:0:
331,308,125334,6,0,P|350:274|436:233,1,120
508,254,125685,2,0,P|479:191|432:155,1,120
318,128,126036,1,0,0:0:0:0:
147,73,126269,1,0,0:0:0:0:
182,246,126503,1,0,0:0:0:0:
318,128,126737,6,0,P|294:70|224:22,1,120
147,73,127088,2,0,B|129:142|129:142|147:215,1,120
182,246,127439,1,0,0:0:0:0:
63,111,127675,1,0,0:0:0:0:
28,287,127912,1,0,0:0:0:0:
182,246,128149,6,0,P|265:217|314:217,1,120
383,189,128504,2,0,P|365:272|338:310,1,120
261,328,128859,5,0,0:0:0:0:
243,329,128917,1,0,0:0:0:0:
225,324,128976,1,0,0:0:0:0:
209,315,129035,1,0,0:0:0:0:
197,300,129094,1,0,0:0:0:0:
188,283,129153,1,0,0:0:0:0:
175,270,129211,2,0,L|154:246,5,30
112,242,129564,5,0,0:0:0:0:
119,225,129623,1,0,0:0:0:0:
132,213,129682,1,0,0:0:0:0:
147,203,129741,1,0,0:0:0:0:
164,200,129800,1,0,0:0:0:0:
182,200,129859,1,0,0:0:0:0:
199,201,129917,2,0,L|249:192,5,30
282,176,130270,5,0,0:0:0:0:
270,161,130329,1,0,0:0:0:0:
256,148,130388,1,0,0:0:0:0:
241,137,130447,1,0,0:0:0:0:
224,128,130506,1,0,0:0:0:0:
207,122,130564,1,0,0:0:0:0:
189,118,130623,2,0,L|157:107,5,30
102,85,130976,5,0,0:0:0:0:
116,74,131035,1,0,0:0:0:0:
132,66,131094,1,0,0:0:0:0:
149,62,131153,1,0,0:0:0:0:
166,59,131211,1,0,0:0:0:0:
184,58,131270,1,0,0:0:0:0:
202,59,131329,1,0,0:0:0:0:
219,61,131388,1,0,0:0:0:0:
234,69,131447,1,0,0:0:0:0:
250,76,131506,1,0,0:0:0:0:
264,85,131564,1,0,0:0:0:0:
279,95,131623,1,0,0:0:0:0:
292,107,131682,1,0,0:0:0:0:
398,290,132035,6,0,L|387:96,1,180
398,290,132743,2,0,L|387:96,1,180
398,290,133451,2,0,L|387:96,1,180
398,290,134159,2,0,L|387:96,1,180
398,290,134867,2,0,L|387:96,1,180
398,290,135575,2,0,L|387:96,1,180
398,290,136283,2,0,L|387:96,1,180
398,290,136991,2,0,L|387:96,1,180
398,290,137699,2,0,L|387:96,1,180
398,290,138407,6,0,L|387:96,1,180
398,290,139115,2,0,L|387:96,1,180
398,290,139823,2,0,L|387:96,1,180
398,290,140531,2,0,L|387:96,1,180
398,290,141239,2,0,L|387:96,1,180
398,290,141947,2,0,L|387:96,1,180
203,279,142478,5,0,0:0:0:0:
203,279,142566,1,0,0:0:0:0:
203,279,142655,1,0,0:0:0:0:
203,279,143009,6,0,P|201:228|256:155,1,135
266,201,143365,2,0,P|288:144|263:67,1,135
310,92,143721,2,0,P|237:109|177:157,1,135
198,99,144077,2,0,P|157:168|149:224,1,135
109,242,144433,2,0,B|131:298|131:298|216:326,1,135
173,356,144789,2,0,P|196:306|279:266,1,135
275,310,145145,2,0,P|266:243|295:158,1,135
319,205,145501,2,0,B|246:154|246:154|283:178|283:178|213:132,1,202.500007724762
188,165,145857,6,0,P|190:106|255:60,1,135
252,105,146213,2,0,P|197:68|123:72,1,135
130,69,146569,2,0,P|188:73|276:33,1,135
214,39,146925,2,0,P|254:82|337:102,1,135
312,59,147281,2,0,P|298:121|305:202,1,135
258,198,147633,2,0,P|316:196|417:239,1,135
424,247,147980,1,0,0:0:0:0:
399,301,148096,1,0,0:0:0:0:
351,337,148211,1,0,0:0:0:0:
259,360,148327,2,0,B|257:300|257:300|230:253,1,90
165,248,148587,1,0,0:0:0:0:
165,248,148674,6,0,P|195:192|264:206,1,135
351,247,149021,2,0,P|321:191|252:205,1,135
245,132,149367,2,0,P|193:91|105:101,1,135
8,131,149714,2,0,P|60:90|148:100,1,135
113,123,150061,2,0,P|107:196|147:280,1,135
114,384,150408,2,0,P|135:320|128:253,1,135
0,245,150755,2,0,P|55:234|139:260,1,135
245,265,151102,2,0,B|190:276|133:255|133:255|173:267|173:267|90:242,1,202.500007724762
160,150,151448,6,0,P|208:125|311:160,1,135
409,125,151795,2,0,P|361:150|258:115,1,135
295,269,152142,2,0,P|278:210|295:111,1,135
274,6,152489,2,0,P|291:65|274:164,1,135
206,153,152836,2,0,L|209:309,1,135
165,297,153182,2,0,P|128:237|52:218,1,135
38,249,153529,2,0,L|36:144,1,90
72,132,153789,1,0,0:0:0:0:
108,157,153876,2,0,P|135:109|237:89,1,135
207,154,154223,6,0,P|245:117|351:113,1,135
423,78,154570,2,0,L|426:219,1,135
365,361,154917,2,0,L|365:217,1,135
350,172,155263,2,0,P|315:135|332:190,1,135
300,233,155610,2,0,L|176:315,1,135
108,240,155957,2,0,L|245:158,1,135
308,120,156304,2,0,P|266:88|193:70,1,90
196,103,156564,1,0,0:0:0:0:
162,72,156651,2,0,P|107:59|153:100,1,135
86,125,156997,6,0,L|50:268,1,135
92,278,157344,2,0,L|126:140,1,135
168,156,157691,2,0,L|132:299,1,135
178,299,158038,2,0,L|214:166,1,135
256,180,158385,2,0,L|220:317,1,135
263,327,158732,2,0,L|297:191,1,135
293,218,159078,1,0,0:0:0:0:
285,247,159194,1,0,0:0:0:0:
278,276,159310,1,0,0:0:0:0:
275,305,159425,2,0,P|317:338|383:344,1,90
445,312,159685,1,0,0:0:0:0:
445,312,159772,6,0,P|425:248|461:162,1,135
481,206,160125,2,0,P|474:139|408:72,1,135
394,63,160479,2,0,B|334:43|334:43|261:58,1,135
133,63,160833,2,0,B|193:43|193:43|263:57,1,135
256,190,161187,2,0,P|249:133|267:46,1,135
178,60,161541,2,0,P|184:126|171:192,1,135
77,184,161895,2,0,B|94:263|94:263|88:240|88:240|109:324,1,168.75
183,330,162249,6,0,P|185:274|234:203,1,135
265,231,162603,2,0,L|299:89,1,135
341,104,162957,2,0,L|314:248,1,135
360,247,163311,2,0,L|379:112,1,135
422,123,163665,2,0,L|399:268,1,135
444,268,164019,2,0,L|469:132,1,135
510,151,164373,2,0,L|490:297,1,135
466,322,164727,2,0,P|415:304|330:327,1,135
352,364,165081,2,0,P|297:359|233:303,1,135
215,270,165435,5,0,0:0:0:0:
203,90,165789,1,0,0:0:0:0:
116,64,166143,5,0,0:0:0:0:
283,280,166497,1,0,0:0:0:0:
372,288,166851,5,0,0:0:0:0:
87,15,167205,1,0,0:0:0:0:
29,70,167559,5,0,0:0:0:0:
345,349,167913,5,0,0:0:0:0:
288,330,168031,5,0,0:0:0:0:
250,282,168149,5,0,0:0:0:0:
236,223,168267,5,0,0:0:0:0:
