osu file format v13

[General]
AudioFilename: JULIAN.mp3
AudioLeadIn: 0
PreviewTime: 84775
Countdown: 0
SampleSet: Normal
StackLeniency: 0.7
Mode: 3
LetterboxInBreaks: 0
SpecialStyle: 0
WidescreenStoryboard: 1

[Editor]
DistanceSpacing: 2
BeatDivisor: 4
GridSize: 4
TimelineZoom: 1

[Metadata]
Title:JULIAN
TitleUnicode:JULIAN
Artist:Queen P.A.L
ArtistUnicode:Queen P.A.L
Creator:CrazyStar
Version:Another
Source:BMS
Tags:lr2 FIGHTERS for B.O.F. 2009 cranky
BeatmapID:484694
BeatmapSetID:205027

[Difficulty]
HPDrainRate:8
CircleSize:4
OverallDifficulty:8
ApproachRate:5
SliderMultiplier:1.4
SliderTickRate:1

[Events]
//Background and Video events
0,0,"BG-JULIAN.jpg",0,0
//Break Periods
//Storyboard Layer 0 (Background)
//Storyboard Layer 1 (Fail)
//Storyboard Layer 2 (Pass)
//Storyboard Layer 3 (Foreground)
//Storyboard Sound Samples

[TimingPoints]
1370,392.156862745098,4,1,0,9,1,0
84899,-100,4,1,0,12,0,1
111762,-100,4,3,0,12,0,1
113330,-100,4,1,0,20,0,0

[HitObjects]
320,192,781,128,0,1370:0:0:0:0:
64,192,1370,1,0,0:0:0:0:
192,192,1370,1,0,0:0:0:0:
448,192,1370,1,0,0:0:0:0:
192,192,1664,1,0,0:0:0:0:
320,192,1664,1,0,0:0:0:0:
448,192,1958,1,0,0:0:0:0:
64,192,1958,1,0,0:0:0:0:
64,192,2252,1,0,0:0:0:0:
320,192,2252,1,0,0:0:0:0:
320,192,2546,1,0,0:0:0:0:
448,192,2546,1,0,0:0:0:0:
192,192,2742,1,0,0:0:0:0:
64,192,2742,1,0,0:0:0:0:
448,192,2938,1,0,0:0:0:0:
192,192,2938,1,0,0:0:0:0:
320,192,3134,1,0,0:0:0:0:
192,192,3134,1,0,0:0:0:0:
192,192,3526,1,0,0:0:0:0:
64,192,3526,1,0,0:0:0:0:
192,192,3820,1,0,0:0:0:0:
448,192,3820,1,0,0:0:0:0:
192,192,4115,1,0,0:0:0:0:
320,192,4115,1,0,0:0:0:0:
448,192,4311,1,0,0:0:0:0:
64,192,4311,1,0,0:0:0:0:
64,192,4507,1,0,0:0:0:0:
320,192,4507,1,0,0:0:0:0:
448,192,4801,1,0,0:0:0:0:
192,192,4801,1,0,0:0:0:0:
320,192,5095,1,0,0:0:0:0:
192,192,5095,1,0,0:0:0:0:
64,192,5389,1,0,0:0:0:0:
448,192,5389,1,0,0:0:0:0:
320,192,5683,1,0,0:0:0:0:
448,192,5683,1,0,0:0:0:0:
192,192,5879,1,0,0:0:0:0:
64,192,5879,1,0,0:0:0:0:
64,192,6075,1,0,0:0:0:0:
448,192,6075,1,0,0:0:0:0:
320,192,6271,1,0,0:0:0:0:
192,192,6271,1,0,0:0:0:0:
64,192,6664,1,0,0:0:0:0:
320,192,6664,1,0,0:0:0:0:
64,192,6860,1,0,0:0:0:0:
448,192,6860,1,0,0:0:0:0:
192,192,7252,1,0,0:0:0:0:
320,192,7644,1,0,0:0:0:0:
192,192,7644,1,0,0:0:0:0:
64,192,7644,1,0,0:0:0:0:
192,192,7938,1,0,0:0:0:0:
448,192,7938,1,0,0:0:0:0:
64,192,8232,1,0,0:0:0:0:
320,192,8232,1,0,0:0:0:0:
448,192,8526,1,0,0:0:0:0:
320,192,8526,1,0,0:0:0:0:
192,192,8820,1,0,0:0:0:0:
448,192,8820,1,0,0:0:0:0:
320,192,9017,1,0,0:0:0:0:
192,192,9017,1,0,0:0:0:0:
448,192,9213,1,0,0:0:0:0:
64,192,9213,1,0,0:0:0:0:
448,192,9507,1,0,0:0:0:0:
192,192,9507,1,0,0:0:0:0:
320,192,9801,1,0,0:0:0:0:
192,192,9801,1,0,0:0:0:0:
448,192,10095,1,0,0:0:0:0:
64,192,10095,1,0,0:0:0:0:
320,192,10389,1,0,0:0:0:0:
448,192,10389,1,0,0:0:0:0:
320,192,10585,1,0,0:0:0:0:
192,192,10585,1,0,0:0:0:0:
448,192,10781,1,0,0:0:0:0:
64,192,10781,1,0,0:0:0:0:
64,192,11075,1,0,0:0:0:0:
320,192,11075,1,0,0:0:0:0:
320,192,11370,1,0,0:0:0:0:
192,192,11370,1,0,0:0:0:0:
192,192,11664,1,0,0:0:0:0:
448,192,11664,1,0,0:0:0:0:
192,192,11958,1,0,0:0:0:0:
64,192,11958,1,0,0:0:0:0:
64,192,12154,1,0,0:0:0:0:
320,192,12154,1,0,0:0:0:0:
448,192,12350,1,0,0:0:0:0:
192,192,12350,1,0,0:0:0:0:
64,192,12448,1,0,0:0:0:0:
320,192,12448,1,0,0:0:0:0:
192,192,12546,1,0,0:0:0:0:
448,192,12546,1,0,0:0:0:0:
320,192,12644,1,0,0:0:0:0:
64,192,12644,1,0,0:0:0:0:
192,192,12742,1,0,0:0:0:0:
448,192,12742,1,0,0:0:0:0:
192,192,12938,1,0,0:0:0:0:
320,192,13036,1,0,0:0:0:0:
192,192,13134,1,0,0:0:0:0:
64,192,13134,1,0,0:0:0:0:
320,192,13232,1,0,0:0:0:0:
448,192,13232,1,0,0:0:0:0:
192,192,13330,1,0,0:0:0:0:
64,192,13330,1,0,0:0:0:0:
320,192,13428,1,0,0:0:0:0:
448,192,13428,1,0,0:0:0:0:
192,192,13526,1,0,0:0:0:0:
64,192,13526,1,0,0:0:0:0:
448,192,13526,1,0,0:0:0:0:
448,192,13722,1,0,0:0:0:0:
192,192,13722,1,0,0:0:0:0:
64,192,13722,1,0,0:0:0:0:
64,192,13919,1,0,0:0:0:0:
192,192,13919,1,0,0:0:0:0:
448,192,13919,1,0,0:0:0:0:
192,192,14213,1,0,0:0:0:0:
320,192,14213,1,0,0:0:0:0:
64,192,14507,1,0,0:0:0:0:
448,192,14507,1,0,0:0:0:0:
192,192,14507,1,0,0:0:0:0:
192,192,14801,1,0,0:0:0:0:
320,192,14801,1,0,0:0:0:0:
192,192,15095,1,0,0:0:0:0:
64,192,15095,1,0,0:0:0:0:
448,192,15095,1,0,0:0:0:0:
448,192,15291,1,0,0:0:0:0:
320,192,15291,1,0,0:0:0:0:
64,192,15291,1,0,0:0:0:0:
192,192,15487,1,0,0:0:0:0:
320,192,15487,1,0,0:0:0:0:
448,192,15487,1,0,0:0:0:0:
64,192,15781,1,0,0:0:0:0:
192,192,15781,1,0,0:0:0:0:
192,192,16075,1,0,0:0:0:0:
320,192,16075,1,0,0:0:0:0:
448,192,16075,1,0,0:0:0:0:
192,192,16370,1,0,0:0:0:0:
64,192,16370,1,0,0:0:0:0:
320,192,16664,1,0,0:0:0:0:
192,192,16664,1,0,0:0:0:0:
64,192,16664,1,0,0:0:0:0:
448,192,16860,1,0,0:0:0:0:
192,192,16860,1,0,0:0:0:0:
64,192,16860,1,0,0:0:0:0:
320,192,17056,1,0,0:0:0:0:
448,192,17056,1,0,0:0:0:0:
64,192,17056,1,0,0:0:0:0:
320,192,17350,1,0,0:0:0:0:
192,192,17350,1,0,0:0:0:0:
64,192,17644,1,0,0:0:0:0:
320,192,17644,1,0,0:0:0:0:
448,192,17644,1,0,0:0:0:0:
192,192,17938,1,0,0:0:0:0:
320,192,17938,1,0,0:0:0:0:
192,192,18232,1,0,0:0:0:0:
320,192,18232,1,0,0:0:0:0:
448,192,18232,1,0,0:0:0:0:
320,192,18428,1,0,0:0:0:0:
448,192,18428,1,0,0:0:0:0:
64,192,18428,1,0,0:0:0:0:
320,192,18624,1,0,0:0:0:0:
192,192,18624,1,0,0:0:0:0:
64,192,18624,1,0,0:0:0:0:
448,192,18722,1,0,0:0:0:0:
64,192,18820,1,0,0:0:0:0:
448,192,18919,1,0,0:0:0:0:
64,192,19017,1,0,0:0:0:0:
320,192,19017,1,0,0:0:0:0:
448,192,19115,1,0,0:0:0:0:
64,192,19213,1,0,0:0:0:0:
448,192,19311,1,0,0:0:0:0:
192,192,19409,1,0,0:0:0:0:
64,192,19409,1,0,0:0:0:0:
448,192,19507,1,0,0:0:0:0:
64,192,19605,1,0,0:0:0:0:
192,192,19605,1,0,0:0:0:0:
448,192,19703,1,0,0:0:0:0:
64,192,19801,1,0,0:0:0:0:
192,192,19801,1,0,0:0:0:0:
448,192,19899,1,0,0:0:0:0:
192,192,19997,1,0,0:0:0:0:
64,192,19997,1,0,0:0:0:0:
448,192,20095,1,0,0:0:0:0:
320,192,20193,1,0,0:0:0:0:
64,192,20193,1,0,0:0:0:0:
192,192,20193,1,0,0:0:0:0:
64,192,20585,1,0,0:0:0:0:
320,192,20585,1,0,0:0:0:0:
448,192,20683,1,0,0:0:0:0:
192,192,20781,1,0,0:0:0:0:
320,192,20879,1,0,0:0:0:0:
64,192,20977,1,0,0:0:0:0:
448,192,20977,1,0,0:0:0:0:
448,192,21173,1,0,0:0:0:0:
64,192,21370,1,0,0:0:0:0:
448,192,21370,1,0,0:0:0:0:
448,192,21566,1,0,0:0:0:0:
320,192,21664,1,0,0:0:0:0:
64,192,21762,1,0,0:0:0:0:
320,192,21860,1,0,0:0:0:0:
320,192,22056,1,0,0:0:0:0:
64,192,22154,1,0,0:0:0:0:
192,192,22154,1,0,0:0:0:0:
192,192,22350,1,0,0:0:0:0:
64,192,22546,1,0,0:0:0:0:
448,192,22546,1,0,0:0:0:0:
448,192,22742,1,0,0:0:0:0:
64,192,22938,1,0,0:0:0:0:
192,192,22938,1,0,0:0:0:0:
320,192,23036,1,0,0:0:0:0:
448,192,23134,1,0,0:0:0:0:
192,192,23232,1,0,0:0:0:0:
64,192,23330,1,0,0:0:0:0:
448,192,23428,1,0,0:0:0:0:
448,192,23624,1,0,0:0:0:0:
64,192,23722,1,0,0:0:0:0:
192,192,23722,1,0,0:0:0:0:
320,192,23919,1,0,0:0:0:0:
448,192,24017,1,0,0:0:0:0:
64,192,24115,1,0,0:0:0:0:
320,192,24115,1,0,0:0:0:0:
320,192,24311,1,0,0:0:0:0:
64,192,24507,1,0,0:0:0:0:
448,192,24507,1,0,0:0:0:0:
192,192,24703,1,0,0:0:0:0:
320,192,24801,1,0,0:0:0:0:
64,192,24899,1,0,0:0:0:0:
320,192,24997,1,0,0:0:0:0:
320,192,25193,1,0,0:0:0:0:
448,192,25291,1,0,0:0:0:0:
64,192,25291,1,0,0:0:0:0:
448,192,25487,1,0,0:0:0:0:
192,192,25683,1,0,0:0:0:0:
64,192,25683,1,0,0:0:0:0:
192,192,25879,1,0,0:0:0:0:
448,192,26075,1,0,0:0:0:0:
64,192,26075,1,0,0:0:0:0:
192,192,26173,1,0,0:0:0:0:
448,192,26271,1,0,0:0:0:0:
320,192,26370,1,0,0:0:0:0:
64,192,26468,1,0,0:0:0:0:
320,192,26566,1,0,0:0:0:0:
320,192,26762,1,0,0:0:0:0:
192,192,26860,1,0,0:0:0:0:
64,192,26860,1,0,0:0:0:0:
192,192,27056,1,0,0:0:0:0:
64,192,27252,1,0,0:0:0:0:
320,192,27252,1,0,0:0:0:0:
320,192,27448,1,0,0:0:0:0:
448,192,27644,1,0,0:0:0:0:
64,192,27644,1,0,0:0:0:0:
448,192,27840,1,0,0:0:0:0:
192,192,27938,1,0,0:0:0:0:
64,192,28036,1,0,0:0:0:0:
192,192,28134,1,0,0:0:0:0:
192,192,28330,1,0,0:0:0:0:
64,192,28428,1,0,0:0:0:0:
320,192,28428,1,0,0:0:0:0:
320,192,28624,1,0,0:0:0:0:
64,192,28820,1,0,0:0:0:0:
448,192,28820,1,0,0:0:0:0:
448,192,29017,1,0,0:0:0:0:
64,192,29213,1,0,0:0:0:0:
192,192,29213,1,0,0:0:0:0:
320,192,29311,1,0,0:0:0:0:
192,192,29409,1,0,0:0:0:0:
448,192,29507,1,0,0:0:0:0:
64,192,29605,1,0,0:0:0:0:
448,192,29703,1,0,0:0:0:0:
192,192,29899,1,0,0:0:0:0:
320,192,29997,1,0,0:0:0:0:
64,192,29997,1,0,0:0:0:0:
192,192,30193,1,0,0:0:0:0:
320,192,30291,1,0,0:0:0:0:
448,192,30389,1,0,0:0:0:0:
64,192,30389,1,0,0:0:0:0:
192,192,30585,1,0,0:0:0:0:
320,192,30781,1,0,0:0:0:0:
64,192,30781,1,0,0:0:0:0:
192,192,30879,1,0,0:0:0:0:
320,192,30977,1,0,0:0:0:0:
448,192,31075,1,0,0:0:0:0:
64,192,31173,1,0,0:0:0:0:
320,192,31271,1,0,0:0:0:0:
320,192,31468,1,0,0:0:0:0:
64,192,31566,1,0,0:0:0:0:
448,192,31566,1,0,0:0:0:0:
448,192,31762,1,0,0:0:0:0:
64,192,31958,1,0,0:0:0:0:
320,192,31958,1,0,0:0:0:0:
320,192,32154,1,0,0:0:0:0:
64,192,32252,1,0,0:0:0:0:
64,192,32350,1,0,0:0:0:0:
192,192,32350,1,0,0:0:0:0:
64,192,32546,1,0,0:0:0:0:
192,192,32546,1,0,0:0:0:0:
64,192,32742,1,0,0:0:0:0:
448,192,32742,1,0,0:0:0:0:
320,192,32742,1,0,0:0:0:0:
192,192,32840,1,0,0:0:0:0:
192,192,33036,1,0,0:0:0:0:
64,192,33134,1,0,0:0:0:0:
320,192,33134,1,0,0:0:0:0:
192,192,33330,1,0,0:0:0:0:
448,192,33428,1,0,0:0:0:0:
320,192,33526,1,0,0:0:0:0:
64,192,33526,1,0,0:0:0:0:
320,192,33722,1,0,0:0:0:0:
448,192,33919,1,0,0:0:0:0:
64,192,33919,1,0,0:0:0:0:
448,192,34115,1,0,0:0:0:0:
192,192,34213,1,0,0:0:0:0:
64,192,34311,1,0,0:0:0:0:
320,192,34409,1,0,0:0:0:0:
448,192,34605,1,0,0:0:0:0:
192,192,34703,1,0,0:0:0:0:
64,192,34703,1,0,0:0:0:0:
192,192,34899,1,0,0:0:0:0:
64,192,35095,1,0,0:0:0:0:
320,192,35095,1,0,0:0:0:0:
320,192,35291,1,0,0:0:0:0:
64,192,35487,1,0,0:0:0:0:
448,192,35487,1,0,0:0:0:0:
192,192,35585,1,0,0:0:0:0:
448,192,35683,1,0,0:0:0:0:
320,192,35781,1,0,0:0:0:0:
64,192,35879,1,0,0:0:0:0:
320,192,35977,1,0,0:0:0:0:
192,192,36173,1,0,0:0:0:0:
448,192,36271,1,0,0:0:0:0:
64,192,36271,1,0,0:0:0:0:
192,192,36468,1,0,0:0:0:0:
320,192,36566,1,0,0:0:0:0:
448,192,36664,1,0,0:0:0:0:
64,192,36664,1,0,0:0:0:0:
448,192,36860,1,0,0:0:0:0:
192,192,37056,1,0,0:0:0:0:
64,192,37056,1,0,0:0:0:0:
192,192,37252,1,0,0:0:0:0:
320,192,37350,1,0,0:0:0:0:
64,192,37448,1,0,0:0:0:0:
448,192,37546,1,0,0:0:0:0:
320,192,37742,1,0,0:0:0:0:
192,192,37840,1,0,0:0:0:0:
64,192,37840,1,0,0:0:0:0:
192,192,38036,1,0,0:0:0:0:
448,192,38134,1,0,0:0:0:0:
64,192,38232,1,0,0:0:0:0:
192,192,38330,1,0,0:0:0:0:
192,192,38526,1,0,0:0:0:0:
448,192,38624,1,0,0:0:0:0:
64,192,38624,1,0,0:0:0:0:
448,192,38820,1,0,0:0:0:0:
320,192,38919,1,0,0:0:0:0:
64,192,39017,1,0,0:0:0:0:
192,192,39115,1,0,0:0:0:0:
192,192,39311,1,0,0:0:0:0:
448,192,39409,1,0,0:0:0:0:
64,192,39409,1,0,0:0:0:0:
320,192,39605,1,0,0:0:0:0:
192,192,39703,1,0,0:0:0:0:
320,192,39801,1,0,0:0:0:0:
64,192,39801,1,0,0:0:0:0:
320,192,39997,1,0,0:0:0:0:
448,192,40193,1,0,0:0:0:0:
64,192,40193,1,0,0:0:0:0:
320,192,40291,1,0,0:0:0:0:
448,192,40389,1,0,0:0:0:0:
192,192,40487,1,0,0:0:0:0:
64,192,40585,1,0,0:0:0:0:
192,192,40683,1,0,0:0:0:0:
192,192,40879,1,0,0:0:0:0:
448,192,40977,1,0,0:0:0:0:
64,192,40977,1,0,0:0:0:0:
448,192,41173,1,0,0:0:0:0:
192,192,41370,1,0,0:0:0:0:
64,192,41370,1,0,0:0:0:0:
448,192,41566,1,0,0:0:0:0:
320,192,41762,1,0,0:0:0:0:
64,192,41762,1,0,0:0:0:0:
192,192,41958,1,0,0:0:0:0:
448,192,42056,1,0,0:0:0:0:
64,192,42154,1,0,0:0:0:0:
448,192,42252,1,0,0:0:0:0:
192,192,42448,1,0,0:0:0:0:
320,192,42546,1,0,0:0:0:0:
64,192,42546,1,0,0:0:0:0:
448,192,42742,1,0,0:0:0:0:
64,192,42938,1,0,0:0:0:0:
320,192,42938,1,0,0:0:0:0:
192,192,43134,1,0,0:0:0:0:
64,192,43330,1,0,0:0:0:0:
448,192,43330,1,0,0:0:0:0:
192,192,43526,1,0,0:0:0:0:
320,192,43624,1,0,0:0:0:0:
64,192,43722,1,0,0:0:0:0:
192,192,43722,1,0,0:0:0:0:
448,192,43820,1,0,0:0:0:0:
64,192,43919,1,0,0:0:0:0:
320,192,43919,1,0,0:0:0:0:
448,192,44017,1,0,0:0:0:0:
64,192,44115,1,0,0:0:0:0:
192,192,44115,1,0,0:0:0:0:
448,192,44213,1,0,0:0:0:0:
64,192,44311,1,0,0:0:0:0:
320,192,44311,1,0,0:0:0:0:
448,192,44409,1,0,0:0:0:0:
64,192,44507,1,0,0:0:0:0:
192,192,44507,1,0,0:0:0:0:
448,192,44605,1,0,0:0:0:0:
64,192,44703,1,0,0:0:0:0:
320,192,44703,1,0,0:0:0:0:
448,192,44801,1,0,0:0:0:0:
64,192,44899,1,0,0:0:0:0:
192,192,44899,1,0,0:0:0:0:
448,192,44997,1,0,0:0:0:0:
64,192,45095,1,0,0:0:0:0:
320,192,45095,1,0,0:0:0:0:
448,192,45193,1,0,0:0:0:0:
192,192,45291,1,0,0:0:0:0:
320,192,45291,1,0,0:0:0:0:
64,192,45291,1,0,0:0:0:0:
192,192,45487,1,0,0:0:0:0:
320,192,45585,1,0,0:0:0:0:
448,192,45683,1,0,0:0:0:0:
64,192,45781,1,0,0:0:0:0:
192,192,45879,1,0,0:0:0:0:
320,192,45879,1,0,0:0:0:0:
448,192,46271,1,0,0:0:0:0:
192,192,46271,1,0,0:0:0:0:
320,192,46664,1,0,0:0:0:0:
448,192,46664,1,0,0:0:0:0:
64,192,46664,1,0,0:0:0:0:
320,192,47056,1,0,0:0:0:0:
192,192,47056,1,0,0:0:0:0:
64,192,47056,1,0,0:0:0:0:
192,192,47252,1,0,0:0:0:0:
320,192,47252,1,0,0:0:0:0:
448,192,47252,1,0,0:0:0:0:
64,192,47448,1,0,0:0:0:0:
320,192,47546,1,0,0:0:0:0:
192,192,47644,1,0,0:0:0:0:
448,192,47742,1,0,0:0:0:0:
320,192,47840,1,0,0:0:0:0:
64,192,47840,1,0,0:0:0:0:
320,192,48232,1,0,0:0:0:0:
192,192,48232,1,0,0:0:0:0:
448,192,48232,1,0,0:0:0:0:
64,192,48624,1,0,0:0:0:0:
192,192,48624,1,0,0:0:0:0:
448,192,48624,1,0,0:0:0:0:
64,192,49017,1,0,0:0:0:0:
320,192,49017,1,0,0:0:0:0:
448,192,49017,1,0,0:0:0:0:
192,192,49409,1,0,0:0:0:0:
320,192,49409,1,0,0:0:0:0:
64,192,49409,1,0,0:0:0:0:
320,192,49605,1,0,0:0:0:0:
192,192,49703,1,0,0:0:0:0:
448,192,49801,1,0,0:0:0:0:
64,192,49899,1,0,0:0:0:0:
192,192,49997,1,0,0:0:0:0:
320,192,49997,1,0,0:0:0:0:
320,192,50389,1,0,0:0:0:0:
448,192,50389,1,0,0:0:0:0:
64,192,50389,1,0,0:0:0:0:
64,192,50683,1,0,0:0:0:0:
192,192,50683,1,0,0:0:0:0:
320,192,50683,1,0,0:0:0:0:
320,192,50977,1,0,0:0:0:0:
192,192,50977,1,0,0:0:0:0:
448,192,50977,1,0,0:0:0:0:
64,192,51026,1,0,0:0:0:0:
192,192,51075,1,0,0:0:0:0:
320,192,51173,1,0,0:0:0:0:
64,192,51173,1,0,0:0:0:0:
448,192,51173,1,0,0:0:0:0:
320,192,51435,1,0,0:0:0:0:
192,192,51435,1,0,0:0:0:0:
64,192,51435,1,0,0:0:0:0:
448,192,51696,1,0,0:0:0:0:
320,192,51696,1,0,0:0:0:0:
64,192,51696,1,0,0:0:0:0:
192,192,51827,1,0,0:0:0:0:
64,192,51827,1,0,0:0:0:0:
320,192,51827,1,0,0:0:0:0:
320,192,51958,1,0,0:0:0:0:
448,192,51958,1,0,0:0:0:0:
192,192,51958,1,0,0:0:0:0:
448,192,52154,1,0,0:0:0:0:
448,192,52350,1,0,0:0:0:0:
320,192,52448,1,0,0:0:0:0:
192,192,52546,1,0,0:0:0:0:
64,192,52644,1,0,0:0:0:0:
192,192,52742,1,0,0:0:0:0:
448,192,52742,1,0,0:0:0:0:
320,192,52742,1,0,0:0:0:0:
192,192,52938,1,0,0:0:0:0:
320,192,53036,1,0,0:0:0:0:
448,192,53134,1,0,0:0:0:0:
192,192,53134,1,0,0:0:0:0:
64,192,53232,1,0,0:0:0:0:
192,192,53330,1,0,0:0:0:0:
320,192,53330,1,0,0:0:0:0:
448,192,53428,1,0,0:0:0:0:
448,192,53526,1,0,0:0:0:0:
320,192,53722,1,0,0:0:0:0:
64,192,53722,1,0,0:0:0:0:
448,192,53919,1,0,0:0:0:0:
192,192,54115,1,0,0:0:0:0:
320,192,54115,1,0,0:0:0:0:
448,192,54311,1,0,0:0:0:0:
64,192,54507,1,0,0:0:0:0:
320,192,54507,1,0,0:0:0:0:
448,192,54507,1,0,0:0:0:0:
192,192,54605,1,0,0:0:0:0:
448,192,54703,1,0,0:0:0:0:
320,192,54703,1,0,0:0:0:0:
64,192,54703,1,0,0:0:0:0:
192,192,54801,1,0,0:0:0:0:
320,192,54899,1,0,0:0:0:0:
192,192,54997,1,0,0:0:0:0:
448,192,55095,1,0,0:0:0:0:
64,192,55095,1,0,0:0:0:0:
320,192,55095,1,0,0:0:0:0:
320,192,55291,1,0,0:0:0:0:
192,192,55356,1,0,0:0:0:0:
64,192,55422,1,0,0:0:0:0:
448,192,55487,1,0,0:0:0:0:
192,192,55487,1,0,0:0:0:0:
320,192,55683,1,0,0:0:0:0:
192,192,55781,1,0,0:0:0:0:
448,192,55879,1,0,0:0:0:0:
64,192,55879,1,0,0:0:0:0:
64,192,56075,1,0,0:0:0:0:
192,192,56173,1,0,0:0:0:0:
448,192,56271,1,0,0:0:0:0:
320,192,56271,1,0,0:0:0:0:
64,192,56271,1,0,0:0:0:0:
192,192,56370,1,0,0:0:0:0:
448,192,56468,1,0,0:0:0:0:
320,192,56468,1,0,0:0:0:0:
192,192,56566,1,0,0:0:0:0:
448,192,56664,1,0,0:0:0:0:
64,192,56664,1,0,0:0:0:0:
320,192,56664,1,0,0:0:0:0:
448,192,57056,1,0,0:0:0:0:
192,192,57056,1,0,0:0:0:0:
320,192,57252,1,0,0:0:0:0:
448,192,57350,1,0,0:0:0:0:
448,192,57448,1,0,0:0:0:0:
64,192,57448,1,0,0:0:0:0:
448,192,57644,1,0,0:0:0:0:
192,192,57644,1,0,0:0:0:0:
320,192,57742,1,0,0:0:0:0:
448,192,57840,1,0,0:0:0:0:
64,192,57840,1,0,0:0:0:0:
448,192,58036,1,0,0:0:0:0:
192,192,58036,1,0,0:0:0:0:
64,192,58134,1,0,0:0:0:0:
448,192,58232,1,0,0:0:0:0:
320,192,58232,1,0,0:0:0:0:
320,192,58526,1,0,0:0:0:0:
448,192,58624,1,0,0:0:0:0:
448,192,58820,1,0,0:0:0:0:
64,192,58820,1,0,0:0:0:0:
448,192,59017,1,0,0:0:0:0:
64,192,59017,1,0,0:0:0:0:
192,192,59213,1,0,0:0:0:0:
64,192,59262,1,0,0:0:0:0:
192,192,59311,1,0,0:0:0:0:
320,192,59360,1,0,0:0:0:0:
448,192,59409,1,0,0:0:0:0:
64,192,59409,1,0,0:0:0:0:
448,192,59605,1,0,0:0:0:0:
64,192,59605,1,0,0:0:0:0:
192,192,59801,1,0,0:0:0:0:
320,192,59801,1,0,0:0:0:0:
192,192,60193,1,0,0:0:0:0:
64,192,60193,1,0,0:0:0:0:
64,192,60389,1,0,0:0:0:0:
192,192,60389,1,0,0:0:0:0:
192,192,60585,1,0,0:0:0:0:
64,192,60585,1,0,0:0:0:0:
320,192,60683,1,0,0:0:0:0:
192,192,60781,1,0,0:0:0:0:
448,192,60781,1,0,0:0:0:0:
64,192,60977,1,0,0:0:0:0:
320,192,60977,1,0,0:0:0:0:
192,192,61075,1,0,0:0:0:0:
448,192,61173,1,0,0:0:0:0:
64,192,61173,1,0,0:0:0:0:
320,192,61369,1,0,0:0:0:0:
448,192,61369,1,0,0:0:0:0:
192,192,61468,1,0,0:0:0:0:
64,192,61566,1,0,0:0:0:0:
192,192,61664,1,0,0:0:0:0:
64,192,61762,1,0,0:0:0:0:
448,192,61762,1,0,0:0:0:0:
192,192,61860,1,0,0:0:0:0:
320,192,61958,1,0,0:0:0:0:
320,192,62154,1,0,0:0:0:0:
64,192,62154,1,0,0:0:0:0:
448,192,62252,1,0,0:0:0:0:
192,192,62350,1,0,0:0:0:0:
320,192,62350,1,0,0:0:0:0:
64,192,62448,1,0,0:0:0:0:
448,192,62546,1,0,0:0:0:0:
320,192,62546,1,0,0:0:0:0:
192,192,62644,1,0,0:0:0:0:
64,192,62742,1,0,0:0:0:0:
320,192,62742,1,0,0:0:0:0:
64,192,62938,1,0,0:0:0:0:
448,192,62938,1,0,0:0:0:0:
320,192,63134,1,0,0:0:0:0:
64,192,63134,1,0,0:0:0:0:
64,192,63330,1,0,0:0:0:0:
192,192,63330,1,0,0:0:0:0:
320,192,63428,1,0,0:0:0:0:
64,192,63526,1,0,0:0:0:0:
448,192,63526,1,0,0:0:0:0:
192,192,63722,1,0,0:0:0:0:
448,192,63722,1,0,0:0:0:0:
64,192,63820,1,0,0:0:0:0:
320,192,63919,1,0,0:0:0:0:
192,192,63919,1,0,0:0:0:0:
448,192,64017,1,0,0:0:0:0:
64,192,64115,1,0,0:0:0:0:
320,192,64115,1,0,0:0:0:0:
192,192,64213,1,0,0:0:0:0:
448,192,64311,1,0,0:0:0:0:
320,192,64311,1,0,0:0:0:0:
192,192,64507,1,0,0:0:0:0:
320,192,64507,1,0,0:0:0:0:
320,192,64703,1,0,0:0:0:0:
448,192,64899,1,0,0:0:0:0:
64,192,64899,1,0,0:0:0:0:
320,192,64997,1,0,0:0:0:0:
64,192,65095,1,0,0:0:0:0:
320,192,65291,1,0,0:0:0:0:
64,192,65291,1,0,0:0:0:0:
192,192,65389,1,0,0:0:0:0:
64,192,65487,1,0,0:0:0:0:
448,192,65487,1,0,0:0:0:0:
64,192,65585,1,0,0:0:0:0:
64,192,65683,1,0,0:0:0:0:
192,192,65683,1,0,0:0:0:0:
64,192,65879,1,0,0:0:0:0:
64,192,65977,1,0,0:0:0:0:
64,192,66075,1,0,0:0:0:0:
192,192,66075,1,0,0:0:0:0:
448,192,66075,1,0,0:0:0:0:
320,192,66468,1,0,0:0:0:0:
192,192,66468,1,0,0:0:0:0:
192,192,66664,1,0,0:0:0:0:
320,192,66664,1,0,0:0:0:0:
192,192,66860,1,0,0:0:0:0:
320,192,66860,1,0,0:0:0:0:
64,192,66958,1,0,0:0:0:0:
192,192,67056,1,0,0:0:0:0:
448,192,67056,1,0,0:0:0:0:
320,192,67154,1,0,0:0:0:0:
192,192,67252,1,0,0:0:0:0:
64,192,67252,1,0,0:0:0:0:
320,192,67350,1,0,0:0:0:0:
192,192,67448,1,0,0:0:0:0:
448,192,67448,1,0,0:0:0:0:
64,192,67546,1,0,0:0:0:0:
448,192,67644,1,0,0:0:0:0:
320,192,67644,1,0,0:0:0:0:
192,192,67840,1,0,0:0:0:0:
320,192,68036,1,0,0:0:0:0:
64,192,68036,1,0,0:0:0:0:
192,192,68102,1,0,0:0:0:0:
448,192,68167,1,0,0:0:0:0:
320,192,68232,1,0,0:0:0:0:
192,192,68428,1,0,0:0:0:0:
64,192,68428,1,0,0:0:0:0:
320,192,68526,1,0,0:0:0:0:
448,192,68624,1,0,0:0:0:0:
192,192,68624,1,0,0:0:0:0:
64,192,68722,1,0,0:0:0:0:
320,192,68820,1,0,0:0:0:0:
192,192,68820,1,0,0:0:0:0:
64,192,68919,1,0,0:0:0:0:
448,192,69017,1,0,0:0:0:0:
320,192,69017,1,0,0:0:0:0:
192,192,69213,1,0,0:0:0:0:
64,192,69213,1,0,0:0:0:0:
64,192,69409,1,0,0:0:0:0:
320,192,69409,1,0,0:0:0:0:
192,192,69605,1,0,0:0:0:0:
320,192,69605,1,0,0:0:0:0:
64,192,69801,1,0,0:0:0:0:
448,192,69801,1,0,0:0:0:0:
192,192,69997,1,0,0:0:0:0:
320,192,69997,1,0,0:0:0:0:
448,192,70095,1,0,0:0:0:0:
64,192,70193,1,0,0:0:0:0:
320,192,70193,1,0,0:0:0:0:
448,192,70389,1,0,0:0:0:0:
192,192,70389,1,0,0:0:0:0:
64,192,70585,1,0,0:0:0:0:
320,192,70585,1,0,0:0:0:0:
192,192,70683,1,0,0:0:0:0:
64,192,70781,1,0,0:0:0:0:
320,192,70781,1,0,0:0:0:0:
64,192,70977,1,0,0:0:0:0:
192,192,71173,1,0,0:0:0:0:
448,192,71173,1,0,0:0:0:0:
64,192,71370,1,0,0:0:0:0:
192,192,71566,1,0,0:0:0:0:
320,192,71566,1,0,0:0:0:0:
64,192,71664,1,0,0:0:0:0:
192,192,71762,1,0,0:0:0:0:
448,192,71762,1,0,0:0:0:0:
64,192,71860,1,0,0:0:0:0:
320,192,71860,1,0,0:0:0:0:
192,192,71958,1,0,0:0:0:0:
448,192,71958,1,0,0:0:0:0:
192,192,72154,1,0,0:0:0:0:
448,192,72350,1,0,0:0:0:0:
320,192,72350,1,0,0:0:0:0:
64,192,72350,1,0,0:0:0:0:
192,192,72546,1,0,0:0:0:0:
320,192,72742,1,0,0:0:0:0:
64,192,72742,1,0,0:0:0:0:
448,192,72938,1,0,0:0:0:0:
64,192,73134,1,0,0:0:0:0:
192,192,73134,1,0,0:0:0:0:
320,192,73232,1,0,0:0:0:0:
448,192,73330,1,0,0:0:0:0:
192,192,73428,1,0,0:0:0:0:
320,192,73526,1,0,0:0:0:0:
64,192,73526,1,0,0:0:0:0:
192,192,73624,1,0,0:0:0:0:
320,192,73722,1,0,0:0:0:0:
320,192,73919,1,0,0:0:0:0:
64,192,73919,1,0,0:0:0:0:
448,192,74115,1,0,0:0:0:0:
64,192,74311,1,0,0:0:0:0:
192,192,74311,1,0,0:0:0:0:
320,192,74507,1,0,0:0:0:0:
64,192,74703,1,0,0:0:0:0:
448,192,74703,1,0,0:0:0:0:
320,192,74801,1,0,0:0:0:0:
64,192,74899,1,0,0:0:0:0:
320,192,74997,1,0,0:0:0:0:
64,192,75095,1,0,0:0:0:0:
192,192,75095,1,0,0:0:0:0:
320,192,75193,1,0,0:0:0:0:
448,192,75291,1,0,0:0:0:0:
192,192,75487,1,0,0:0:0:0:
448,192,75487,1,0,0:0:0:0:
320,192,75683,1,0,0:0:0:0:
64,192,75879,1,0,0:0:0:0:
192,192,75879,1,0,0:0:0:0:
448,192,76075,1,0,0:0:0:0:
320,192,76271,1,0,0:0:0:0:
64,192,76271,1,0,0:0:0:0:
192,192,76370,1,0,0:0:0:0:
64,192,76468,1,0,0:0:0:0:
320,192,76566,1,0,0:0:0:0:
192,192,76664,1,0,0:0:0:0:
448,192,76664,1,0,0:0:0:0:
64,192,76762,1,0,0:0:0:0:
320,192,76860,1,0,0:0:0:0:
64,192,77056,1,0,0:0:0:0:
320,192,77056,1,0,0:0:0:0:
448,192,77154,1,0,0:0:0:0:
192,192,77252,1,0,0:0:0:0:
320,192,77350,1,0,0:0:0:0:
448,192,77448,1,0,0:0:0:0:
64,192,77448,1,0,0:0:0:0:
320,192,77546,1,0,0:0:0:0:
192,192,77644,1,0,0:0:0:0:
320,192,77742,1,0,0:0:0:0:
64,192,77840,1,0,0:0:0:0:
448,192,77840,1,0,0:0:0:0:
448,192,78036,1,0,0:0:0:0:
320,192,78134,1,0,0:0:0:0:
448,192,78232,1,0,0:0:0:0:
64,192,78232,1,0,0:0:0:0:
64,192,78428,1,0,0:0:0:0:
192,192,78526,1,0,0:0:0:0:
448,192,78624,1,0,0:0:0:0:
64,192,78624,1,0,0:0:0:0:
192,192,78820,1,0,0:0:0:0:
64,192,79017,1,0,0:0:0:0:
320,192,79017,1,0,0:0:0:0:
448,192,79213,1,0,0:0:0:0:
192,192,79409,1,0,0:0:0:0:
64,192,79409,1,0,0:0:0:0:
448,192,79507,1,0,0:0:0:0:
320,192,79605,1,0,0:0:0:0:
448,192,79703,1,0,0:0:0:0:
192,192,79801,1,0,0:0:0:0:
64,192,79801,1,0,0:0:0:0:
320,192,79899,1,0,0:0:0:0:
448,192,79997,1,0,0:0:0:0:
320,192,80193,1,0,0:0:0:0:
64,192,80193,1,0,0:0:0:0:
448,192,80389,1,0,0:0:0:0:
192,192,80585,1,0,0:0:0:0:
320,192,80585,1,0,0:0:0:0:
64,192,80781,1,0,0:0:0:0:
448,192,80977,1,0,0:0:0:0:
192,192,80977,1,0,0:0:0:0:
64,192,80977,1,0,0:0:0:0:
320,192,81173,1,0,0:0:0:0:
192,192,81271,1,0,0:0:0:0:
448,192,81370,1,0,0:0:0:0:
320,192,81370,1,0,0:0:0:0:
192,192,81468,1,0,0:0:0:0:
64,192,81566,1,0,0:0:0:0:
320,192,81566,1,0,0:0:0:0:
448,192,81762,1,0,0:0:0:0:
320,192,81762,1,0,0:0:0:0:
64,192,81762,1,0,0:0:0:0:
320,192,81958,1,0,0:0:0:0:
192,192,82154,1,0,0:0:0:0:
320,192,82154,1,0,0:0:0:0:
192,192,82350,1,0,0:0:0:0:
192,192,82546,1,0,0:0:0:0:
64,192,82546,1,0,0:0:0:0:
64,192,82742,1,0,0:0:0:0:
448,192,82938,1,0,0:0:0:0:
64,192,82938,1,0,0:0:0:0:
192,192,83134,1,0,0:0:0:0:
320,192,83134,1,0,0:0:0:0:
64,192,83330,1,0,0:0:0:0:
448,192,83330,1,0,0:0:0:0:
448,192,83624,1,0,0:0:0:0:
64,192,83624,1,0,0:0:0:0:
448,192,83919,1,0,0:0:0:0:
64,192,83919,1,0,0:0:0:0:
192,192,84115,1,0,0:0:0:0:
320,192,84115,1,0,0:0:0:0:
64,192,84311,1,0,0:0:0:0:
320,192,84409,1,0,0:0:0:0:
448,192,84507,1,0,0:0:0:0:
320,192,84899,1,0,0:0:0:0:
192,192,84899,1,0,0:0:0:0:
64,192,84899,1,0,0:0:0:0:
320,192,85095,1,0,0:0:0:0:
448,192,85193,1,0,0:0:0:0:
64,192,85291,1,0,0:0:0:0:
320,192,85291,1,0,0:0:0:0:
192,192,85487,1,0,0:0:0:0:
64,192,85683,1,0,0:0:0:0:
320,192,85683,1,0,0:0:0:0:
192,192,85781,1,0,0:0:0:0:
320,192,85879,1,0,0:0:0:0:
448,192,85977,1,0,0:0:0:0:
64,192,86075,1,0,0:0:0:0:
192,192,86075,1,0,0:0:0:0:
320,192,86271,1,0,0:0:0:0:
64,192,86468,1,0,0:0:0:0:
448,192,86468,1,0,0:0:0:0:
192,192,86664,1,0,0:0:0:0:
64,192,86860,1,0,0:0:0:0:
448,192,86860,1,0,0:0:0:0:
448,192,87056,1,0,0:0:0:0:
320,192,87154,1,0,0:0:0:0:
64,192,87252,1,0,0:0:0:0:
448,192,87252,1,0,0:0:0:0:
320,192,87350,1,0,0:0:0:0:
192,192,87350,1,0,0:0:0:0:
448,192,87448,1,0,0:0:0:0:
64,192,87448,1,0,0:0:0:0:
64,192,87644,1,0,0:0:0:0:
192,192,87644,1,0,0:0:0:0:
448,192,87742,1,0,0:0:0:0:
320,192,87742,1,0,0:0:0:0:
192,192,87840,1,0,0:0:0:0:
64,192,87840,1,0,0:0:0:0:
320,192,87938,1,0,0:0:0:0:
64,192,88036,1,0,0:0:0:0:
448,192,88036,1,0,0:0:0:0:
448,192,88232,1,0,0:0:0:0:
320,192,88298,1,0,0:0:0:0:
192,192,88363,1,0,0:0:0:0:
64,192,88428,1,0,0:0:0:0:
448,192,88428,1,0,0:0:0:0:
320,192,88624,1,0,0:0:0:0:
192,192,88624,1,0,0:0:0:0:
64,192,88820,1,0,0:0:0:0:
192,192,88820,1,0,0:0:0:0:
320,192,88919,1,0,0:0:0:0:
448,192,88919,1,0,0:0:0:0:
192,192,89017,1,0,0:0:0:0:
448,192,89115,1,0,0:0:0:0:
320,192,89115,1,0,0:0:0:0:
64,192,89213,1,0,0:0:0:0:
192,192,89311,1,0,0:0:0:0:
448,192,89311,1,0,0:0:0:0:
320,192,89409,1,0,0:0:0:0:
64,192,89409,1,0,0:0:0:0:
448,192,89507,1,0,0:0:0:0:
192,192,89507,1,0,0:0:0:0:
64,192,89605,1,0,0:0:0:0:
448,192,89605,1,0,0:0:0:0:
320,192,89703,1,0,0:0:0:0:
192,192,89703,1,0,0:0:0:0:
64,192,89801,1,0,0:0:0:0:
320,192,89801,1,0,0:0:0:0:
192,192,89899,1,0,0:0:0:0:
448,192,89899,1,0,0:0:0:0:
320,192,90095,1,0,0:0:0:0:
192,192,90095,1,0,0:0:0:0:
448,192,90193,1,0,0:0:0:0:
64,192,90193,1,0,0:0:0:0:
192,192,90291,1,0,0:0:0:0:
320,192,90291,1,0,0:0:0:0:
448,192,90389,1,0,0:0:0:0:
64,192,90389,1,0,0:0:0:0:
320,192,90487,1,0,0:0:0:0:
64,192,90585,1,0,0:0:0:0:
320,192,90683,1,0,0:0:0:0:
64,192,90781,1,0,0:0:0:0:
192,192,90781,1,0,0:0:0:0:
448,192,90781,1,0,0:0:0:0:
448,192,90977,1,0,0:0:0:0:
320,192,91075,1,0,0:0:0:0:
64,192,91173,1,0,0:0:0:0:
192,192,91173,1,0,0:0:0:0:
448,192,91271,1,0,0:0:0:0:
320,192,91370,1,0,0:0:0:0:
448,192,91566,1,0,0:0:0:0:
192,192,91566,1,0,0:0:0:0:
64,192,91566,1,0,0:0:0:0:
320,192,91762,1,0,0:0:0:0:
448,192,91860,1,0,0:0:0:0:
64,192,91958,1,0,0:0:0:0:
192,192,91958,1,0,0:0:0:0:
448,192,92056,1,0,0:0:0:0:
320,192,92154,1,0,0:0:0:0:
64,192,92350,1,0,0:0:0:0:
448,192,92350,1,0,0:0:0:0:
192,192,92546,1,0,0:0:0:0:
448,192,92644,1,0,0:0:0:0:
64,192,92742,1,0,0:0:0:0:
320,192,92742,1,0,0:0:0:0:
448,192,92938,1,0,0:0:0:0:
448,192,93134,1,0,0:0:0:0:
64,192,93134,1,0,0:0:0:0:
320,192,93330,1,0,0:0:0:0:
192,192,93428,1,0,0:0:0:0:
320,192,93526,1,0,0:0:0:0:
64,192,93526,1,0,0:0:0:0:
448,192,93624,1,0,0:0:0:0:
320,192,93722,1,0,0:0:0:0:
448,192,93820,1,0,0:0:0:0:
192,192,93919,1,0,0:0:0:0:
64,192,93919,1,0,0:0:0:0:
320,192,94017,1,0,0:0:0:0:
448,192,94017,1,0,0:0:0:0:
192,192,94115,1,0,0:0:0:0:
64,192,94115,1,0,0:0:0:0:
320,192,94213,1,0,0:0:0:0:
448,192,94213,1,0,0:0:0:0:
64,192,94311,1,0,0:0:0:0:
448,192,94311,1,0,0:0:0:0:
448,192,94507,1,0,0:0:0:0:
192,192,94507,1,0,0:0:0:0:
320,192,94572,1,0,0:0:0:0:
192,192,94637,1,0,0:0:0:0:
64,192,94703,1,0,0:0:0:0:
448,192,94703,1,0,0:0:0:0:
320,192,94899,1,0,0:0:0:0:
64,192,94899,1,0,0:0:0:0:
448,192,95095,1,0,0:0:0:0:
192,192,95095,1,0,0:0:0:0:
320,192,95193,1,0,0:0:0:0:
64,192,95193,1,0,0:0:0:0:
192,192,95291,1,0,0:0:0:0:
448,192,95389,1,0,0:0:0:0:
320,192,95389,1,0,0:0:0:0:
64,192,95487,1,0,0:0:0:0:
192,192,95585,1,0,0:0:0:0:
320,192,95585,1,0,0:0:0:0:
64,192,95683,1,0,0:0:0:0:
448,192,95683,1,0,0:0:0:0:
320,192,95781,1,0,0:0:0:0:
192,192,95781,1,0,0:0:0:0:
64,192,95879,1,0,0:0:0:0:
448,192,95879,1,0,0:0:0:0:
320,192,95977,1,0,0:0:0:0:
192,192,96075,1,0,0:0:0:0:
64,192,96075,1,0,0:0:0:0:
448,192,96173,1,0,0:0:0:0:
64,192,96271,1,0,0:0:0:0:
320,192,96271,1,0,0:0:0:0:
320,192,96468,1,0,0:0:0:0:
320,192,96566,1,0,0:0:0:0:
64,192,96664,1,0,0:0:0:0:
192,192,96664,1,0,0:0:0:0:
320,192,96860,1,0,0:0:0:0:
320,192,96958,1,0,0:0:0:0:
448,192,97056,1,0,0:0:0:0:
192,192,97056,1,0,0:0:0:0:
64,192,97056,1,0,0:0:0:0:
192,192,97252,1,0,0:0:0:0:
64,192,97252,1,0,0:0:0:0:
64,192,97448,1,0,0:0:0:0:
192,192,97448,1,0,0:0:0:0:
320,192,97448,1,0,0:0:0:0:
448,192,97546,1,0,0:0:0:0:
320,192,97644,1,0,0:0:0:0:
448,192,97742,1,0,0:0:0:0:
320,192,97840,1,0,0:0:0:0:
64,192,97840,1,0,0:0:0:0:
192,192,98036,1,0,0:0:0:0:
448,192,98134,1,0,0:0:0:0:
320,192,98232,1,0,0:0:0:0:
64,192,98232,1,0,0:0:0:0:
192,192,98330,1,0,0:0:0:0:
320,192,98428,1,0,0:0:0:0:
64,192,98624,1,0,0:0:0:0:
192,192,98624,1,0,0:0:0:0:
320,192,98820,1,0,0:0:0:0:
448,192,99017,1,0,0:0:0:0:
64,192,99017,1,0,0:0:0:0:
192,192,99213,1,0,0:0:0:0:
64,192,99409,1,0,0:0:0:0:
448,192,99409,1,0,0:0:0:0:
448,192,99605,1,0,0:0:0:0:
320,192,99703,1,0,0:0:0:0:
448,192,99801,1,0,0:0:0:0:
64,192,99801,1,0,0:0:0:0:
192,192,99899,1,0,0:0:0:0:
320,192,99899,1,0,0:0:0:0:
448,192,99997,1,0,0:0:0:0:
64,192,99997,1,0,0:0:0:0:
64,192,100193,1,0,0:0:0:0:
192,192,100193,1,0,0:0:0:0:
320,192,100291,1,0,0:0:0:0:
448,192,100291,1,0,0:0:0:0:
64,192,100389,1,0,0:0:0:0:
192,192,100389,1,0,0:0:0:0:
320,192,100487,1,0,0:0:0:0:
448,192,100585,1,0,0:0:0:0:
64,192,100585,1,0,0:0:0:0:
448,192,100781,1,0,0:0:0:0:
320,192,100847,1,0,0:0:0:0:
192,192,100912,1,0,0:0:0:0:
448,192,100977,1,0,0:0:0:0:
64,192,100977,1,0,0:0:0:0:
320,192,101173,1,0,0:0:0:0:
192,192,101173,1,0,0:0:0:0:
448,192,101271,1,0,0:0:0:0:
192,192,101370,1,0,0:0:0:0:
64,192,101370,1,0,0:0:0:0:
448,192,101468,1,0,0:0:0:0:
320,192,101468,1,0,0:0:0:0:
192,192,101566,1,0,0:0:0:0:
448,192,101664,1,0,0:0:0:0:
320,192,101664,1,0,0:0:0:0:
64,192,101762,1,0,0:0:0:0:
448,192,101860,1,0,0:0:0:0:
192,192,101860,1,0,0:0:0:0:
64,192,101958,1,0,0:0:0:0:
320,192,101958,1,0,0:0:0:0:
192,192,102056,1,0,0:0:0:0:
448,192,102056,1,0,0:0:0:0:
64,192,102154,1,0,0:0:0:0:
448,192,102154,1,0,0:0:0:0:
192,192,102252,1,0,0:0:0:0:
320,192,102252,1,0,0:0:0:0:
320,192,102350,1,0,0:0:0:0:
64,192,102350,1,0,0:0:0:0:
448,192,102448,1,0,0:0:0:0:
192,192,102448,1,0,0:0:0:0:
64,192,102546,1,0,0:0:0:0:
192,192,102644,1,0,0:0:0:0:
320,192,102644,1,0,0:0:0:0:
64,192,102742,1,0,0:0:0:0:
448,192,102742,1,0,0:0:0:0:
320,192,102840,1,0,0:0:0:0:
192,192,102840,1,0,0:0:0:0:
64,192,102938,1,0,0:0:0:0:
448,192,102938,1,0,0:0:0:0:
320,192,103036,1,0,0:0:0:0:
64,192,103134,1,0,0:0:0:0:
320,192,103232,1,0,0:0:0:0:
64,192,103330,1,0,0:0:0:0:
192,192,103330,1,0,0:0:0:0:
448,192,103330,1,0,0:0:0:0:
448,192,103526,1,0,0:0:0:0:
320,192,103624,1,0,0:0:0:0:
64,192,103722,1,0,0:0:0:0:
192,192,103722,1,0,0:0:0:0:
448,192,103820,1,0,0:0:0:0:
192,192,103919,1,0,0:0:0:0:
320,192,104017,1,0,0:0:0:0:
448,192,104115,1,0,0:0:0:0:
192,192,104115,1,0,0:0:0:0:
64,192,104115,1,0,0:0:0:0:
320,192,104311,1,0,0:0:0:0:
448,192,104409,1,0,0:0:0:0:
64,192,104507,1,0,0:0:0:0:
192,192,104507,1,0,0:0:0:0:
448,192,104605,1,0,0:0:0:0:
320,192,104703,1,0,0:0:0:0:
64,192,104899,1,0,0:0:0:0:
448,192,104899,1,0,0:0:0:0:
192,192,105095,1,0,0:0:0:0:
448,192,105193,1,0,0:0:0:0:
64,192,105291,1,0,0:0:0:0:
320,192,105291,1,0,0:0:0:0:
448,192,105487,1,0,0:0:0:0:
192,192,105683,1,0,0:0:0:0:
64,192,105683,1,0,0:0:0:0:
320,192,105879,1,0,0:0:0:0:
448,192,105977,1,0,0:0:0:0:
192,192,106075,1,0,0:0:0:0:
320,192,106075,1,0,0:0:0:0:
64,192,106173,1,0,0:0:0:0:
448,192,106271,1,0,0:0:0:0:
320,192,106369,1,0,0:0:0:0:
448,192,106468,1,0,0:0:0:0:
192,192,106468,1,0,0:0:0:0:
64,192,106566,1,0,0:0:0:0:
320,192,106566,1,0,0:0:0:0:
448,192,106664,1,0,0:0:0:0:
192,192,106664,1,0,0:0:0:0:
64,192,106762,1,0,0:0:0:0:
320,192,106762,1,0,0:0:0:0:
64,192,106860,1,0,0:0:0:0:
448,192,106860,1,0,0:0:0:0:
448,192,107056,1,0,0:0:0:0:
192,192,107056,1,0,0:0:0:0:
64,192,107121,1,0,0:0:0:0:
192,192,107186,1,0,0:0:0:0:
320,192,107252,1,0,0:0:0:0:
448,192,107252,1,0,0:0:0:0:
320,192,107448,1,0,0:0:0:0:
64,192,107448,1,0,0:0:0:0:
448,192,107644,1,0,0:0:0:0:
192,192,107644,1,0,0:0:0:0:
320,192,107742,1,0,0:0:0:0:
64,192,107742,1,0,0:0:0:0:
448,192,107840,1,0,0:0:0:0:
192,192,107840,1,0,0:0:0:0:
64,192,107938,1,0,0:0:0:0:
320,192,107938,1,0,0:0:0:0:
192,192,108036,1,0,0:0:0:0:
64,192,108134,1,0,0:0:0:0:
320,192,108232,1,0,0:0:0:0:
448,192,108232,1,0,0:0:0:0:
64,192,108330,1,0,0:0:0:0:
192,192,108330,1,0,0:0:0:0:
448,192,108428,1,0,0:0:0:0:
64,192,108428,1,0,0:0:0:0:
192,192,108624,1,0,0:0:0:0:
320,192,108624,1,0,0:0:0:0:
64,192,108820,1,0,0:0:0:0:
448,192,108820,1,0,0:0:0:0:
192,192,109017,1,0,0:0:0:0:
64,192,109017,1,0,0:0:0:0:
320,192,109115,1,0,0:0:0:0:
448,192,109115,1,0,0:0:0:0:
192,192,109213,1,0,0:0:0:0:
64,192,109213,1,0,0:0:0:0:
320,192,109262,1,0,0:0:0:0:
448,192,109311,1,0,0:0:0:0:
64,192,109360,1,0,0:0:0:0:
192,192,109409,1,0,0:0:0:0:
320,192,109507,1,0,0:0:0:0:
448,192,109605,1,0,0:0:0:0:
64,192,109605,1,0,0:0:0:0:
192,192,109703,1,0,0:0:0:0:
320,192,109703,1,0,0:0:0:0:
64,192,109801,1,0,0:0:0:0:
448,192,109801,1,0,0:0:0:0:
320,192,109899,1,0,0:0:0:0:
192,192,109899,1,0,0:0:0:0:
64,192,109997,1,0,0:0:0:0:
192,192,109997,1,0,0:0:0:0:
320,192,110095,1,0,0:0:0:0:
448,192,110095,1,0,0:0:0:0:
192,192,110193,1,0,0:0:0:0:
64,192,110193,1,0,0:0:0:0:
320,192,110291,1,0,0:0:0:0:
448,192,110291,1,0,0:0:0:0:
320,192,110585,1,0,0:0:0:0:
448,192,110585,1,0,0:0:0:0:
192,192,110683,1,0,0:0:0:0:
64,192,110683,1,0,0:0:0:0:
320,192,110781,1,0,0:0:0:0:
448,192,110781,1,0,0:0:0:0:
192,192,110879,1,0,0:0:0:0:
64,192,110879,1,0,0:0:0:0:
192,192,111173,1,0,0:0:0:0:
64,192,111173,1,0,0:0:0:0:
320,192,111271,1,0,0:0:0:0:
448,192,111271,1,0,0:0:0:0:
192,192,111369,1,0,0:0:0:0:
64,192,111369,1,0,0:0:0:0:
448,192,111566,1,0,0:0:0:0:
320,192,111566,1,0,0:0:0:0:
192,192,111664,1,0,0:0:0:0:
64,192,111664,1,0,0:0:0:0:
448,192,111762,1,0,0:0:0:0:
192,192,111762,1,0,0:0:0:0:
320,192,111762,1,8,0:0:0:0:
192,192,112023,1,0,0:0:0:0:
448,192,112023,1,0,0:0:0:0:
320,192,112023,1,0,0:0:0:0:
192,192,112285,1,0,0:0:0:0:
448,192,112285,1,0,0:0:0:0:
320,192,112285,1,0,0:0:0:0:
192,192,112415,1,0,0:0:0:0:
448,192,112415,1,0,0:0:0:0:
320,192,112415,1,0,0:0:0:0:
320,192,112546,1,8,0:0:0:0:
192,192,112546,1,0,0:0:0:0:
448,192,112546,1,0,0:0:0:0:
192,192,112807,1,0,0:0:0:0:
448,192,112807,1,0,0:0:0:0:
320,192,112807,1,0,0:0:0:0:
448,192,113069,1,0,0:0:0:0:
192,192,113069,1,0,0:0:0:0:
320,192,113069,1,0,0:0:0:0:
448,192,113200,1,0,0:0:0:0:
320,192,113200,1,0,0:0:0:0:
192,192,113200,1,0,0:0:0:0:
64,192,113330,1,0,0:0:0:0:
320,192,113330,1,0,0:0:0:0:
448,192,113330,1,0,0:0:0:0:
192,192,113330,1,0,0:0:0:0:
