osu file format v4

[General]
AudioFilename: Somebody To Love.mp3
AudioLeadIn: 0
AudioHash: 460723c76e9ace21d161385985612c29
PreviewTime: -1
SampleSet: Normal
EditorBookmarks: 20933,25163,30299,33049,36879,40180,47349,54224,55599,63299,70166,76081,91074,98388,104893,108146,123095,143036,151344,158881,181507,181839,188124,208600,222585,228837,239089

[Metadata]
Title:Somebody To Love
Artist:Queen
Creator:Nocky
Version:Hard

[Difficulty]
HPDrainRate:5
CircleSize:6
OverallDifficulty:8
SliderMultiplier: 0.999999999999999
SliderTickRate: 1

[Events]
2,55799,62399
2,92083,97459
2,123017,141836
2,151809,157681
2,178743,187374
3,0,255,128,128

[TimingPoints]
11340,269.355058203477,3,1,0
20924,275.099999999999,3,1,0
91070,271.055058203478,3,1,0
108140,276.955058203479,3,1,0
143030,274.355058203478,3,1,0
181822,262.587153457567,3,1,0
208600,258.987153457566,3,1,0
222580,266.287153457567,3,1,0
239080,273.108978637469,3,1,0

[HitObjects]
32,112,27272,1,0,
96,80,27521,1,0,
160,64,27854,1,0,
224,48,28147,1,0,
288,48,28429,1,0,
352,64,28694,1,0,
416,80,28959,1,0,
480,112,29199,2,2,B|480:112|224:336|240:320,1,300
192,336,30574,5,0,
128,336,30849,1,0,
64,336,31124,1,0,
64,272,31399,2,2,B|64:272|64:160,1,99.9999999999999
64,112,31949,1,0,
128,112,32224,1,0,
192,112,32499,1,4,
256,112,32774,5,0,
256,112,33049,1,0,
256,112,33324,1,0,
304,160,33599,1,0,
352,208,33874,1,0,
400,256,34149,2,4,B|400:256|259:316|96:256,2,300
400,192,36054,1,0,
400,128,36329,1,0,
400,64,36604,1,2,
336,64,36879,6,2,B|336:64|208:304|240:256,1,200
144,336,37980,1,0,
80,336,38255,1,0,
112,272,38805,1,0,
112,272,38943,1,0,
112,272,39080,2,4,B|112:272|112:64|272:32,1,300
320,32,40180,6,0,B|320:32|416:112,1,99.9999999999999
464,128,40731,1,0,
464,192,41006,1,0,
416,160,41281,1,0,
368,128,41556,1,0,
368,192,41831,1,0,
320,160,42106,2,2,B|320:160|208:160,1,99.9999999999999
220,160,42656,1,2,
220,160,42931,1,2,
256,272,43619,5,0,
256,272,43757,1,0,
256,352,44032,6,2,B|256:352|117:322|96:192,1,200
112,144,44857,2,2,B|112:144|123:56|262:26,1,200
352,32,45682,2,2,B|352:32|299:118|240:240,1,200
255,207,46508,1,4,
192,272,47333,5,0,
128,272,47608,1,0,
64,272,47883,1,0,
64,208,48158,1,0,
64,144,48433,1,0,
64,80,48709,1,0,
112,96,48984,1,0,
160,112,49259,1,0,
208,128,49534,1,0,
256,144,49809,1,4,
416,96,50359,5,0,
400,160,50634,2,2,B|400:160|160:160|176:160,1,200
160,224,51460,2,0,B|160:224|400:224|384:224,1,200
368,288,52285,2,2,B|368:288|128:288|176:288,1,200
160,352,53110,1,4,
256,192,54224,12,0,55599
96,96,63299,5,0,
160,128,63564,1,0,
224,160,63839,1,0,
288,160,64114,1,0,
352,128,64389,1,0,
400,96,64664,1,0,
448,48,64939,6,0,B|448:48|208:48,1,200
256,112,65765,1,4,
256,112,65902,1,4,
256,112,66040,1,4,
256,112,66177,1,4,
96,224,67003,5,0,
160,224,67278,1,0,
272,224,67690,1,0,
272,224,67828,1,0,
272,224,67966,2,2,B|272:224|384:224,1,99.9999999999999
368,288,68516,1,0,
304,288,68791,1,6,
192,288,69891,5,0,
144,240,70166,1,0,
96,288,70442,1,0,
48,240,70717,1,0,
48,240,70992,1,0,
48,176,71267,1,0,
48,112,71542,2,0,B|48:112|160:112,1,99.9999999999999
148,112,71955,1,4,
256,112,72367,5,0,
304,64,72642,1,0,
352,112,72917,1,0,
480,112,73468,5,0,
480,176,73743,1,0,
480,240,74018,1,0,
480,304,74293,1,0,
416,336,74843,2,2,B|416:336|240:208,1,200
254,218,75531,1,0,
254,218,75668,1,4,
80,64,76769,5,0,
80,64,76906,1,0,
80,64,77044,1,0,
256,64,77594,1,0,
256,64,77732,1,0,
256,64,77869,1,0,
256,144,78144,5,0,
256,144,78282,2,0,B|256:144|256:352,1,200
256,336,79107,1,4,
256,336,79245,1,4,
256,240,79932,5,0,
256,240,80070,1,0,
256,304,80345,2,2,B|256:304|96:144,1,200
144,96,81170,2,2,B|144:96|352:96,1,200
400,160,81996,2,2,B|400:160|240:320,1,200
208,352,82821,2,4,B|208:352|320:352|336:352,2,99.9999999999999
176,304,83646,5,0,
112,272,83921,1,0,
48,240,84196,1,0,
96,192,84472,1,4,
160,192,84747,1,4,
224,192,85022,1,4,
288,192,85297,1,0,
352,192,85572,1,0,
416,192,85847,1,0,
464,144,86122,1,4,
400,112,86397,1,4,
336,80,86672,1,4,
224,64,86947,6,2,B|224:64|64:-16|0:80|64:208|144:288|192:325|256:368,1,499.999999999999
288,352,88598,2,2,B|288:352|322:331|370:294|450:214|514:86|450:-10|290:70,1,499.999999999999
256,192,90524,12,0,91883
48,48,98659,1,0,
112,48,98930,1,0,
176,48,99337,2,0,B|176:48|265:26|338:91|296:167|304:192,1,200
304,160,100014,1,0,
304,224,100285,2,2,B|304:224|240:272|176:192,2,99.9999999999999
384,272,101370,5,0,
336,304,101641,2,2,B|336:304|224:304,1,99.9999999999999
176,304,102183,1,4,
112,304,102454,2,2,B|112:304|112:176,1,99.9999999999999
112,144,102996,1,4,
160,96,103267,2,2,B|160:96|272:96,1,99.9999999999999
320,96,103809,1,4,
368,144,104080,2,2,B|368:144|368:272,1,99.9999999999999
368,304,104622,1,4,
448,304,104893,5,0,
496,256,105164,1,0,
448,208,105435,1,0,
496,160,105706,1,4,
288,32,106520,5,0,
224,32,106791,1,0,
160,32,107062,1,0,
96,32,107333,2,4,B|96:32|57:105|57:179|96:256,1,200
128,272,108140,5,0,
192,304,108416,1,0,
192,240,108693,1,0,
256,272,108970,2,0,B|256:272|368:272,2,99.9999999999999
256,208,109801,5,0,
256,144,110078,1,0,
256,80,110355,1,0,
304,32,110632,1,4,
368,32,110909,1,4,
432,32,111186,1,4,
480,96,111463,6,2,B|480:96|352:96,2,99.9999999999999
480,160,112294,1,2,
432,192,112571,1,2,
480,224,112848,1,2,
480,288,113125,2,2,B|480:288|416:336|265:364|176:272,1,300
192,224,114233,1,4,
256,192,114509,1,4,
256,192,114786,12,0,118248
352,128,119772,2,6,B|352:128|248:55|144:144,1,200
160,208,120602,2,6,B|160:208|264:135|368:224,1,200
416,208,121433,2,6,B|416:208|272:368,1,200
224,352,122264,2,6,B|224:352|64:208,1,200
448,336,142972,6,0,B|448:336|240:336,1,200
176,336,143803,1,4,
128,288,144080,1,4,
80,336,144357,1,4,
80,32,145464,5,4,
128,80,145741,1,4,
176,32,146018,1,4,
256,32,146295,6,0,B|256:32|249:161|73:170|128:176,1,200
112,224,147126,1,0,
160,256,147403,1,0,
208,288,147680,1,0,
256,320,147957,2,0,B|256:320|271:246|339:183|432:192,1,200
384,128,148788,1,4,
336,96,149065,1,4,
288,64,149342,1,4,
240,32,149619,1,0,
256,192,150237,12,0,151609
256,192,158881,1,0,
256,128,159151,1,0,
256,64,159420,2,2,B|256:64|336:64|400:64|464:144,1,200
464,192,160363,1,0,
464,192,160498,1,0,
416,224,160767,1,0,
416,224,160902,1,0,
416,224,161036,1,0,
448,304,162114,6,2,B|448:304|240:304,1,200
176,304,162922,1,0,
176,304,163056,1,0,
112,304,163460,6,2,B|112:304|112:176,2,99.9999999999999
144,352,164269,1,0,
80,352,164538,1,0,
32,304,164807,1,0,
32,240,165077,1,0,
32,176,165346,1,0,
32,112,165615,5,0,
80,144,165885,1,6,
128,176,166154,1,0,
176,144,166423,1,0,
224,112,166693,1,6,
272,80,166962,1,0,
288,192,167770,6,0,B|288:192|400:192,2,99.9999999999999
224,192,168578,2,0,B|224:192|112:192,2,99.9999999999999
256,256,169386,6,2,B|256:256|256:368,4,99.9999999999999
224,208,170733,5,0,
288,208,171002,1,0,
320,144,171272,1,4,
256,128,171541,1,4,
192,144,171810,1,4,
128,144,172080,5,0,
128,208,172349,1,0,
128,208,172484,1,0,
128,208,172619,1,0,
128,208,172753,2,0,B|128:208|272:304,1,150
320,288,173427,5,0,
384,288,173696,1,0,
352,224,173965,1,0,
384,160,174235,1,4,
320,160,174504,1,4,
256,128,175312,5,0,
224,48,175581,2,6,B|224:48|36:-27|9:39|38:147|79:304|50:333|435:365|237:341|255:351|298:318|351:272|505:306|500:89|363:124|585:-5|375:-38|272:48,1,1100
208,32,188124,5,0,
304,32,188911,1,0,
256,96,189437,1,0,
256,160,189699,1,0,
256,224,189962,1,0,
256,288,190224,1,0,
256,352,190487,2,4,B|256:352|353:332|429:262|448:208,1,200
480,192,191275,5,6,
480,32,192062,1,6,
336,32,192587,1,0,
304,80,192850,1,0,
272,32,193112,1,0,
240,80,193375,1,0,
208,32,193638,2,2,B|208:32|96:32,2,99.9999999999999
176,80,194426,5,2,
128,192,195213,1,2,
80,336,195739,1,0,
128,304,196001,1,0,
176,336,196264,1,0,
224,304,196526,1,0,
272,336,196789,2,2,B|272:336|352:256,2,99.9999999999999
336,352,197577,5,2,
336,176,198364,1,2,
144,176,198890,1,0,
176,128,199152,1,0,
224,96,199415,1,0,
272,80,199677,1,0,
320,64,199940,2,2,B|320:64|480:224,1,200
464,256,200728,5,0,
416,288,200990,1,0,
368,320,201253,1,0,
320,352,201516,1,4,
192,352,202041,1,0,
144,320,202303,1,0,
96,288,202566,1,0,
48,256,202828,1,4,
48,192,203091,2,0,B|48:192|256:192,1,200
304,192,203879,5,0,
352,160,204141,1,0,
400,192,204404,1,0,
448,160,204667,1,4,
448,32,205192,1,0,
400,64,205454,1,0,
352,32,205717,1,0,
304,64,205980,1,0,
240,64,206242,6,2,B|240:64|144:64,1,99.9999999999999
80,96,206767,1,2,
80,160,207030,2,2,B|80:160|80:256,1,99.9999999999999
128,304,207555,1,2,
192,304,207818,2,2,B|192:304|304:304,1,99.9999999999999
352,304,208343,1,2,
416,304,208605,5,2,
448,256,208858,1,0,
384,256,209117,1,0,
320,256,209376,1,2,
192,256,209894,1,2,
128,256,210153,1,2,
64,256,210412,1,2,
64,256,210542,1,0,
64,256,210671,1,2,
96,192,210930,2,2,B|96:192|17:154|17:71|112:32,1,200
160,80,211707,5,4,
208,96,211966,1,0,
256,112,212225,1,0,
304,112,212484,1,4,
352,96,212743,1,0,
400,80,213002,1,4,
400,128,213261,1,4,
352,144,213520,1,4,
304,160,213779,1,4,
256,160,214038,1,4,
192,160,214297,2,6,B|192:160|160:160,2,50
256,96,214815,6,0,B|256:96|32:96,1,200
48,160,215592,2,0,B|48:160|48:272,2,99.9999999999999
112,208,216369,2,2,B|112:208|224:208,1,99.9999999999999
256,256,216887,1,0,
320,304,217146,2,0,B|320:304|320:96,1,200
336,48,217923,5,0,
384,80,218182,1,0,
416,128,218441,1,0,
432,176,218700,2,0,B|432:176|410:275|357:314|272:320,1,200
256,336,219477,5,0,
208,304,219743,1,0,
160,272,220009,1,0,
112,240,220275,1,0,
112,192,220542,1,0,
160,224,220808,1,0,
208,256,221074,1,0,
256,288,221341,1,0,
256,240,221607,1,0,
208,208,221873,1,0,
256,32,222580,5,0,
304,48,222846,1,0,
352,64,223112,1,0,
400,80,223378,1,0,
400,128,223645,1,0,
352,112,223911,1,0,
304,96,224177,1,0,
256,80,224444,1,0,
256,128,224710,1,0,
256,176,224976,1,4,
256,256,225775,5,0,
256,256,225908,1,0,
256,192,226174,1,4,
256,192,228704,12,0,238956
