osu file format v5

[General]
AudioFilename: Queen_-_Don't_Stop_Me_Now.mp3
AudioLeadIn: 0
PreviewTime: 65766
Countdown: 0
SampleSet: Normal
StackLeniency: 0.7
Mode: 0
LetterboxInBreaks: 0
SkinPreference:EliteBeatOsu

[Editor]
Bookmarks: 8414,13253
DistanceSpacing: 1
BeatDivisor: 4
GridSize: 8

[Metadata]
Title:Don't Stop Me Now
Artist:Queen
Creator:m980
Version:Sweatin'
Source:
Tags:

[Difficulty]
HPDrainRate:6
CircleSize:3
OverallDifficulty:4
SliderMultiplier:2
SliderTickRate:2

[Events]
//Background and Video events
0,0,"bg.jpg"
//Break Periods
2,52327,64853
2,89111,95490
2,133772,149185
//Storyboard Layer 0 (Background)
//Storyboard Layer 1 (Fail)
//Storyboard Layer 2 (Pass)
//Storyboard Layer 3 (Foreground)
//Storyboard Sound Samples
//Background Colour Transformations
3,100,163,162,255

[TimingPoints]
35318,387.096774193548,4,1,1,80,1,0
35898,-100,4,2,1,80,0,0
36382,-100,4,1,1,80,0,0
36576,-100,4,2,1,80,0,0
36769,-100,4,1,1,80,0,0
37737,-100,4,2,1,80,0,0
38124,-100,4,1,1,80,0,0
38801,-100,4,2,1,80,0,0
39092,-100,4,1,1,80,0,0
40350,-100,4,2,1,80,0,0
40640,-100,4,1,1,80,0,0
41898,-100,4,2,2,80,0,0
42672,-100,4,1,1,80,0,0
43640,-100,4,2,1,80,0,0
44317,-100,4,1,1,80,0,0
44995,-100,4,2,1,80,0,0
45866,-100,4,1,1,80,0,0
46127,387.096774193548,4,1,1,80,1,0
47192,-100,4,1,1,80,0,0
47869,-100,4,2,1,80,0,0
48160,-100,4,1,1,80,0,0
48450,-100,4,2,1,80,0,0
48740,-100,4,1,1,80,0,0
49031,-100,4,2,1,80,0,0
49321,-100,4,1,1,80,0,0
51160,-100,4,1,2,80,0,0
63091,382.165605095541,4,1,1,80,1,0
66173,382.409177820268,4,1,1,80,1,0
66937,-100,4,2,1,80,0,0
67702,-100,4,1,1,80,0,0
68085,-100,4,2,1,80,0,0
68371,-100,4,1,2,80,0,0
68658,-100,4,1,1,80,0,0
68945,-100,4,2,1,80,0,0
69136,-100,4,1,1,80,0,0
69805,-100,4,2,1,80,0,0
70666,-100,4,1,1,80,0,0
70953,-100,4,2,1,80,0,0
71239,-100,4,1,1,80,0,0
71909,-100,4,2,1,80,0,0
72195,-100,4,1,1,80,0,0
73056,-100,4,2,1,80,0,0
73821,-100,4,1,1,80,0,0
74203,-100,4,2,1,80,0,0
74490,-100,4,1,2,80,0,0
74777,-100,4,1,1,80,0,0
75064,-100,4,2,1,80,0,0
75255,-100,4,1,1,80,0,0
75924,-100,4,2,1,80,0,0
76784,-100,4,1,1,80,0,0
77071,-100,4,2,1,80,0,0
77358,-100,4,1,1,80,0,0
78027,-100,4,2,1,80,0,0
78314,-100,4,1,1,80,0,0
78601,-100,4,2,1,80,0,0
78888,-100,4,1,1,80,0,0
79557,-100,4,2,1,80,0,0
79844,-100,4,1,1,80,0,0
80035,-100,4,2,1,80,0,0
80417,-100,4,1,1,80,0,0
81182,-100,4,2,1,100,0,0
81373,-100,4,1,1,100,0,0
81660,-100,4,2,1,80,0,0
81947,-100,4,1,1,80,0,0
82616,-100,4,2,1,80,0,0
83477,-100,4,1,1,80,0,0
84146,-100,4,2,1,80,0,0
84433,-100,4,1,1,80,0,0
85006,-100,4,2,1,80,0,0
85197,-100,4,1,1,80,0,0
85962,-100,4,1,2,80,0,0
86249,-100,4,1,1,80,0,0
87014,-100,4,1,2,80,0,0
87396,-100,4,1,1,80,0,0
87970,-100,4,2,2,80,0,0
96820,387.096774193548,4,1,1,80,1,0
97400,-100,4,2,1,80,0,0
97884,-100,4,1,1,80,0,0
98078,-100,4,2,1,80,0,0
98271,-100,4,1,1,80,0,0
99529,-100,4,2,1,80,0,0
100207,-100,4,1,1,80,0,0
100690,-100,4,2,1,80,0,0
100981,-100,4,1,1,80,0,0
101658,-100,4,2,1,80,0,0
101949,-100,4,1,1,80,0,0
102239,-100,4,2,1,80,0,0
102529,-100,4,1,1,80,0,0
102820,-100,4,2,1,80,0,0
103110,-100,4,1,1,80,0,0
103400,-100,4,2,1,100,0,0
103690,-100,4,1,1,100,0,0
104174,-100,4,2,1,80,0,0
104536,383.386581469649,4,2,1,80,1,0
104949,-100,4,2,2,80,0,0
105294,-100,4,1,1,100,0,0
107028,-100,4,2,1,80,0,0
107315,-100,4,1,1,80,0,0
107795,-100,4,2,1,80,0,0
108082,-100,4,1,1,80,0,0
108561,-100,4,2,1,80,0,0
109616,-100,4,1,1,80,0,0
109903,-100,4,2,1,80,0,0
110478,-100,4,1,2,80,0,0
110766,-100,4,2,1,80,0,0
110957,-100,4,1,1,80,0,0
112587,-100,4,2,1,80,0,0
113641,-100,4,2,2,80,0,0
113833,-100,4,2,1,80,0,0
114025,-100,4,1,1,80,0,0
114312,-100,4,2,1,80,0,0
114600,-100,4,1,1,80,0,0
115654,-100,4,2,1,80,0,0
115941,-100,4,1,1,80,0,0
116133,-100,4,2,1,80,0,0
116708,-100,4,1,1,80,0,0
116809,380.469245402663,4,1,1,80,1,0
117665,-100,4,2,1,80,0,0
118235,-100,4,1,1,80,0,0
118342,384.615384615385,4,1,1,80,1,0
121122,-100,4,2,1,80,0,0
121313,-100,4,2,2,80,0,0
121403,383.141713554987,4,2,2,80,1,0
121792,-100,4,2,1,80,0,0
122080,-100,4,2,2,80,0,0
122558,-100,4,2,1,80,0,0
122846,-100,4,2,2,80,0,0
123229,-100,4,1,1,80,0,0
123516,-100,4,2,1,80,0,0
123899,-100,4,1,2,80,0,0
124187,-100,4,2,1,80,0,0
124386,-100,4,2,2,80,0,0
124482,380.228136882129,4,2,2,80,1,0
124862,-100,4,2,1,80,0,0
125147,-100,4,2,2,80,0,0
125622,-100,4,1,1,80,0,0
126383,-100,4,1,2,80,0,0
126953,-100,4,2,1,80,0,0
127428,-100,4,2,2,80,0,0
127904,-100,4,2,1,80,0,0
128189,-100,4,2,2,80,0,0
128664,-100,4,2,1,80,0,0
128949,-100,4,1,1,80,0,0
129995,-100,4,2,2,80,0,0
130280,-100,4,2,1,80,0,0
130470,-100,4,2,2,80,0,0
130945,-100,4,2,1,80,0,0
131231,-100,4,2,2,80,0,0
131706,-100,4,2,1,100,0,0
131987,-100,4,2,2,80,0,0
132081,375,4,2,2,80,1,0
132831,-100,4,1,1,80,0,0
133393,-100,4,2,2,80,0,0
150268,-100,4,1,1,100,0,0
150491,383.385605095541,4,1,1,80,1,0
150683,-100,4,2,1,80,0,0
151258,-100,4,1,1,80,0,0
152983,-100,4,2,1,80,0,0
153654,-100,4,1,1,80,0,0
154325,-100,4,2,1,80,0,0
154900,-100,4,1,2,80,0,0
155188,-100,4,2,1,80,0,0
155379,-100,4,1,1,80,0,0
157009,-100,4,2,1,80,0,0
158063,-100,4,2,2,80,0,0
158255,-100,4,2,1,80,0,0
158446,-100,4,1,1,80,0,0
158734,-100,4,2,1,80,0,0
159022,-100,4,1,1,80,0,0
160076,-100,4,2,1,80,0,0
160363,-100,4,1,1,80,0,0
160555,-100,4,2,1,80,0,0
161897,-100,4,1,1,80,0,0
162568,-100,4,2,1,80,0,0
163239,-100,4,1,1,80,0,0
163526,-100,4,2,1,80,0,0
163814,-100,4,1,1,80,0,0
164101,-100,4,1,1,100,0,0
164291,383.136581469648,4,1,1,80,1,0
165057,-100,4,2,1,80,0,0
165824,-100,4,1,1,80,0,0
166207,-100,4,2,1,80,0,0
166494,-100,4,1,2,80,0,0
166781,-100,4,1,1,80,0,0
167069,-100,4,2,1,80,0,0
167260,-100,4,1,1,80,0,0
167931,-100,4,2,1,80,0,0
168793,-100,4,1,1,80,0,0
169080,-100,4,2,1,80,0,0
169368,-100,4,1,1,80,0,0
170038,-100,4,2,1,80,0,0
170325,-100,4,1,1,80,0,0
171188,-100,4,2,1,80,0,0
171954,-100,4,1,1,80,0,0
172337,-100,4,2,1,80,0,0
172624,-100,4,1,2,80,0,0
172912,-100,4,1,1,80,0,0
173199,-100,4,2,1,80,0,0
173391,-100,4,1,1,80,0,0
174061,-100,4,2,1,80,0,0
174923,-100,4,1,1,80,0,0
175210,-100,4,2,1,80,0,0
175498,-100,4,1,1,80,0,0
176168,-100,4,2,1,80,0,0
176456,-100,4,1,1,80,0,0
176743,-100,4,2,1,80,0,0
177030,-100,4,1,1,80,0,0
177701,-100,4,2,1,80,0,0
177988,-100,4,1,1,80,0,0
178180,-100,4,2,1,80,0,0
178563,-100,4,1,1,80,0,0
179329,-100,4,2,1,100,0,0
179510,-100,4,1,1,100,0,0
179606,382.165605095541,4,1,1,80,1,0
179797,-100,4,2,1,80,0,0
180083,-100,4,1,1,80,0,0
180752,-100,4,2,1,80,0,0
181612,-100,4,1,1,80,0,0
182472,-100,4,2,2,80,0,0

[Colours]
Combo1 : 240,32,0
Combo2 : 240,160,0
Combo3 : 0,232,24
Combo4 : 64,96,240

[HitObjects]
160,50,35317,6,0,B|256:2|360:53,2,200,2|0|2
93,87,36285,1,0
49,149,36479,1,8
34,224,36672,1,0
62,295,36866,2,0,B|174:359|334:199|454:287,1,400,6|0
485,217,37834,1,0
426,169,38027,1,0
352,152,38221,2,0,B|280:104|232:192|148:147,1,200,8|0
256,368,38995,5,0
176,336,39188,2,0,B|224:264|292:264|341:342,1,200,2|0
409,359,39769,1,10
255,208,40156,1,0
103,359,40543,1,0
47,306,40737,1,2
35,230,40930,1,0
21,56,41317,2,0,B|77:-64|413:184|499:45,1,500,6|2
352,50,43059,6,0,B|256:2|152:53,2,200,2|0|2
419,87,44027,1,0
463,149,44221,1,0
450,224,44414,2,0,B|338:288|178:128|58:216,1,400,14|0
23,278,45382,1,2
14,354,45576,1,0
85,325,45769,1,0
160,342,45963,2,0,B|232:294|280:382|364:337,1,200,10|0
352,72,47094,5,0
352,72,47288,1,8
208,72,47675,2,0,B|80:72|80:192,1,200,6|0
156,192,48256,2,0,B|364:192,1,200,6|0
431,193,48836,2,0,B|432:312|303:311,1,200,6|0
224,312,49417,2,0,B|120:328|19:272,1,200,6|0
0,208,49997,1,10
0,208,50191,1,0
20,55,50578,2,0,B|99:184|435:-64|491:56,1,500,6|6
256,16,66173,5,6
328,192,66746,1,8
176,280,67129,1,2
328,368,67511,2,0,B|440:368|504:264,2,200,4|0|0
256,336,68467,5,8
256,128,68849,1,10
256,128,69041,1,0
184,101,69232,2,0,B|72:93|-8:152,2,200,0|0|2
408,48,70570,5,0
443,121,70761,2,0,B|516:210|448:304,1,200,2|0
378,353,71335,2,0,C|363:306|403:218|384:171,2,200,2|8|0
256,368,72291,5,6
184,192,72865,1,8
336,104,73247,1,2
184,16,73629,2,0,B|72:16|8:120,2,200,4|0|0
256,48,74586,5,2
256,256,74968,1,10
256,256,75159,1,0
328,283,75350,2,0,B|440:291|520:232,2,200,0|0|2
104,336,76689,5,0
64,264,76880,2,0,C|48:216|88:128|64:72,1,200,2|0
128,31,77454,2,0,B|201:120|132:217,2,200,2|8|0
336,24,78410,6,0,B|440:24|496:144,1,200,6|0
472,208,78983,1,2
472,368,79366,1,2
344,288,79748,1,0
312,216,79939,5,10
256,160,80130,1,0
200,216,80322,1,0
144,160,80513,2,0,B|88:215|130:302|212:299,2,200,2|6|0
176,24,81469,6,0,B|72:24|16:144,1,200,10|0
40,208,82042,1,6
40,368,82425,1,2
168,288,82807,1,0
200,216,82999,5,2
256,160,83190,1,0
312,216,83381,1,0
368,160,83572,2,0,B|424:215|382:302|300:299,1,200,2|6
256,16,84337,5,0
256,16,84528,1,2
256,160,84911,1,8
256,160,85102,1,0
256,160,85293,1,0
256,160,85484,1,2
256,296,85867,1,0
184,264,86058,2,0,B|160:376|256:400|352:376|328:264,3,300,12|6|12|6
256,72,88352,1,8
352,50,96820,6,0,B|256:2|152:53,2,200,2|0|2
419,87,97787,1,0
463,149,97981,1,8
478,224,98174,1,0
450,295,98368,2,0,B|338:359|178:199|58:287,1,400,6|0
23,217,99336,2,0,B|116:160|234:197,1,200,8|0
290,212,99916,1,2
364,232,100110,1,0
344,158,100303,1,6
256,368,100884,5,0
256,368,101078,1,8
356,267,101465,2,0,B|148:267,1,200,6|0
156,192,102045,2,0,B|364:192,1,200,6|0
356,117,102626,2,0,B|148:117,1,200,6|0
156,42,103207,2,0,B|364:42,1,200,6|0
424,75,103787,1,10
464,139,103981,1,0
450,295,104368,2,0,B|338:359|178:199|58:287,1,400,4|8
104,72,105494,6,0,B|256:24|416:72,1,300,10|6
256,144,106452,1,0
160,232,106836,2,0,B|256:272|360:232,1,200,2|0
401,298,107411,2,0,B|257:362|97:290,1,300,10|0
80,224,108178,1,2
104,30,108944,5,0
156,86,109136,2,0,B|372:86,1,200,2|0
408,30,109711,1,2
256,171,110095,5,8
256,171,110286,1,8
256,264,110670,5,8
320,312,110861,1,0
256,360,111053,1,0
120,360,111436,1,2
56,312,111628,1,0
16,192,112012,2,0,B|16:64|152:64,2,200,8|2|0
88,232,112970,5,2
256,216,113353,1,8
320,168,113545,5,0
256,120,113737,1,2
192,72,113928,1,0
256,24,114120,1,0
392,24,114504,1,0
456,72,114696,1,2
496,192,115079,2,0,B|496:320|360:320,2,200,10|2|0
416,208,116037,1,10
336,224,116229,1,0
256,232,116420,1,8
176,224,116612,1,0
216,112,116809,5,8
296,112,116999,1,0
352,48,117189,2,0,B|256:0|144:56,1,200,2|6
100,105,117760,1,0
83,182,117950,1,0
115,254,118140,1,2
256,344,118342,6,0,B|360:392|456:344,2,200,4|0|0
384,216,119495,1,8
256,96,119880,2,0,B|160:56|56:96,2,200,4|0|0
128,216,121034,1,8
72,272,121226,5,0
128,328,121403,1,4
184,272,121594,1,0
328,272,121977,1,0
384,328,122169,1,4
440,272,122360,1,0
184,136,122743,5,0
256,168,122935,1,4
328,136,123127,1,0
352,60,123318,2,0,B|256:12|152:63,1,200,8|2
256,248,124084,1,8
184,216,124276,5,0
136,280,124482,1,4
184,344,124672,1,0
328,216,125052,1,0
376,280,125242,1,4
328,344,125432,1,0
64,112,125812,6,0,B|256:16|472:120,1,400,4|2
440,328,127333,5,0
384,272,127523,1,4
328,328,127713,1,0
184,328,128094,1,0
128,272,128284,1,4
72,328,128474,1,0
256,368,128854,5,0
256,288,129044,1,8
352,176,129424,1,0
152,136,129805,1,0
256,24,130185,1,2
352,64,130375,5,0
408,120,130565,1,4
352,176,130755,1,0
160,176,131135,1,0
104,120,131326,1,4
160,64,131516,1,0
16,280,131896,5,0
32,360,132081,2,2,C|240:312|112:248|336:176,1,600,4|6
472,40,133581,1,8
160,336,150491,6,0,B|256:384|368:328,1,200,6|0
256,280,151066,1,2
256,144,151449,1,2
160,40,151832,2,0,B|256:-8|360:40,2,200,10|8|6
488,32,153366,5,0
432,88,153558,1,2
488,144,153749,2,0,B|488:352,1,200,0|6
256,192,154516,5,8
256,192,154708,1,8
216,368,155091,5,8
136,368,155283,1,0
176,296,155475,1,0
96,176,155858,1,2
96,176,156050,1,0
184,48,156433,2,0,B|80:48|-8:144,2,200,8|2|0
256,96,157391,5,2
224,168,157583,1,8
288,216,157775,1,8
256,288,157967,1,0
296,368,158158,5,2
376,368,158350,1,0
336,296,158542,1,0
416,176,158925,1,0
416,176,159117,1,2
328,48,159500,2,0,B|440:48|512:136,2,200,10|2|0
256,16,160459,1,8
256,96,160650,1,0
256,176,160842,1,2
256,256,161034,1,0
360,304,161225,5,0
296,352,161417,1,8
216,352,161609,1,8
152,304,161800,1,0
111,238,161992,2,0,B|7:198|-1:78,2,200,2|12|2
256,80,163142,1,0
256,80,163334,1,6
256,224,163717,1,0
256,224,163909,1,6
256,368,164291,5,6
184,192,164865,1,8
336,104,165248,1,2
184,16,165631,2,0,B|72:16|8:120,2,200,4|0|0
256,48,166589,5,8
256,256,166972,1,10
256,256,167164,1,0
328,283,167356,2,0,B|440:291|520:232,2,200,0|0|2
104,336,168697,5,0
69,262,168888,2,0,B|-4:173|64:79,1,200,2|0
134,30,169463,2,0,C|149:78|109:166|128:212,2,200,2|8|0
256,16,170421,5,6
328,192,170995,1,8
176,280,171379,1,2
328,368,171762,2,0,B|440:368|504:264,2,200,4|0|0
256,336,172720,5,2
256,128,173103,1,10
256,128,173294,1,0
184,101,173486,2,0,B|72:93|-8:152,2,200,0|0|2
408,48,174827,5,0
448,120,175018,2,0,C|464:168|424:256|448:312,1,200,2|0
384,353,175592,2,0,B|311:264|380:167,2,200,2|8|0
176,360,176551,6,0,B|72:360|16:240,1,200,6|0
40,176,177126,1,2
40,16,177509,1,2
168,96,177892,1,0
200,168,178083,5,10
256,224,178275,1,0
312,168,178467,1,0
368,224,178658,2,0,B|424:169|382:82|300:85,2,200,2|6|0
336,360,179606,6,0,B|440:360|496:240,1,200,10|0
472,176,180179,1,6
472,16,180561,1,2
344,96,180943,1,0
312,168,181134,5,2
256,224,181325,1,0
200,168,181516,1,0
144,224,181707,2,0,B|88:169|130:82|212:85,1,200,2|6
256,192,182663,12,8,187153
