osu file format v5

[General]
AudioFilename: Queen_-_Don't_Stop_Me_Now.mp3
AudioLeadIn: 0
PreviewTime: 65766
Countdown: 0
SampleSet: Normal
StackLeniency: 0.7
Mode: 0
LetterboxInBreaks: 0
SkinPreference:EliteBeatOsu

[Editor]
Bookmarks: 8414,13253
DistanceSpacing: 1
BeatDivisor: 4
GridSize: 8

[Metadata]
Title:Don't Stop Me Now
Artist:Queen
Creator:m980
Version:Hard ROCK!
Source:
Tags:

[Difficulty]
HPDrainRate:8
CircleSize:4
OverallDifficulty:8
SliderMultiplier:2
SliderTickRate:2

[Events]
//Background and Video events
0,0,"bg.jpg"
//Break Periods
2,52327,64853
2,89111,95490
2,133772,149185
//Storyboard Layer 0 (Background)
//Storyboard Layer 1 (Fail)
//Storyboard Layer 2 (Pass)
//Storyboard Layer 3 (Foreground)
//Storyboard Sound Samples
//Background Colour Transformations
3,100,163,162,255

[TimingPoints]
35318,387.096774193548,4,1,1,80,1,0
35898,-100,4,2,1,80,0,0
36382,-100,4,1,1,80,0,0
36576,-100,4,2,1,80,0,0
36769,-100,4,1,1,80,0,0
37737,-100,4,2,1,80,0,0
38124,-100,4,1,1,80,0,0
38801,-100,4,2,1,80,0,0
39092,-100,4,1,1,80,0,0
40350,-100,4,2,1,80,0,0
40640,-100,4,1,1,80,0,0
41898,-100,4,2,2,80,0,0
42672,-100,4,1,1,80,0,0
43640,-100,4,2,1,80,0,0
44317,-100,4,1,1,80,0,0
44995,-100,4,2,1,80,0,0
45866,-100,4,1,1,80,0,0
46127,387.096774193548,4,1,1,80,1,0
47192,-100,4,1,1,80,0,0
47869,-100,4,2,1,80,0,0
48160,-100,4,1,1,80,0,0
48450,-100,4,2,1,80,0,0
48740,-100,4,1,1,80,0,0
49031,-100,4,2,1,80,0,0
49321,-100,4,1,1,80,0,0
51160,-100,4,1,2,80,0,0
63091,382.165605095541,4,1,1,80,1,0
66173,382.409177820268,4,1,1,80,1,0
66937,-100,4,2,1,80,0,0
67702,-100,4,1,1,80,0,0
68085,-100,4,2,1,80,0,0
68371,-100,4,1,2,80,0,0
68658,-100,4,1,1,80,0,0
68945,-100,4,2,1,80,0,0
69136,-100,4,1,1,80,0,0
69805,-100,4,2,1,80,0,0
70666,-100,4,1,1,80,0,0
70953,-100,4,2,1,80,0,0
71239,-100,4,1,1,80,0,0
71909,-100,4,2,1,80,0,0
72195,-100,4,1,1,80,0,0
73056,-100,4,2,1,80,0,0
73821,-100,4,1,1,80,0,0
74203,-100,4,2,1,80,0,0
74490,-100,4,1,2,80,0,0
74777,-100,4,1,1,80,0,0
75064,-100,4,2,1,80,0,0
75255,-100,4,1,1,80,0,0
75924,-100,4,2,1,80,0,0
76784,-100,4,1,1,80,0,0
77071,-100,4,2,1,80,0,0
77358,-100,4,1,1,80,0,0
78027,-100,4,2,1,80,0,0
78314,-100,4,1,1,80,0,0
78601,-100,4,2,1,80,0,0
78888,-100,4,1,1,80,0,0
79557,-100,4,2,1,80,0,0
79844,-100,4,1,1,80,0,0
80035,-100,4,2,1,80,0,0
80417,-100,4,1,1,80,0,0
81182,-100,4,2,1,100,0,0
81373,-100,4,1,1,100,0,0
81660,-100,4,2,1,80,0,0
81947,-100,4,1,1,80,0,0
82616,-100,4,2,1,80,0,0
83477,-100,4,1,1,80,0,0
84146,-100,4,2,1,80,0,0
84433,-100,4,1,1,80,0,0
85006,-100,4,2,1,80,0,0
85197,-100,4,1,1,80,0,0
85962,-100,4,1,2,80,0,0
86249,-100,4,1,1,80,0,0
87014,-100,4,1,2,80,0,0
87396,-100,4,1,1,80,0,0
87970,-100,4,2,2,80,0,0
96820,387.096774193548,4,1,1,80,1,0
97400,-100,4,2,1,80,0,0
97884,-100,4,1,1,80,0,0
98078,-100,4,2,1,80,0,0
98271,-100,4,1,1,80,0,0
99529,-100,4,2,1,80,0,0
100207,-100,4,1,1,80,0,0
100690,-100,4,2,1,80,0,0
100981,-100,4,1,1,80,0,0
101658,-100,4,2,1,80,0,0
101949,-100,4,1,1,80,0,0
102239,-100,4,2,1,80,0,0
102529,-100,4,1,1,80,0,0
102820,-100,4,2,1,80,0,0
103110,-100,4,1,1,80,0,0
103400,-100,4,2,1,100,0,0
103690,-100,4,1,1,100,0,0
104174,-100,4,2,1,80,0,0
104536,383.386581469649,4,2,1,80,1,0
104949,-100,4,2,2,80,0,0
105294,-100,4,1,1,100,0,0
107028,-100,4,2,1,80,0,0
107315,-100,4,1,1,80,0,0
107795,-100,4,2,1,80,0,0
108082,-100,4,1,1,80,0,0
108561,-100,4,2,1,80,0,0
109616,-100,4,1,1,80,0,0
109903,-100,4,2,1,80,0,0
110478,-100,4,1,2,80,0,0
110766,-100,4,2,1,80,0,0
110957,-100,4,1,1,80,0,0
112587,-100,4,2,1,80,0,0
113641,-100,4,2,2,80,0,0
113833,-100,4,2,1,80,0,0
114025,-100,4,1,1,80,0,0
114312,-100,4,2,1,80,0,0
114600,-100,4,1,1,80,0,0
115654,-100,4,2,1,80,0,0
115941,-100,4,1,1,80,0,0
116133,-100,4,2,1,80,0,0
116708,-100,4,1,1,80,0,0
116809,380.469245402663,4,1,1,80,1,0
117665,-100,4,2,1,80,0,0
118235,-100,4,1,1,80,0,0
118342,384.615384615385,4,1,1,80,1,0
121122,-100,4,2,1,80,0,0
121313,-100,4,2,2,80,0,0
121403,383.141713554987,4,2,2,80,1,0
121792,-100,4,2,1,80,0,0
122080,-100,4,2,2,80,0,0
122558,-100,4,2,1,80,0,0
122846,-100,4,2,2,80,0,0
123229,-100,4,1,1,80,0,0
123516,-100,4,2,1,80,0,0
123899,-100,4,1,2,80,0,0
124187,-100,4,2,1,80,0,0
124386,-100,4,2,2,80,0,0
124482,380.228136882129,4,2,2,80,1,0
124862,-100,4,2,1,80,0,0
125147,-100,4,2,2,80,0,0
125622,-100,4,1,1,80,0,0
126383,-100,4,1,2,80,0,0
126953,-100,4,2,1,80,0,0
127428,-100,4,2,2,80,0,0
127904,-100,4,2,1,80,0,0
128189,-100,4,2,2,80,0,0
128664,-100,4,2,1,80,0,0
128949,-100,4,1,1,80,0,0
129995,-100,4,2,2,80,0,0
130280,-100,4,2,1,80,0,0
130470,-100,4,2,2,80,0,0
130945,-100,4,2,1,80,0,0
131231,-100,4,2,2,80,0,0
131706,-100,4,2,1,100,0,0
131987,-100,4,2,2,80,0,0
132081,375,4,2,2,80,1,0
132831,-100,4,1,1,80,0,0
133393,-100,4,2,2,80,0,0
150268,-100,4,1,1,100,0,0
150491,383.385605095541,4,1,1,80,1,0
150683,-100,4,2,1,80,0,0
151258,-100,4,1,1,80,0,0
152983,-100,4,2,1,80,0,0
153654,-100,4,1,1,80,0,0
154325,-100,4,2,1,80,0,0
154900,-100,4,1,2,80,0,0
155188,-100,4,2,1,80,0,0
155379,-100,4,1,1,80,0,0
157009,-100,4,2,1,80,0,0
158063,-100,4,2,2,80,0,0
158255,-100,4,2,1,80,0,0
158446,-100,4,1,1,80,0,0
158734,-100,4,2,1,80,0,0
159022,-100,4,1,1,80,0,0
160076,-100,4,2,1,80,0,0
160363,-100,4,1,1,80,0,0
160555,-100,4,2,1,80,0,0
161897,-100,4,1,1,80,0,0
162568,-100,4,2,1,80,0,0
163239,-100,4,1,1,80,0,0
163526,-100,4,2,1,80,0,0
163814,-100,4,1,1,80,0,0
164101,-100,4,1,1,100,0,0
164291,383.136581469648,4,1,1,80,1,0
165057,-100,4,2,1,80,0,0
165824,-100,4,1,1,80,0,0
166207,-100,4,2,1,80,0,0
166494,-100,4,1,2,80,0,0
166781,-100,4,1,1,80,0,0
167069,-100,4,2,1,80,0,0
167260,-100,4,1,1,80,0,0
167931,-100,4,2,1,80,0,0
168793,-100,4,1,1,80,0,0
169080,-100,4,2,1,80,0,0
169368,-100,4,1,1,80,0,0
170038,-100,4,2,1,80,0,0
170325,-100,4,1,1,80,0,0
171188,-100,4,2,1,80,0,0
171954,-100,4,1,1,80,0,0
172337,-100,4,2,1,80,0,0
172624,-100,4,1,2,80,0,0
172912,-100,4,1,1,80,0,0
173199,-100,4,2,1,80,0,0
173391,-100,4,1,1,80,0,0
174061,-100,4,2,1,80,0,0
174923,-100,4,1,1,80,0,0
175210,-100,4,2,1,80,0,0
175498,-100,4,1,1,80,0,0
176168,-100,4,2,1,80,0,0
176456,-100,4,1,1,80,0,0
176743,-100,4,2,1,80,0,0
177030,-100,4,1,1,80,0,0
177701,-100,4,2,1,80,0,0
177988,-100,4,1,1,80,0,0
178180,-100,4,2,1,80,0,0
178563,-100,4,1,1,80,0,0
179329,-100,4,2,1,100,0,0
179510,-100,4,1,1,100,0,0
179606,382.165605095541,4,1,1,80,1,0
179797,-100,4,2,1,80,0,0
180083,-100,4,1,1,80,0,0
180752,-100,4,2,1,80,0,0
181612,-100,4,1,1,80,0,0
182472,-100,4,2,2,80,0,0

[Colours]
Combo1 : 240,32,0
Combo2 : 240,160,0
Combo3 : 0,232,24
Combo4 : 64,96,240

[HitObjects]
352,334,35317,6,0,B|256:382|152:331,2,200,2|0|2
419,297,36285,1,0
463,235,36479,1,8
478,160,36672,1,0
450,89,36866,2,0,B|338:25|178:185|58:97,1,400,6|0
27,167,37834,1,0
86,215,38027,1,0
160,232,38221,2,0,B|232:280|280:192|364:237,1,200,8|0
256,16,38995,5,0
336,48,39188,2,0,B|288:120|220:120|171:42,1,200,2|0
103,25,39769,1,10
257,176,40156,1,0
409,25,40543,1,0
465,78,40737,1,2
477,154,40930,1,0
491,328,41317,2,0,B|435:448|99:200|13:339,1,500,6|2
160,334,43059,6,0,B|256:382|360:331,2,200,2|0|2
93,297,44027,1,0
49,235,44221,1,0
62,160,44414,2,0,B|174:96|334:256|454:168,1,400,14|0
489,106,45382,1,2
498,30,45576,1,0
427,59,45769,1,0
352,42,45963,2,0,B|280:90|232:2|148:47,1,200,10|0
160,312,47094,5,0
160,312,47288,1,8
304,312,47675,2,0,B|432:312|432:192,1,200,6|0
356,192,48256,2,0,B|148:192,1,200,6|0
81,191,48836,2,0,B|80:72|209:73,1,200,6|0
288,72,49417,2,0,B|392:56|493:112,1,200,6|0
512,176,49997,1,10
512,176,50191,1,0
492,329,50578,2,0,B|413:200|77:448|21:328,1,500,6|6
256,368,66173,5,6
184,192,66746,1,8
336,104,67129,1,2
184,16,67511,2,0,B|72:16|8:120,2,200,4|0|0
256,48,68467,5,8
256,256,68849,1,10
256,256,69041,1,0
328,283,69232,2,0,B|440:291|520:232,2,200,0|0|2
104,336,70570,5,0
69,263,70761,2,0,B|-4:174|64:80,1,200,2|0
134,31,71335,2,0,C|149:78|109:166|128:213,2,200,2|8|0
256,16,72291,5,6
328,192,72865,1,8
176,280,73247,1,2
328,368,73629,2,0,B|440:368|504:264,2,200,4|0|0
256,336,74586,5,2
256,128,74968,1,10
256,128,75159,1,0
184,101,75350,2,0,B|72:93|-8:152,2,200,0|0|2
408,48,76689,5,0
448,120,76880,2,0,C|464:168|424:256|448:312,1,200,2|0
384,353,77454,2,0,B|311:264|380:167,2,200,2|8|0
176,360,78410,6,0,B|72:360|16:240,1,200,6|0
40,176,78983,1,2
40,16,79366,1,2
168,96,79748,1,0
200,168,79939,5,10
256,224,80130,1,0
312,168,80322,1,0
368,224,80513,2,0,B|424:169|382:82|300:85,2,200,2|6|0
336,360,81469,6,0,B|440:360|496:240,1,200,10|0
472,176,82042,1,6
472,16,82425,1,2
344,96,82807,1,0
312,168,82999,5,2
256,224,83190,1,0
200,168,83381,1,0
144,224,83572,2,0,B|88:169|130:82|212:85,1,200,2|6
216,368,84337,5,0
296,368,84528,1,2
256,264,84911,1,8
328,224,85102,1,0
256,184,85293,1,0
184,224,85484,1,2
256,88,85867,1,0
328,120,86058,2,0,B|352:8|256:-16|160:8|184:120,3,300,12|6|12|6
256,312,88352,1,8
160,334,96820,6,0,B|256:382|360:331,2,200,2|0|2
93,297,97787,1,0
49,235,97981,1,8
34,160,98174,1,0
62,89,98368,2,0,B|174:25|334:185|454:97,1,400,6|0
489,167,99336,2,0,B|396:224|278:187,1,200,8|0
222,172,99916,1,2
148,152,100110,1,0
168,226,100303,1,6
256,16,100884,5,0
256,16,101078,1,8
156,117,101465,2,0,B|364:117,1,200,6|0
356,192,102045,2,0,B|148:192,1,200,6|0
156,267,102626,2,0,B|364:267,1,200,6|0
356,342,103207,2,0,B|148:342,1,200,6|0
88,309,103787,1,10
48,245,103981,1,0
62,89,104368,2,0,B|174:25|334:185|454:97,1,400,4|8
408,312,105494,6,0,B|256:360|96:312,1,300,10|6
256,240,106452,1,0
352,152,106836,2,0,B|256:112|152:152,1,200,2|0
111,86,107411,2,0,B|255:22|415:94,1,300,10|0
432,160,108178,1,2
408,354,108944,5,0
356,298,109136,2,0,B|140:298,1,200,2|0
104,354,109711,1,2
216,216,110095,5,8
296,216,110286,1,8
256,120,110670,5,8
192,72,110861,1,0
256,24,111053,1,0
392,24,111436,1,2
456,72,111628,1,0
496,192,112012,2,0,B|496:320|360:320,2,200,8|2|0
424,152,112970,5,2
256,168,113353,1,8
192,216,113545,5,0
256,264,113737,1,2
320,312,113928,1,0
256,360,114120,1,0
120,360,114504,1,0
56,312,114696,1,2
16,192,115079,2,0,B|16:64|152:64,2,200,10|2|0
96,176,116037,1,10
176,160,116229,1,0
256,152,116420,1,8
336,160,116612,1,0
296,272,116809,5,8
216,272,116999,1,0
160,336,117189,2,0,B|256:384|368:328,1,200,2|6
412,279,117760,1,0
429,202,117950,1,0
397,130,118140,1,2
256,40,118342,6,0,B|152:-8|56:40,2,200,4|0|0
128,168,119495,1,8
256,288,119880,2,0,B|352:328|456:288,2,200,4|0|0
384,168,121034,1,8
440,112,121226,5,0
384,56,121403,1,4
328,112,121594,1,0
184,112,121977,1,0
128,56,122169,1,4
72,112,122360,1,0
328,248,122743,5,0
256,216,122935,1,4
184,248,123127,1,0
160,324,123318,2,0,B|256:372|360:321,1,200,8|2
256,136,124084,1,8
328,168,124276,5,0
376,104,124482,1,4
328,40,124672,1,0
184,168,125052,1,0
136,104,125242,1,4
184,40,125432,1,0
448,272,125812,6,0,B|256:368|40:264,1,400,4|2
72,56,127333,5,0
128,112,127523,1,4
184,56,127713,1,0
328,56,128094,1,0
384,112,128284,1,4
440,56,128474,1,0
256,16,128854,5,0
256,96,129044,1,8
160,208,129424,1,0
360,248,129805,1,0
256,360,130185,1,2
160,320,130375,5,0
104,264,130565,1,4
160,208,130755,1,0
352,208,131135,1,0
408,264,131326,1,4
352,320,131516,1,0
16,280,131896,5,0
32,360,132081,2,2,C|240:312|112:248|336:176,1,600,4|6
472,40,133581,1,8
352,48,150491,6,0,B|256:0|144:56,1,200,6|0
256,104,151066,1,2
256,240,151449,1,2
352,344,151832,2,0,B|256:392|152:344,2,200,10|8|6
24,352,153366,5,0
80,296,153558,1,2
24,240,153749,2,0,B|24:32,1,200,0|6
256,232,154516,5,8
256,152,154708,1,8
296,16,155091,5,8
376,16,155283,1,0
336,88,155475,1,0
432,208,155858,1,2
352,208,156050,1,0
328,336,156433,2,0,B|432:336|520:240,2,200,8|2|0
256,288,157391,5,2
288,216,157583,1,8
224,168,157775,1,8
256,96,157967,1,0
216,16,158158,5,2
136,16,158350,1,0
176,88,158542,1,0
80,208,158925,1,0
160,208,159117,1,2
184,336,159500,2,0,B|72:336|0:248,2,200,10|2|0
256,368,160459,1,8
256,288,160650,1,0
256,208,160842,1,2
256,128,161034,1,0
152,80,161225,5,0
216,32,161417,1,8
296,32,161609,1,8
360,80,161800,1,0
401,146,161992,2,0,B|505:186|513:306,2,200,2|12|2
256,320,163142,1,0
256,320,163334,1,6
256,168,163717,1,0
256,168,163909,1,6
256,16,164291,5,6
328,192,164865,1,8
176,280,165248,1,2
328,368,165631,2,0,B|440:368|504:264,2,200,4|0|0
256,336,166589,5,8
256,128,166972,1,10
256,128,167164,1,0
184,101,167356,2,0,B|72:93|-8:152,2,200,0|0|2
408,48,168697,5,0
443,122,168888,2,0,B|516:211|448:305,1,200,2|0
378,354,169463,2,0,C|363:306|403:218|384:172,2,200,2|8|0
256,368,170421,5,6
184,192,170995,1,8
336,104,171379,1,2
184,16,171762,2,0,B|72:16|8:120,2,200,4|0|0
256,48,172720,5,2
256,256,173103,1,10
256,256,173294,1,0
328,283,173486,2,0,B|440:291|520:232,2,200,0|0|2
104,336,174827,5,0
64,264,175018,2,0,C|48:216|88:128|64:72,1,200,2|0
128,31,175592,2,0,B|201:120|132:217,2,200,2|8|0
336,24,176551,6,0,B|440:24|496:144,1,200,6|0
472,208,177126,1,2
472,368,177509,1,2
344,288,177892,1,0
312,216,178083,5,10
256,160,178275,1,0
200,216,178467,1,0
144,160,178658,2,0,B|88:215|130:302|212:299,2,200,2|6|0
176,24,179606,6,0,B|72:24|16:144,1,200,10|0
40,208,180179,1,6
40,368,180561,1,2
168,288,180943,1,0
200,216,181134,5,2
256,160,181325,1,0
312,216,181516,1,0
368,160,181707,2,0,B|424:215|382:302|300:299,1,200,2|6
256,192,182663,12,8,187153
